osu file format v14

[General]
AudioFilename: audio.mp3
AudioLeadIn: 0
PreviewTime: 47821
Countdown: 0
SampleSet: Soft
StackLeniency: 0.4
Mode: 0
LetterboxInBreaks: 0
WidescreenStoryboard: 1

[Editor]
Bookmarks: 2673,77227
DistanceSpacing: 1.4
BeatDivisor: 4
GridSize: 8
TimelineZoom: 2.3

[Metadata]
Title:Haruka Kanata (TV Size)
TitleUnicode:ハルカカナタ (TV Size)
Artist:UNLIMITS
ArtistUnicode:UNLIMITS
Creator:Xandit
Version:schoolboy's Extra
Source:BLEACH
Tags:Astronic schoolboy Nevo yShadowXOP_ ChuuritsuTv Entry BLEACH anime ending 28 japanese
BeatmapID:1860366
BeatmapSetID:876133

[Difficulty]
HPDrainRate:6
CircleSize:4
OverallDifficulty:9
ApproachRate:9.3
SliderMultiplier:1.5
SliderTickRate:1

[Events]
//Background and Video events
0,0,"BG.png",0,0
//Break Periods
//Storyboard Layer 0 (Background)
//Storyboard Layer 1 (Fail)
//Storyboard Layer 2 (Pass)
//Storyboard Layer 3 (Foreground)
//Storyboard Sound Samples

[TimingPoints]
594,297.029702970297,4,2,1,55,1,0
594,-125,4,2,1,55,0,0
5346,-125,4,2,1,65,0,0
8910,-125,4,2,1,75,0,0
9504,-90.9090909090909,4,2,1,95,0,0
9950,-100,4,2,1,95,0,1
19455,-111.111111111111,4,2,1,75,0,0
28960,-100,4,2,1,80,0,0
38613,-111.111111111111,4,2,1,65,0,0
45742,-90.9090909090909,4,2,1,80,0,0
46188,-111.111111111111,4,2,1,70,0,0
46633,-125,4,2,1,60,0,0
47079,-100,4,2,1,60,0,0
47524,-333.333333333333,4,2,1,60,0,0
48118,-71.4285714285714,4,2,1,95,0,1
63564,-76.9230769230769,4,2,1,95,0,0
64752,-71.4285714285714,4,2,1,95,0,1
74257,-111.111111111111,4,2,1,75,0,0
80197,-125,4,2,1,65,0,0
81237,-100,4,2,1,95,0,0
83762,-196.078431372549,4,2,1,95,0,0
84059,-196.078431372549,4,2,2,85,0,0
84356,-196.078431372549,4,2,1,75,0,0
84653,-196.078431372549,4,2,2,65,0,0
84950,-196.078431372549,4,2,1,55,0,0
85247,-196.078431372549,4,2,2,50,0,0
85544,-196.078431372549,4,2,1,45,0,0
85841,-196.078431372549,4,2,2,40,0,0
86138,-196.078431372549,4,2,1,35,0,0
86435,-196.078431372549,4,2,2,30,0,0
86732,-196.078431372549,4,2,1,25,0,0
87029,-196.078431372549,4,2,2,20,0,0
87326,-196.078431372549,4,2,1,15,0,0
87623,-196.078431372549,4,2,2,10,0,0
87920,-196.078431372549,4,2,1,5,0,0

[Colours]
Combo1 : 80,124,91
Combo2 : 120,120,120
Combo3 : 201,151,1
Combo4 : 168,0,0

[HitObjects]
97,214,296,5,2,0:0:0:0:
97,214,594,6,0,L|108:149,2,60,2|2|2,1:0|1:0|0:0,0:0:0:0:
144,288,1039,1,2,0:0:0:0:
86,346,1188,2,0,P|47:357|13:351,1,60,0|2,0:0|0:0,0:0:0:0:
220,250,1485,2,0,P|249:249|277:259,1,60,2|2,0:0|0:0,0:0:0:0:
406,359,1782,6,0,P|422:258|428:221,1,120,0|0,0:0|0:0,0:0:0:0:
371,174,2227,1,0,0:0:0:0:
434,116,2376,2,0,L|509:99,1,60,0|0,0:0|0:0,0:0:0:0:
330,53,2673,2,0,L|271:39,1,60,0|0,0:0|0:0,0:0:0:0:
126,177,2970,5,2,0:0:0:0:
200,214,3118,1,2,0:0:0:0:
278,182,3267,1,2,0:0:0:0:
282,98,3415,2,0,L|267:20,1,60,2|0,0:0|0:0,0:0:0:0:
193,89,3712,1,2,0:0:0:0:
354,145,3861,2,0,L|427:137,1,60,2|2,0:0|0:0,0:0:0:0:
505,277,4158,6,0,P|461:288|389:234,1,120,2|2,0:0|0:0,0:0:0:0:
328,305,4603,1,0,0:0:0:0:
255,258,4752,2,0,L|246:186,1,60,2|0,0:0|0:0,0:0:0:0:
144,313,5049,2,0,P|138:343|135:373,1,60,2|0,0:0|0:0,0:0:0:0:
33,258,5346,5,2,1:0:0:0:
126,191,5494,1,2,1:0:0:0:
59,141,5643,1,2,0:0:0:0:
59,141,5792,2,0,L|-26:153,1,60,2|0,0:0|0:0,0:0:0:0:
126,191,6089,1,2,0:0:0:0:
184,127,6237,2,0,P|191:91|186:64,1,60,2|2,0:0|0:0,0:0:0:0:
288,189,6534,6,0,P|342:167|401:175,1,120,2|2,0:0|0:0,0:0:0:0:
507,78,6980,1,0,0:0:0:0:
435,31,7128,2,0,L|426:98,1,60,2|0,0:0|0:0,0:0:0:0:
505,234,7425,2,0,L|514:167,1,60,2|0,0:0|0:0,0:0:0:0:
335,53,7722,5,2,1:0:0:0:
375,255,7871,1,2,1:0:0:0:
427,179,8019,1,2,0:0:0:0:
427,179,8168,2,0,P|376:163|353:163,1,60,2|0,0:0|0:0,0:0:0:0:
270,261,8465,2,0,L|275:331,1,60,2|2,0:0|0:0,0:0:0:0:
231,175,8762,1,2,0:0:0:0:
148,345,8910,6,0,P|94:354|64:361,1,60,4|2,0:0|0:0,0:0:0:0:
369,251,9207,2,0,P|423:260|453:267,1,60,6|2,0:0|0:0,0:0:0:0:
203,91,9504,5,10,0:0:0:0:
279,352,9653,1,10,0:0:0:0:
279,352,9950,6,0,P|242:308|136:316,1,150,6|2,1:0|1:0,0:0:0:0:
0,224,10395,1,10,0:0:0:0:
0,224,10544,2,0,L|92:205,1,75,2|0,0:0|1:0,0:0:0:0:
55,311,10841,1,2,1:0:0:0:
18,126,10990,1,10,0:0:0:0:
222,218,11138,6,0,L|203:393,1,150,2|2,1:0|1:0,0:0:0:0:
385,231,11584,1,10,0:0:0:0:
452,303,11732,2,0,P|383:328|315:299,1,150,2|0,0:0|1:0,0:0:0:0:
506,183,12178,1,8,0:0:0:0:
376,89,12326,6,0,P|299:98|227:108,1,150,2|2,1:0|1:0,0:0:0:0:
153,170,12772,1,10,0:0:0:0:
80,104,12920,2,0,P|72:65|87:21,1,75,2|0,0:0|1:0,0:0:0:0:
154,179,13217,1,2,1:0:0:0:
38,263,13366,1,10,0:0:0:0:
168,359,13514,6,0,B|243:369|242:319|311:333,1,150,2|2,1:0|1:0,0:0:0:0:
446,188,13960,1,10,0:0:0:0:
467,288,14108,2,0,L|380:273,1,75,2|0,0:0|1:0,0:0:0:0:
452,184,14405,1,0,1:0:0:0:
406,377,14554,1,8,0:0:0:0:
267,261,14702,6,0,P|206:245|134:308,1,150,6|2,1:0|1:0,0:0:0:0:
58,90,15148,1,10,0:0:0:0:
0,183,15296,2,0,L|168:158,1,150,2|2,0:0|1:0,0:0:0:0:
53,83,15742,1,10,0:0:0:0:
238,168,15891,6,0,P|300:130|372:141,1,150,2|2,1:0|1:0,0:0:0:0:
471,254,16336,1,10,0:0:0:0:
471,254,16485,2,0,L|456:349,1,75,2|0,0:0|1:0,0:0:0:0:
367,259,16782,1,0,1:0:0:0:
486,152,16930,1,8,0:0:0:0:
307,83,17079,6,0,B|240:71|229:124|164:111,1,150,6|2,1:0|1:0,0:0:0:0:
5,68,17524,1,10,0:0:0:0:
61,217,17673,2,0,L|70:116,1,75,2|0,0:0|1:0,0:0:0:0:
174,205,17970,1,2,1:0:0:0:
56,331,18118,1,10,0:0:0:0:
256,384,18267,6,0,P|337:345|400:365,1,150,6|2,1:0|1:0,0:0:0:0:
360,172,18712,2,0,L|341:266,1,75,10|2,0:0|0:0,0:0:0:0:
491,377,19009,1,2,1:0:0:0:
451,224,19158,1,2,1:0:0:0:
490,369,19306,1,10,0:0:0:0:
454,232,19455,6,0,L|476:86,1,134.999995880127,6|0,1:0|0:0,0:0:0:0:
424,12,19900,1,8,0:0:0:0:
424,12,20197,1,2,0:0:0:0:
350,74,20346,2,0,L|358:151,1,67.4999979400635,2|10,0:0|0:0,0:0:0:0:
263,207,20643,6,0,P|212:223|135:173,1,134.999995880127,2|0,0:0|0:0,0:0:0:0:
215,124,21089,1,8,0:0:0:0:
46,355,21386,1,2,0:0:0:0:
142,312,21534,1,2,0:0:0:0:
62,255,21683,1,10,0:0:0:0:
148,316,21831,6,0,P|182:309|242:309,1,67.4999979400635,2|0,0:0|0:0,0:0:0:0:
307,185,22128,2,0,L|293:261,1,67.4999979400635,2|8,0:0|0:0,0:0:0:0:
353,384,22425,2,0,L|367:308,1,67.4999979400635,2|0,0:0|0:0,0:0:0:0:
445,259,22722,2,0,P|492:246|521:249,1,67.4999979400635,2|8,0:0|0:0,0:0:0:0:
386,168,23019,6,0,P|368:110|391:40,1,134.999995880127,2|0,0:0|0:0,0:0:0:0:
477,2,23465,1,10,0:0:0:0:
276,109,23762,1,2,1:0:0:0:
175,99,23910,1,2,1:0:0:0:
74,87,24059,1,10,0:0:0:0:
99,214,24207,6,0,P|166:206|233:199,1,134.999995880127,6|0,1:0|0:0,0:0:0:0:
316,250,24653,1,8,0:0:0:0:
316,250,24950,2,0,L|302:326,1,67.4999979400635,2|2,0:0|0:0,0:0:0:0:
393,178,25247,1,10,0:0:0:0:
293,90,25395,6,0,P|257:113|156:76,1,134.999995880127,2|0,0:0|0:0,0:0:0:0:
101,25,25841,1,8,0:0:0:0:
5,221,26138,2,0,P|25:252|32:286,1,67.4999979400635,2|2,0:0|0:0,0:0:0:0:
0,379,26435,1,10,0:0:0:0:
140,336,26584,6,0,P|190:325|220:329,1,67.4999979400635,2|0,0:0|0:0,0:0:0:0:
360,252,26881,2,0,P|326:251|294:242,1,67.4999979400635,2|8,0:0|0:0,0:0:0:0:
219,162,27178,2,0,L|240:21,1,134.999995880127,2|2,0:0|0:0,0:0:0:0:
321,84,27623,1,8,0:0:0:0:
129,141,27772,6,0,B|71:131|60:173|-1:168,1,134.999995880127,2|0,0:0|0:0,0:0:0:0:
11,70,28217,1,8,0:0:0:0:
206,229,28514,1,2,1:0:0:0:
129,303,28663,1,2,1:0:0:0:
232,374,28811,1,10,0:0:0:0:
197,217,28960,6,0,L|215:51,1,150,6|0,1:0|0:0,0:0:0:0:
376,151,29405,2,0,P|340:162|297:159,1,75,8|0,0:0|0:0,0:0:0:0:
325,69,29702,1,2,0:0:0:0:
463,173,29851,2,0,L|448:261,1,75,2|8,0:0|0:0,0:0:0:0:
380,363,30148,6,0,P|332:324|241:342,1,150,2|0,0:0|0:0,0:0:0:0:
111,268,30593,2,0,L|215:251,1,75,8|0,0:0|0:0,0:0:0:0:
156,357,30891,1,2,0:0:0:0:
23,281,31039,2,0,P|16:244|35:181,1,75,2|10,0:0|0:0,0:0:0:0:
115,127,31336,6,0,L|190:136,1,75,2|0,0:0|0:0,0:0:0:0:
318,37,31633,2,0,L|237:46,1,75,2|8,0:0|0:0,0:0:0:0:
423,95,31930,2,0,P|436:65|433:12,1,75,2|0,0:0|0:0,0:0:0:0:
325,160,32227,2,0,L|335:248,1,75,2|8,0:0|0:0,0:0:0:0:
457,361,32524,6,0,P|491:296|471:226,1,150,2|0,0:0|0:0,0:0:0:0:
255,363,32970,2,0,P|295:355|357:366,1,75,8|0,0:0|0:0,0:0:0:0:
229,244,33267,1,0,1:0:0:0:
136,361,33415,1,0,1:0:0:0:
235,254,33564,1,10,0:0:0:0:
0,215,33712,6,0,P|75:234|136:190,1,150,6|0,1:0|0:0,0:0:0:0:
75,31,34158,2,0,L|61:142,1,112.5,10|0,0:0|0:0,0:0:0:0:
132,197,34455,2,0,P|187:183|220:189,1,75,2|0,0:0|0:0,0:0:0:0:
402,90,34752,2,0,P|347:103|284:60,1,112.5,10|0,0:0|0:0,0:0:0:0:
285,52,35049,6,0,L|303:196,1,112.5,2|0,0:0|0:0,0:0:0:0:
365,226,35346,2,0,L|355:304,1,75,10|0,0:0|0:0,0:0:0:0:
277,371,35643,1,2,1:0:0:0:
460,278,35791,1,0,1:0:0:0:
298,163,35940,1,10,0:0:0:0:
101,291,36089,6,0,B|166:303|184:257|247:269,1,150,2|0,1:0|1:0,0:0:0:0:
421,125,36534,2,0,P|382:170|294:160,1,150,10|0,0:0|1:0,0:0:0:0:
196,95,36980,1,2,1:0:0:0:
246,269,37128,1,10,0:0:0:0:
284,18,37277,5,2,0:0:0:0:
196,95,37425,2,0,P|200:132|203:169,1,75,2|2,0:0|1:0,0:0:0:0:
337,357,37722,2,0,L|345:283,1,75,10|2,0:0|1:0,0:0:0:0:
445,332,38019,1,10,0:0:0:0:
239,307,38168,1,10,0:0:0:0:
419,191,38316,2,0,P|467:176|509:182,1,75,2|0,1:0|1:0,0:0:0:0:
322,73,38613,5,6,1:0:0:0:
322,73,38762,2,0,P|276:122|208:123,1,134.999995880127,8|0,0:0|1:0,0:0:0:0:
114,88,39207,2,0,L|128:177,1,67.4999979400635,8|0,0:0|0:0,0:0:0:0:
17,300,39504,2,0,L|3:211,1,67.4999979400635,2|8,1:0|0:0,0:0:0:0:
156,253,39801,5,2,1:0:0:0:
113,372,39950,1,0,1:0:0:0:
267,348,40098,2,0,P|231:336|191:334,1,67.4999979400635,10|0,0:0|0:0,0:0:0:0:
6,233,40395,2,0,P|39:229|71:218,1,67.4999979400635,2|0,1:0|1:0,0:0:0:0:
157,144,40693,2,0,B|146:88|173:71|158:8,1,134.999995880127,10|0,0:0|1:0,0:0:0:0:
253,121,41138,6,0,P|310:132|373:59,1,134.999995880127,8|0,0:0|1:0,0:0:0:0:
508,176,41584,2,0,L|439:165,1,67.4999979400635,8|0,0:0|0:0,0:0:0:0:
488,79,41881,1,0,1:0:0:0:
456,268,42029,2,0,B|404:253|386:299|323:282,1,134.999995880127,8|0,0:0|1:0,0:0:0:0:
263,119,42475,6,0,P|250:150|245:183,1,67.4999979400635,10|0,0:0|0:0,0:0:0:0:
86,131,42772,2,0,L|155:119,1,67.4999979400635,2|0,1:0|1:0,0:0:0:0:
132,276,43069,2,0,P|65:287|8:299,1,101.249996910095,10|0,0:0|0:0,0:0:0:0:
12,332,43366,5,6,1:0:0:0:
12,332,43514,2,0,P|49:375|121:366,1,134.999995880127,8|0,0:0|1:0,0:0:0:0:
209,294,43960,2,0,L|201:219,1,67.4999979400635,8|0,0:0|0:0,0:0:0:0:
328,317,44257,2,0,L|320:392,1,67.4999979400635,2|8,1:0|0:0,0:0:0:0:
437,324,44554,6,0,P|476:313|514:314,1,67.4999979400635,2|0,1:0|1:0,0:0:0:0:
343,227,44851,2,0,L|258:214,1,67.4999979400635,10|0,0:0|0:0,0:0:0:0:
446,65,45148,2,0,P|461:112|449:161,1,101.249996910095,2|0,1:0|0:0,0:0:0:0:
377,112,45445,2,0,L|370:27,1,67.4999979400635,14|0,0:0|0:0,0:0:0:0:
153,155,45742,6,0,P|89:161|26:103,1,123.75000377655,14|0,0:0|0:0,0:0:0:0:
112,69,46039,1,0,1:0:0:0:
283,133,46188,6,0,P|315:112|391:118,1,101.249996910095,10|0,3:0|0:0,0:0:0:0:
348,201,46485,1,0,1:0:0:0:
199,376,46633,6,0,L|216:260,1,90,10|0,3:0|0:0,0:0:0:0:
228,196,46930,1,0,0:0:0:0:
495,318,47079,5,2,0:0:0:0:
382,345,47227,1,2,0:0:0:0:
472,235,47376,1,2,0:0:0:0:
359,262,47524,1,2,0:0:0:0:
351,261,47821,1,2,0:0:0:0:
343,259,48118,6,0,P|279:271|255:362,1,157.499995193482,6|0,1:0|0:0,0:0:0:0:
251,351,48415,1,8,0:0:0:0:
121,296,48564,1,0,0:0:0:0:
0,169,48712,6,0,B|92:146|92:146|113:173|146:173,1,157.499995193482,2|0,1:0|0:0,0:0:0:0:
235,148,49009,2,0,P|249:80|180:81,1,157.499995193482,10|0,0:0|0:0,0:0:0:0:
145,173,49306,2,0,L|164:349,1,157.499995193482,6|0,1:0|0:0,0:0:0:0:
161,329,49603,1,8,0:0:0:0:
303,384,49752,1,0,0:0:0:0:
454,230,49900,6,0,P|377:236|324:182,1,157.499995193482,2|0,1:0|0:0,0:0:0:0:
369,62,50197,2,0,P|445:56|498:110,1,157.499995193482,10|0,0:0|0:0,0:0:0:0:
412,145,50494,2,0,B|380:138|354:151|354:151|326:89|255:95,1,157.499995193482,6|0,1:0|0:0,0:0:0:0:
201,147,50792,2,0,B|201:105|171:78|171:78|181:24|239:19,1,157.499995193482,14|0,0:0|0:0,0:0:0:0:
279,95,51089,2,0,L|259:252,1,157.499995193482,6|0,1:0|0:0,0:0:0:0:
334,305,51386,2,0,B|278:294|278:294|246:339|181:329,1,157.499995193482,14|0,0:0|0:0,0:0:0:0:
143,247,51683,6,0,P|90:256|107:345,1,157.499995193482,6|0,1:0|0:0,0:0:0:0:
99,341,51980,1,8,0:0:0:0:
254,185,52128,1,0,0:0:0:0:
21,120,52277,6,0,B|70:84|110:90|110:90|126:121|164:127,1,157.499995193482,2|0,1:0|0:0,0:0:0:0:
229,62,52574,2,0,P|297:28|366:60,1,157.499995193482,10|0,0:0|0:0,0:0:0:0:
445,10,52871,2,0,B|427:65|427:65|436:106|436:106|418:161,1,157.499995193482,6|0,1:0|0:0,0:0:0:0:
418,161,53168,1,8,0:0:0:0:
286,241,53316,1,0,0:0:0:0:
512,324,53465,6,0,B|467:328|442:361|442:361|411:338|361:349,1,157.499995193482,2|0,1:0|0:0,0:0:0:0:
278,384,53762,2,0,P|241:334|122:350,1,157.499995193482,10|0,0:0|0:0,0:0:0:0:
71,378,54059,2,0,B|49:321|49:321|50:257|76:217,1,157.499995193482,6|0,1:0|0:0,0:0:0:0:
69,227,54356,1,8,0:0:0:0:
238,134,54504,1,0,0:0:0:0:
114,0,54653,6,0,L|140:167,1,157.499995193482,2|0,1:0|0:0,0:0:0:0:
207,222,54950,2,0,B|194:336|194:336|181:306|169:301,1,157.499995193482,10|0,0:0|0:0,0:0:0:0:
111,384,55247,2,0,B|156:376|189:361|189:361|226:371|264:367,1,157.499995193482,6|0,1:0|0:0,0:0:0:0:
335,303,55544,2,0,P|391:300|377:387,1,157.499995193482,10|0,0:0|0:0,0:0:0:0:
335,303,55841,2,0,L|356:134,1,157.499995193482,2|0,1:0|0:0,0:0:0:0:
366,51,56138,1,10,0:0:0:0:
461,180,56287,2,0,B|369:152|368:240|261:214,1,209.999993591309,6|0,0:0|1:0,0:0:0:0:
172,130,56732,5,12,0:0:0:0:
261,307,56881,1,0,0:0:0:0:
251,347,56955,1,8,3:0:0:0:
214,368,57029,1,2,1:0:0:0:
290,105,57178,1,0,1:0:0:0:
385,306,57326,1,10,0:0:0:0:
151,242,57475,1,0,1:0:0:0:
382,87,57623,6,0,P|418:77|417:173,1,157.499995193482,6|0,1:0|0:0,0:0:0:0:
436,166,57920,1,8,0:0:0:0:
267,56,58069,1,0,0:0:0:0:
199,214,58217,6,0,B|155:202|155:202|109:252|150:316,1,157.499995193482,2|0,1:0|0:0,0:0:0:0:
220,353,58514,2,0,B|298:335|297:383|373:368,1,157.499995193482,10|0,0:0|0:0,0:0:0:0:
460,320,58811,2,0,B|455:280|477:243|477:243|453:280|411:285,1,157.499995193482,6|0,1:0|0:0,0:0:0:0:
414,284,59108,1,8,0:0:0:0:
295,169,59257,1,0,0:0:0:0:
493,24,59405,6,0,B|452:50|452:50|402:21|340:41,1,157.499995193482,2|0,1:0|0:0,0:0:0:0:
263,78,59702,2,0,B|220:51|220:51|165:50|116:73,1,157.499995193482,10|0,0:0|0:0,0:0:0:0:
31,37,59999,2,0,L|51:200,1,157.499995193482,6|0,1:0|0:0,0:0:0:0:
138,189,60296,2,0,P|113:261|40:282,1,157.499995193482,14|0,0:0|0:0,0:0:0:0:
0,374,60594,2,0,B|62:324|62:324|129:364,1,157.499995193482,6|0,1:0|0:0,0:0:0:0:
205,310,60891,2,0,B|256:302|295:338|295:338|326:323|363:329,1,157.499995193482,14|0,0:0|0:0,0:0:0:0:
438,370,61188,2,0,P|488:328|425:279,1,157.499995193482,6|0,1:0|0:0,0:0:0:0:
368,211,61485,2,0,B|379:153|379:153|369:119|369:119|381:57,1,157.499995193482,8|0,0:0|0:0,0:0:0:0:
467,17,61782,5,2,1:0:0:0:
277,125,61930,1,0,1:0:0:0:
235,120,62004,1,8,3:0:0:0:
192,118,62079,1,10,0:0:0:0:
434,276,62227,1,0,0:0:0:0:
295,27,62376,5,6,1:0:0:0:
243,224,62524,1,2,0:0:0:0:
381,57,62673,1,14,0:0:0:0:
329,254,62821,1,2,0:0:0:0:
299,18,62970,5,6,1:0:0:0:
239,234,63118,1,0,1:0:0:0:
385,48,63267,1,14,0:0:0:0:
325,264,63415,1,0,1:0:0:0:
189,108,63564,5,14,0:0:0:0:
107,102,63663,1,8,0:0:0:0:
55,165,63762,1,8,0:0:0:0:
76,244,63861,5,8,0:0:0:0:
256,172,64009,1,8,0:0:0:0:
256,172,64158,2,0,L|353:137,2,97.4999955368044,10|8|10,0:0|0:0|0:0,0:0:0:0:
256,172,64752,6,0,B|245:131|267:91|267:91|273:59|251:13,1,157.499995193482,6|0,1:0|0:0,0:0:0:0:
254,19,65049,1,8,0:0:0:0:
142,191,65197,1,0,0:0:0:0:
297,331,65346,6,0,P|370:352|437:315,1,157.499995193482,2|0,1:0|0:0,0:0:0:0:
491,233,65643,2,0,B|495:199|481:168|481:168|503:137|493:79,1,157.499995193482,10|0,0:0|0:0,0:0:0:0:
421,23,65940,2,0,B|372:17|372:17|331:56|254:44,1,157.499995193482,6|0,1:0|0:0,0:0:0:0:
271,46,66237,1,8,0:0:0:0:
129,2,66386,1,0,0:0:0:0:
18,147,66534,6,0,L|41:313,1,157.499995193482,2|0,1:0|0:0,0:0:0:0:
110,365,66831,2,0,P|143:314|251:335,1,157.499995193482,10|0,0:0|0:0,0:0:0:0:
311,370,67128,2,0,B|370:344|370:344|398:348|398:348|460:326,1,157.499995193482,6|0,1:0|0:0,0:0:0:0:
510,242,67425,2,0,B|515:197|515:197|395:238,1,157.499995193482,14|0,0:0|0:0,0:0:0:0:
320,188,67722,2,0,P|310:134|395:154,1,157.499995193482,6|0,1:0|0:0,0:0:0:0:
408,233,68019,2,0,P|319:226|286:283,1,157.499995193482,14|0,0:0|0:0,0:0:0:0:
217,341,68316,6,0,B|161:334|161:334|125:371|67:367,1,157.499995193482,2|0,1:0|0:0,0:0:0:0:
68,367,68613,1,8,0:0:0:0:
3,243,68762,1,0,0:0:0:0:
99,49,68910,6,0,B|115:122|115:122|121:132|121:132|121:142|121:142|132:201,1,157.499995193482,2|0,1:0|0:0,0:0:0:0:
216,248,69207,2,0,P|272:257|306:169,1,157.499995193482,10|0,0:0|0:0,0:0:0:0:
368,105,69504,2,0,B|468:92|468:92|503:150,1,157.499995193482,6|0,1:0|0:0,0:0:0:0:
497,140,69801,1,8,0:0:0:0:
322,18,69950,1,0,0:0:0:0:
415,222,70098,6,0,B|433:256|420:295|420:295|401:331|415:381,1,157.499995193482,2|0,1:0|0:0,0:0:0:0:
501,338,70395,2,0,P|452:290|357:300,1,157.499995193482,10|0,0:0|0:0,0:0:0:0:
294,358,70693,2,0,B|264:357|237:340|237:340|196:372|137:363,1,157.499995193482,6|0,1:0|0:0,0:0:0:0:
145,364,70990,1,8,0:0:0:0:
3,238,71138,1,0,0:0:0:0:
110,101,71287,6,0,B|140:136|140:136|105:270,1,157.499995193482,2|0,1:0|0:0,0:0:0:0:
204,220,71584,2,0,L|359:193,1,157.499995193482,10|0,0:0|0:0,0:0:0:0:
433,137,71881,2,0,P|435:103|343:104,1,157.499995193482,2|0,1:0|0:0,0:0:0:0:
360,194,72178,2,0,B|373:249|373:249|417:283|412:340,1,157.499995193482,10|0,0:0|0:0,0:0:0:0:
317,330,72475,2,0,B|241:317|245:373|166:363,1,157.499995193482,2|0,1:0|0:0,0:0:0:0:
90,311,72772,2,0,P|62:239|94:169,1,157.499995193482,10|0,0:0|0:0,0:0:0:0:
170,109,73069,5,8,0:0:0:0:
309,144,73217,1,2,0:0:0:0:
350,293,73366,1,8,1:2:0:0:
211,258,73514,1,2,0:0:0:0:
390,80,73663,5,2,1:1:0:0:
94,168,73811,1,8,3:0:0:0:
427,256,73960,1,10,3:1:0:0:
77,164,74108,1,8,3:0:0:0:
11,111,74257,6,0,P|20:177|30:244,1,134.999995880127,6|0,1:1|1:0,0:0:0:0:
201,384,74851,2,0,P|212:338|208:306,1,67.4999979400635,14|0,0:0|0:0,0:0:0:0:
116,339,75148,2,0,L|50:353,1,67.4999979400635,2|8,0:0|0:0,0:0:0:0:
163,234,75445,5,6,1:0:0:0:
163,234,75594,2,0,P|216:270|284:260,1,134.999995880127,8|0,0:0|0:0,0:0:0:0:
250,112,76039,2,0,L|236:185,1,67.4999979400635,14|0,0:0|0:0,0:0:0:0:
365,347,76336,2,0,L|379:274,1,67.4999979400635,2|0,0:0|0:0,0:0:0:0:
447,200,76633,6,0,P|478:189|512:188,1,67.4999979400635,6|0,1:0|0:0,0:0:0:0:
375,30,76930,2,0,L|384:106,1,67.4999979400635,2|0,1:0|0:0,0:0:0:0:
271,214,77227,2,0,L|285:131,1,67.4999979400635,14|0,0:0|0:0,0:0:0:0:
194,95,77524,2,0,L|128:104,1,67.4999979400635,2|8,0:0|0:0,0:0:0:0:
14,239,77821,5,6,1:0:0:0:
14,239,77970,2,0,L|151:252,1,134.999995880127,8|0,0:0|0:0,0:0:0:0:
213,339,78415,2,0,P|183:354|124:350,1,67.4999979400635,10|0,0:0|0:0,0:0:0:0:
304,268,78712,2,0,L|378:276,1,67.4999979400635,2|0,0:0|0:0,0:0:0:0:
485,346,79009,5,6,1:1:0:0:
505,253,79158,1,2,0:0:0:0:
459,170,79306,1,2,1:0:0:0:
370,136,79455,1,2,0:0:0:0:
370,136,79603,2,0,L|384:50,1,67.4999979400635,14|0,0:0|0:0,0:0:0:0:
202,272,79900,2,0,L|212:338,1,67.4999979400635,2|8,0:0|0:0,0:0:0:0:
161,88,80197,5,6,1:0:0:0:
345,365,80494,5,8,0:0:0:0:
16,261,80792,6,0,P|21:192|79:214,1,150,2|0,0:0|0:0,0:0:0:0:
77,211,81237,6,0,L|58:49,1,150,6|2,1:0|1:0,0:0:0:0:
197,209,81683,1,10,0:0:0:0:
249,115,81831,2,0,P|217:104|171:103,1,75,2|0,0:0|1:0,0:0:0:0:
335,198,82128,1,2,1:0:0:0:
314,26,82277,1,10,0:0:0:0:
500,141,82425,6,0,P|460:105|359:119,1,150,2|2,1:0|1:0,0:0:0:0:
387,342,82871,2,0,L|402:274,1,50,8|8,0:0|0:0,0:0:0:0:
421,191,83069,1,8,0:0:0:0:
317,239,83168,2,0,P|275:250|231:241,1,75,8|0,0:0|0:0,0:0:0:0:
103,147,83465,1,0,1:0:0:0:
186,375,83613,1,8,3:0:0:0:
121,299,83762,6,0,B|195:244|313:221|380:253|520:377|329:442|228:421|202:425|124:285|275:279|342:109|391:102|496:78|430:117|516:106|534:307|475:286|418:294|379:267|293:184|235:152|164:34|352:-12|284:136,1,1071.00000653687,4|0,1:0|0:0,0:0:0:0:
