osu file format v14

[General]
AudioFilename: audio.mp3
AudioLeadIn: 0
PreviewTime: 47821
Countdown: 0
SampleSet: Soft
StackLeniency: 0.7
Mode: 0
LetterboxInBreaks: 0
WidescreenStoryboard: 1

[Editor]
DistanceSpacing: 1
BeatDivisor: 4
GridSize: 32
TimelineZoom: 2.3

[Metadata]
Title:Haruka Kanata (TV Size)
TitleUnicode:ハルカカナタ (TV Size)
Artist:UNLIMITS
ArtistUnicode:UNLIMITS
Creator:Xandit
Version:SharitsuTv's Normal
Source:BLEACH
Tags:Astronic schoolboy Nevo yShadowXOP_ ChuuritsuTv Entry BLEACH anime ending 28 japanese
BeatmapID:1879415
BeatmapSetID:876133

[Difficulty]
HPDrainRate:4
CircleSize:3.2
OverallDifficulty:4
ApproachRate:6
SliderMultiplier:1
SliderTickRate:1

[Events]
//Background and Video events
0,0,"BG.png",0,0
//Break Periods
//Storyboard Layer 0 (Background)
//Storyboard Layer 1 (Fail)
//Storyboard Layer 2 (Pass)
//Storyboard Layer 3 (Foreground)
//Storyboard Sound Samples

[TimingPoints]
594,297.029702970297,4,2,1,65,1,0
594,-100,4,2,1,65,0,0
7722,-100,4,2,1,65,0,0
9504,-100,4,2,1,75,0,1
9950,-100,4,2,1,95,0,1
19455,-100,4,2,1,75,0,0
38613,-100,4,2,1,70,0,0
48118,-100,4,2,1,95,0,1
63564,-100,4,2,1,95,0,0
64752,-100,4,2,1,95,0,1
74257,-100,4,2,1,75,0,0
81237,-100,4,2,1,95,0,0
83762,-100,4,2,1,95,0,0
84059,-100,4,2,1,85,0,0
84356,-100,4,2,2,75,0,0
84653,-100,4,2,1,65,0,0
84950,-100,4,2,2,55,0,0
85247,-100,4,2,1,50,0,0
85544,-100,4,2,2,45,0,0
85841,-100,4,2,1,40,0,0
86138,-100,4,2,2,35,0,0
86435,-100,4,2,1,30,0,0
86732,-100,4,2,2,25,0,0
87029,-100,4,2,1,20,0,0
87326,-100,4,2,2,15,0,0
87623,-100,4,2,1,10,0,0
87920,-100,4,2,2,5,0,0

[Colours]
Combo1 : 80,124,91
Combo2 : 120,120,120
Combo3 : 201,151,1
Combo4 : 168,0,0

[HitObjects]
468,383,296,5,2,0:0:0:0:
375,346,594,2,0,P|360:287|375:237,1,100,2|2,1:0|0:0,0:0:0:0:
401,211,1039,2,0,P|410:162|395:114,1,100,2|2,0:0|0:0,0:0:0:0:
306,69,1633,2,0,B|169:22|204:137|64:92,1,250,2|0,0:0|0:0,0:0:0:0:
2,279,2970,6,0,P|50:266|100:281,1,100,2|2,0:0|0:0,0:0:0:0:
137,309,3415,2,0,P|185:322|233:309,1,100,2|2,0:0|0:0,0:0:0:0:
269,216,4009,2,0,B|293:153|374:178|374:178|389:266|313:286,1,250,2|2,0:0|0:0,0:0:0:0:
233,309,5049,1,2,0:0:0:0:
177,226,5346,6,0,L|160:127,1,100,2|2,1:0|0:0,0:0:0:0:
117,102,5792,2,0,L|134:3,1,100,2|2,0:0|0:0,0:0:0:0:
223,49,6386,2,0,B|282:67|332:48|332:48|366:69|366:69|412:60|464:75,1,250,2|2,0:0|0:0,0:0:0:0:
510,164,7425,1,2,0:0:0:0:
463,251,7722,6,0,P|415:264|363:256,1,100,2|2,1:0|0:0,0:0:0:0:
326,227,8168,2,0,P|272:211|223:215,1,100,2|0,0:0|0:0,0:0:0:0:
139,255,8762,1,2,0:0:0:0:
77,332,9059,2,0,L|83:385,2,50,2|6|2,0:0|0:0|0:0,0:0:0:0:
33,309,9504,5,10,0:0:0:0:
33,309,9653,1,10,0:0:0:0:
54,211,9950,5,6,1:0:0:0:
17,118,10247,2,0,P|11:86|16:48,1,50,2|10,1:0|0:0,0:0:0:0:
33,23,10544,1,2,0:0:0:0:
131,2,10841,2,0,L|193:10,2,50,2|10|2,1:0|0:0|1:0,0:0:0:0:
146,100,11435,2,0,L|208:108,1,50,2|10,1:0|0:0,0:0:0:0:
245,115,11732,2,0,P|290:93|350:101,1,100,2|0,0:0|1:0,0:0:0:0:
414,163,12326,5,2,1:0:0:0:
375,254,12623,2,0,L|306:266,1,50,2|10,1:0|0:0,0:0:0:0:
277,273,12920,1,2,0:0:0:0:
202,206,13217,2,0,P|165:199|134:199,2,50,2|10|2,1:0|0:0|1:0,0:0:0:0:
159,296,13811,2,0,P|134:293|109:288,1,50,2|10,1:0|0:0,0:0:0:0:
66,264,14108,2,0,P|49:216|49:150,1,100,2|0,0:0|1:0,0:0:0:0:
121,100,14702,5,6,1:0:0:0:
221,103,14999,2,0,L|274:106,1,50,2|10,1:0|0:0,0:0:0:0:
321,110,15296,1,2,0:0:0:0:
395,178,15594,2,0,L|444:175,2,50,2|10|0,1:0|0:0|0:0,0:0:0:0:
331,254,16188,2,0,P|322:288|322:321,1,50,2|0,1:0|0:0,0:0:0:0:
300,348,16485,2,0,P|249:367|188:359,1,100,2|0,0:0|1:0,0:0:0:0:
116,317,17079,5,6,1:0:0:0:
107,217,17376,2,0,P|128:184|149:170,1,50,2|10,1:0|0:0,0:0:0:0:
183,158,17673,1,2,0:0:0:0:
272,201,17970,2,0,P|307:214|333:214,1,50,2|10,1:0|0:0,0:0:0:0:
367,206,18267,1,6,1:0:0:0:
464,184,18564,2,0,P|476:157|497:131,2,50,2|10|2,1:0|0:0|0:0,0:0:0:0:
464,184,19009,2,0,L|480:297,1,100,2|10,1:0|0:0,0:0:0:0:
495,329,19455,6,0,P|434:300|358:328,1,150,6|8,1:0|0:0,0:0:0:0:
260,312,20197,2,0,P|286:262|357:223,1,100,2|10,0:0|0:0,0:0:0:0:
359,204,20643,2,0,L|204:192,1,150,2|8,0:0|0:0,0:0:0:0:
167,101,21386,6,0,L|266:108,1,100,2|10,0:0|0:0,0:0:0:0:
316,112,21831,1,2,0:0:0:0:
400,57,22128,2,0,P|455:47|505:62,2,100,2|2|2,0:0|0:0|0:0,0:0:0:0:
316,112,23019,2,0,L|158:101,1,150,2|10,0:0|0:0,0:0:0:0:
87,163,23762,1,2,1:0:0:0:
14,231,24059,1,10,0:0:0:0:
14,231,24207,6,0,P|90:263|158:234,1,150,6|8,1:0|0:0,0:0:0:0:
247,218,24950,2,0,P|245:267|220:310,1,100,2|8,0:0|0:0,0:0:0:0:
189,349,25395,2,0,L|347:338,1,150,2|8,0:0|0:0,0:0:0:0:
436,360,26138,6,0,P|434:310|409:267,1,100,2|10,0:0|0:0,0:0:0:0:
368,238,26584,1,2,0:0:0:0:
368,138,26881,2,0,P|392:95|434:68,2,100,2|2|2,0:0|0:0|0:0,0:0:0:0:
367,237,27772,2,0,P|423:286|436:358,1,150,2|8,0:0|0:0,0:0:0:0:
339,335,28514,1,2,1:0:0:0:
250,381,28811,1,10,0:0:0:0:
250,381,28960,6,0,P|242:303|302:239,1,150,6|8,1:0|0:0,0:0:0:0:
312,152,29702,2,0,P|260:158|201:200,1,100,2|8,0:0|0:0,0:0:0:0:
179,212,30148,2,0,P|108:235|28:210,1,150,2|8,0:0|0:0,0:0:0:0:
33,115,30891,6,0,P|86:94|132:94,1,100,2|8,0:0|0:0,0:0:0:0:
174,110,31336,1,2,0:0:0:0:
269,143,31633,1,2,0:0:0:0:
273,244,31930,1,2,0:0:0:0:
179,212,32227,1,2,0:0:0:0:
174,110,32524,2,0,P|103:92|33:115,1,150,2|8,0:0|0:0,0:0:0:0:
37,216,33267,1,0,1:0:0:0:
110,284,33564,1,10,0:0:0:0:
110,284,33712,6,0,L|249:284,1,100,6|0,1:0|0:0,0:0:0:0:
260,284,34158,1,10,0:0:0:0:
333,216,34455,1,2,0:0:0:0:
427,248,34752,2,0,P|400:290|328:314,1,100,10|2,0:0|0:0,0:0:0:0:
260,284,35346,1,10,0:0:0:0:
237,186,35643,1,2,1:0:0:0:
310,118,35940,1,10,0:0:0:0:
310,118,36089,6,0,P|262:87|200:91,1,100,2|0,1:0|1:0,0:0:0:0:
175,107,36534,1,10,0:0:0:0:
138,200,36831,2,0,L|29:216,1,100,2|8,1:0|0:0,0:0:0:0:
39,314,37425,2,0,L|137:328,1,100,2|8,0:0|0:0,0:0:0:0:
215,266,38019,1,10,0:0:0:0:
314,266,38316,1,2,1:0:0:0:
411,263,38613,6,0,B|463:246|472:192|472:192|466:137|403:117,1,200,6|8,1:0|0:0,0:0:0:0:
314,118,39504,1,2,1:0:0:0:
214,118,39801,2,0,L|209:18,1,100,2|10,1:0|0:0,0:0:0:0:
110,0,40395,1,2,1:0:0:0:
11,18,40693,2,0,B|2:183,3,150,10|8|8|8,0:0|0:0|0:0|0:0,0:0:0:0:
100,281,42475,2,0,L|199:276,1,100,10|2,0:0|1:0,0:0:0:0:
293,310,43069,1,10,0:0:0:0:
380,262,43366,6,0,B|404:158|338:160|362:61,1,200,6|8,1:0|0:0,0:0:0:0:
436,1,44257,1,2,1:0:0:0:
508,70,44554,2,0,P|518:122|502:192,1,100,2|10,1:0|0:0,0:0:0:0:
479,262,45148,1,2,1:0:0:0:
380,262,45445,1,14,0:0:0:0:
270,260,45742,6,0,B|294:334|294:334|372:369,2,150,14|10|10,0:0|3:0|3:0,0:0:0:0:
493,111,48118,6,0,P|502:165|508:210,1,100,6|8,1:0|0:0,0:0:0:0:
455,295,48712,2,0,P|427:306|389:305,1,50,2|2,1:0|1:0,0:0:0:0:
364,282,49009,1,10,0:0:0:0:
287,221,49306,2,0,P|238:220|193:240,1,100,6|8,1:0|0:0,0:0:0:0:
118,307,49900,2,0,P|97:314|61:313,2,50,2|0|10,1:0|1:0|0:0,0:0:0:0:
193,240,50494,6,0,P|234:221|298:225,1,100,6|14,1:0|0:0,0:0:0:0:
331,323,51089,2,0,P|372:341|436:337,1,100,6|10,1:0|0:0,0:0:0:0:
500,258,51683,2,0,P|510:214|495:152,1,100,2|8,1:0|0:0,0:0:0:0:
445,76,52277,2,0,P|414:64|384:59,1,50,2|2,1:0|1:0,0:0:0:0:
347,64,52574,1,10,0:0:0:0:
278,137,52871,6,0,P|289:188|301:248,1,100,2|8,1:0|0:0,0:0:0:0:
291,334,53465,2,0,P|259:324|237:309,1,50,2|0,1:0|1:0,0:0:0:0:
217,274,53762,1,10,0:0:0:0:
168,186,54059,2,0,P|111:195|67:234,1,100,2|8,1:0|0:0,0:0:0:0:
9,147,54653,2,0,P|1:115|3:88,1,50,2|2,1:0|1:0,0:0:0:0:
24,53,54950,1,10,0:0:0:0:
118,85,55247,6,0,P|169:92|225:59,1,100,2|10,1:0|0:0,0:0:0:0:
296,3,55841,2,0,P|314:30|321:56,1,50,2|2,1:0|1:0,0:0:0:0:
306,95,56138,1,10,0:0:0:0:
287,141,56287,2,0,P|299:215|312:295,1,150,2|12,0:0|0:0,0:0:0:0:
384,357,57029,1,2,1:0:0:0:
438,273,57326,1,10,0:0:0:0:
388,186,57623,6,0,P|397:127|407:64,1,100,6|8,1:0|0:0,0:0:0:0:
337,12,58217,2,0,P|303:3|281:5,1,50,2|0,1:0|1:0,0:0:0:0:
240,18,58514,1,10,0:0:0:0:
190,104,58811,2,0,P|156:112|89:93,1,100,6|8,1:0|0:0,0:0:0:0:
17,160,59405,2,0,P|25:193|23:228,1,50,2|0,1:0|1:0,0:0:0:0:
15,258,59702,1,10,0:0:0:0:
91,323,59999,6,0,P|136:326|194:301,1,100,6|10,1:0|0:0,0:0:0:0:
265,245,60594,2,0,P|268:199|243:141,1,100,6|8,1:0|0:0,0:0:0:0:
152,104,61188,2,0,B|265:73|233:167|354:132,1,200,2|2,1:0|1:0,0:0:0:0:
389,123,61930,1,0,1:0:0:0:
432,97,62079,2,0,L|413:-10,2,100,10|2|10,0:0|1:0|0:0,0:0:0:0:
497,172,62970,1,2,1:0:0:0:
422,238,63267,1,10,0:0:0:0:
343,175,63564,6,0,P|313:176|278:193,1,50,10|8,0:0|0:0,0:0:0:0:
252,149,63861,2,0,P|233:173|225:211,1,50,8|8,0:0|0:0,0:0:0:0:
206,243,64158,1,10,0:0:0:0:
121,175,64455,1,10,0:0:0:0:
43,237,64752,6,0,P|52:296|62:359,1,100,6|8,1:0|0:0,0:0:0:0:
151,371,65346,2,0,P|184:361|202:349,1,50,2|2,1:0|1:0,0:0:0:0:
232,317,65643,1,10,0:0:0:0:
199,222,65940,2,0,P|208:163|218:100,1,100,6|8,1:0|0:0,0:0:0:0:
237,26,66534,2,0,P|274:13|303:13,1,50,2|0,1:0|1:0,0:0:0:0:
333,24,66831,1,10,0:0:0:0:
430,47,67128,6,0,P|449:88|445:152,1,100,6|14,1:0|0:0,0:0:0:0:
347,185,67723,2,0,P|329:226|333:290,1,100,6|10,1:0|0:0,0:0:0:0:
389,360,68316,2,0,P|433:370|495:355,1,100,2|8,1:0|0:0,0:0:0:0:
507,261,68910,2,0,L|495:194,1,50,2|2,1:0|1:0,0:0:0:0:
488,162,69207,1,10,0:0:0:0:
414,94,69504,6,0,P|365:77|297:86,1,100,2|8,1:0|0:0,0:0:0:0:
231,130,70098,2,0,L|241:198,1,50,2|0,1:0|1:0,0:0:0:0:
245,229,70395,1,10,0:0:0:0:
183,308,70693,2,0,P|148:318|80:298,1,100,2|8,1:0|0:0,0:0:0:0:
30,221,71287,2,0,L|22:159,1,50,2|2,1:0|1:0,0:0:0:0:
21,121,71584,1,10,0:0:0:0:
47,25,71881,6,0,P|92:21|150:46,1,100,2|10,1:0|0:0,0:0:0:0:
208,115,72475,2,0,P|253:118|311:93,1,100,2|10,1:0|0:0,0:0:0:0:
355,12,73069,2,0,P|399:4|458:29,1,100,0|8,1:0|1:2,0:0:0:0:
489,117,73663,1,10,1:0:0:0:
415,184,73960,1,10,3:1:0:0:
458,274,74257,6,0,B|345:305|377:211|256:246,1,200,6|14,1:1|0:0,0:0:0:0:
129,296,75296,1,8,0:0:0:0:
84,273,75445,2,0,L|20:285,2,50,6|8|8,1:0|0:0|1:0,0:0:0:0:
140,190,76039,2,0,P|183:181|246:207,1,100,14|2,0:0|0:0,0:0:0:0:
306,270,76633,6,0,P|349:279|412:253,1,100,6|2,1:0|1:0,0:0:0:0:
457,179,77227,2,0,P|466:136|440:73,1,100,14|2,0:0|0:0,0:0:0:0:
405,58,77673,1,8,0:0:0:0:
359,38,77821,6,0,B|239:29|294:112|169:109,1,200,6|10,1:0|0:0,0:0:0:0:
94,60,78712,1,2,0:0:0:0:
11,117,79009,2,0,B|-17:170|-17:170|-3:234|15:308,1,200,6|14,1:1|0:0,0:0:0:0:
86,376,79900,1,2,0:0:0:0:
144,294,80197,1,6,1:0:0:0:
215,363,80494,2,0,P|263:366|312:332,1,100,8|2,0:0|0:0,0:0:0:0:
354,197,81237,5,6,1:0:0:0:
386,102,81534,1,2,1:0:0:0:
320,26,81831,2,0,P|271:13|206:30,1,100,2|2,0:0|1:0,0:0:0:0:
183,52,82277,1,10,0:0:0:0:
159,95,82425,2,0,P|151:144|168:192,1,100,2|2,1:0|1:0,0:0:0:0:
200,229,82871,1,8,0:0:0:0:
240,258,83019,2,0,P|248:307|231:355,1,100,0|0,0:0|0:0,0:0:0:0:
185,373,83465,1,0,1:0:0:0:
76,313,83762,5,4,1:0:0:0:
256,192,83836,12,0,87920,0:0:0:0:
