osu file format v14

[General]
AudioFilename: audio.mp3
AudioLeadIn: 0
PreviewTime: 47821
Countdown: 0
SampleSet: Soft
StackLeniency: 0.4
Mode: 0
LetterboxInBreaks: 0
WidescreenStoryboard: 1

[Editor]
DistanceSpacing: 1.1
BeatDivisor: 4
GridSize: 8
TimelineZoom: 2.3

[Metadata]
Title:Haruka Kanata (TV Size)
TitleUnicode:ハルカカナタ (TV Size)
Artist:UNLIMITS
ArtistUnicode:UNLIMITS
Creator:Xandit
Version:Nevo's Expert
Source:BLEACH
Tags:Astronic schoolboy Nevo yShadowXOP_ ChuuritsuTv Entry BLEACH anime ending 28 japanese
BeatmapID:1854204
BeatmapSetID:876133

[Difficulty]
HPDrainRate:6
CircleSize:3.8
OverallDifficulty:8
ApproachRate:9.3
SliderMultiplier:1.7
SliderTickRate:1

[Events]
//Background and Video events
0,0,"BG.png",0,0
//Break Periods
//Storyboard Layer 0 (Background)
//Storyboard Layer 1 (Fail)
//Storyboard Layer 2 (Pass)
//Storyboard Layer 3 (Foreground)
//Storyboard Sound Samples

[TimingPoints]
594,297.029702970297,4,2,1,55,1,0
891,-166.666666666667,4,2,1,55,0,0
7722,-166.666666666667,4,2,1,65,0,0
8910,-166.666666666667,4,2,1,75,0,0
9950,-100,4,2,1,95,0,1
19455,-111.111111111111,4,2,1,75,0,0
28960,-111.111111111111,4,2,1,80,0,0
38613,-133.333333333333,4,2,1,75,0,0
45742,-133.333333333333,4,2,1,80,0,0
46188,-133.333333333333,4,2,1,70,0,0
46633,-133.333333333333,4,2,1,60,0,0
48118,-83.3333333333333,4,2,1,95,0,1
74108,-83.3333333333333,4,2,1,95,0,0
74257,-83.3333333333333,4,2,1,75,0,1
74554,-83.3333333333333,4,2,1,75,0,0
75445,-83.3333333333333,4,2,1,75,0,1
75742,-83.3333333333333,4,2,1,75,0,0
80792,-133.333333333333,4,2,1,75,0,0
81237,-100,4,2,1,95,0,1
83762,-100,4,2,1,95,0,0
84059,-196.078431372549,4,2,1,85,0,0
84356,-196.078431372549,4,2,2,75,0,0
84653,-196.078431372549,4,2,1,65,0,0
84950,-196.078431372549,4,2,2,55,0,0
85247,-196.078431372549,4,2,1,50,0,0
85544,-196.078431372549,4,2,2,45,0,0
85841,-196.078431372549,4,2,1,40,0,0
86138,-196.078431372549,4,2,2,35,0,0
86435,-196.078431372549,4,2,1,30,0,0
86732,-196.078431372549,4,2,2,25,0,0
87029,-196.078431372549,4,2,1,20,0,0
87326,-196.078431372549,4,2,2,15,0,0
87623,-196.078431372549,4,2,1,10,0,0
87920,-196.078431372549,4,2,2,5,0,0

[Colours]
Combo1 : 80,124,91
Combo2 : 120,120,120
Combo3 : 201,151,1
Combo4 : 168,0,0

[HitObjects]
227,81,594,5,2,1:0:0:0:
207,174,742,1,2,1:0:0:0:
350,102,891,2,0,L|361:153,1,50.9999984436036,2|2,0:0|0:0,0:0:0:0:
444,192,1188,2,0,L|432:243,1,50.9999984436036,0|2,0:0|0:0,0:0:0:0:
388,319,1485,2,0,P|349:309|317:313,1,50.9999984436036,2|2,0:0|0:0,0:0:0:0:
255,353,1782,2,0,P|216:362|183:358,1,50.9999984436036,0|0,0:0|0:0,0:0:0:0:
127,322,2079,2,0,L|133:250,1,50.9999984436036,0|0,0:0|0:0,0:0:0:0:
205,216,2376,2,0,L|199:144,1,50.9999984436036,0|0,0:0|0:0,0:0:0:0:
159,81,2673,2,0,P|202:73|230:75,1,50.9999984436036,0|0,0:0|0:0,0:0:0:0:
285,119,2970,6,0,L|356:111,2,50.9999984436036,2|2|2,0:0|0:0|0:0,0:0:0:0:
128,175,3415,2,0,P|77:152|12:161,1,101.999996887207,2|2,0:0|0:0,0:0:0:0:
115,273,3861,2,0,L|182:265,1,50.9999984436036,2|2,0:0|0:0,0:0:0:0:
243,203,4158,2,0,L|310:211,1,50.9999984436036,2|0,0:0|0:0,0:0:0:0:
368,268,4455,2,0,L|435:260,1,50.9999984436036,2|0,0:0|0:0,0:0:0:0:
495,206,4752,2,0,P|503:160|499:146,1,50.9999984436036,2|0,0:0|0:0,0:0:0:0:
440,101,5049,1,2,0:0:0:0:
182,317,5346,5,2,1:0:0:0:
162,230,5494,1,2,1:0:0:0:
301,265,5643,2,0,L|229:258,1,50.9999984436036,2|2,0:0|0:0,0:0:0:0:
341,344,5940,2,0,L|393:338,1,50.9999984436036,0|2,0:0|0:0,0:0:0:0:
350,182,6237,2,0,L|278:175,1,50.9999984436036,2|2,0:0|0:0,0:0:0:0:
390,261,6534,2,0,L|442:255,1,50.9999984436036,2|0,0:0|0:0,0:0:0:0:
399,85,6831,2,0,L|327:78,1,50.9999984436036,2|0,0:0|0:0,0:0:0:0:
439,164,7128,2,0,P|482:132|494:72,1,101.999996887207,2|2,0:0|0:0,0:0:0:0:
247,27,7574,1,0,0:0:0:0:
247,27,7722,6,0,P|258:90|263:148,1,101.999996887207,2|2,1:0|0:0,0:0:0:0:
137,287,8316,2,0,P|148:224|153:166,1,101.999996887207,0|2,0:0|0:0,0:0:0:0:
151,91,8762,1,2,0:0:0:0:
57,211,8910,5,4,0:0:0:0:
393,137,9207,1,6,0:0:0:0:
409,157,9504,5,10,0:0:0:0:
67,183,9653,1,10,0:0:0:0:
227,9,9950,6,0,B|257:47|257:47|250:178,1,170,6|2,1:0|1:0,0:0:0:0:
93,276,10395,1,10,0:0:0:0:
275,186,10544,1,2,0:0:0:0:
67,183,10693,1,0,1:0:0:0:
126,374,10841,1,2,1:0:0:0:
163,199,10990,1,10,0:0:0:0:
343,344,11138,6,0,P|292:295|171:323,1,170,2|2,1:0|1:0,0:0:0:0:
5,263,11584,2,0,L|112:248,1,85,10|2,0:0|0:0,0:0:0:0:
252,154,11881,1,0,1:0:0:0:
164,314,12029,1,0,1:0:0:0:
158,105,12178,1,8,0:0:0:0:
319,235,12326,6,0,B|354:186|354:186|333:39,1,170,2|2,1:0|1:0,0:0:0:0:
486,205,12772,2,0,L|476:319,1,85,10|2,0:0|0:0,0:0:0:0:
252,154,13069,1,0,1:0:0:0:
448,98,13217,1,2,1:0:0:0:
338,77,13366,1,10,0:0:0:0:
488,314,13514,6,0,P|419:275|317:278,1,170,2|2,1:0|1:0,0:0:0:0:
182,384,13960,2,0,L|193:269,1,85,10|2,0:0|0:0,0:0:0:0:
299,145,14257,1,0,1:0:0:0:
72,149,14405,1,0,1:0:0:0:
176,7,14554,1,8,0:0:0:0:
116,255,14702,6,0,P|94:175|95:57,1,170,6|2,1:0|1:0,0:0:0:0:
287,304,15148,2,0,P|301:226|292:181,1,85,10|2,0:0|0:0,0:0:0:0:
179,85,15445,1,0,1:0:0:0:
327,130,15594,1,2,1:0:0:0:
146,205,15742,1,10,0:0:0:0:
281,43,15891,6,0,B|347:32|347:32|378:49|378:49|472:35,1,170,2|2,1:0|1:0,0:0:0:0:
345,211,16336,2,0,P|326:155|336:94,1,85,10|2,0:0|0:0,0:0:0:0:
482,261,16633,1,0,1:0:0:0:
270,264,16782,1,0,1:0:0:0:
488,139,16930,1,8,0:0:0:0:
397,331,17079,6,0,B|372:290|372:290|393:150,1,170,6|2,1:0|1:0,0:0:0:0:
239,66,17524,2,0,L|253:163,1,85,10|2,0:0|0:0,0:0:0:0:
426,6,17821,1,0,1:0:0:0:
390,169,17970,1,2,1:0:0:0:
322,9,18118,1,10,0:0:0:0:
475,126,18267,6,0,P|411:82|303:123,1,170,6|2,1:0|1:0,0:0:0:0:
125,238,18712,2,0,L|225:230,1,85,10|2,0:0|0:0,0:0:0:0:
421,323,19009,1,2,1:0:0:0:
390,169,19158,1,2,1:0:0:0:
236,334,19306,1,10,0:0:0:0:
295,98,19455,6,0,P|304:164|291:260,1,152.999995330811,6|0,1:0|0:0,0:0:0:0:
236,334,19900,1,8,0:0:0:0:
236,334,20197,2,0,L|340:341,2,76.4999976654053,2|2|10,0:0|0:0|0:0,0:0:0:0:
73,252,20643,6,0,P|157:265|223:210,1,152.999995330811,2|0,0:0|0:0,0:0:0:0:
282,106,21089,1,8,0:0:0:0:
282,106,21386,2,0,L|275:17,2,76.4999976654053,2|2|10,0:0|0:0|0:0,0:0:0:0:
372,247,21831,6,0,P|329:222|280:222,1,76.4999976654053,2|0,0:0|0:0,0:0:0:0:
151,196,22128,2,0,P|194:171|243:171,1,76.4999976654053,2|8,0:0|0:0,0:0:0:0:
223,337,22425,2,0,L|210:238,1,76.4999976654053,2|0,0:0|0:0,0:0:0:0:
381,171,22722,2,0,L|368:270,1,76.4999976654053,2|8,0:0|0:0,0:0:0:0:
195,109,23019,6,0,L|215:279,1,152.999995330811,2|0,0:0|0:0,0:0:0:0:
348,355,23465,1,10,0:0:0:0:
348,355,23762,2,0,L|430:345,2,76.4999976654053,2|2|10,1:0|1:0|0:0,0:0:0:0:
138,308,24207,6,0,P|76:275|-16:310,1,152.999995330811,6|0,1:0|0:0,0:0:0:0:
63,240,24653,2,0,P|96:203|107:163,1,76.4999976654053,8|0,0:0|0:0,0:0:0:0:
0,86,24950,2,0,L|18:179,2,76.4999976654053,2|2|10,0:0|0:0|0:0,0:0:0:0:
166,10,25395,6,0,B|231:13|231:13|262:31|262:31|335:33,1,152.999995330811,2|0,0:0|0:0,0:0:0:0:
484,42,25841,1,8,0:0:0:0:
484,42,26138,2,0,L|495:140,2,76.4999976654053,2|2|10,0:0|0:0|0:0,0:0:0:0:
348,184,26584,6,0,L|452:176,1,76.4999976654053,2|0,0:0|0:0,0:0:0:0:
251,83,26881,2,0,L|355:91,1,76.4999976654053,2|8,0:0|0:0,0:0:0:0:
154,184,27178,2,0,L|258:176,1,76.4999976654053,2|0,0:0|0:0,0:0:0:0:
57,83,27475,2,0,L|161:91,1,76.4999976654053,2|8,0:0|0:0,0:0:0:0:
202,269,27772,6,0,P|147:226|43:250,1,152.999995330811,2|0,0:0|0:0,0:0:0:0:
112,384,28217,2,0,L|119:278,1,76.4999976654053,8|0,0:0|0:0,0:0:0:0:
133,136,28514,1,2,1:0:0:0:
48,254,28663,1,2,1:0:0:0:
36,86,28811,1,10,0:0:0:0:
140,242,28960,6,0,B|200:262|255:221|255:221|285:226|305:251,1,152.999995330811,6|0,1:0|0:0,0:0:0:0:
178,139,29405,1,8,0:0:0:0:
178,139,29702,2,0,L|163:49,2,76.4999976654053,2|2|8,0:0|0:0|0:0,0:0:0:0:
404,175,30148,6,0,P|366:137|250:148,1,152.999995330811,2|0,0:0|0:0,0:0:0:0:
140,242,30593,1,8,0:0:0:0:
140,242,30891,2,0,L|157:340,2,76.4999976654053,2|2|8,0:0|0:0|0:0,0:0:0:0:
27,82,31336,6,0,P|96:100|176:45,1,152.999995330811,2|2,0:0|0:0,0:0:0:0:
90,138,31782,1,8,0:0:0:0:
90,138,31930,2,0,P|82:192|94:230,1,76.4999976654053,2|0,0:0|0:0,0:0:0:0:
224,292,32227,2,0,P|181:258|142:249,1,76.4999976654053,2|8,0:0|0:0,0:0:0:0:
188,384,32524,6,0,B|256:379|256:379|284:358|284:358|361:348,1,152.999995330811,2|0,0:0|0:0,0:0:0:0:
455,286,32970,2,0,L|358:277,1,76.4999976654053,8|0,0:0|0:0,0:0:0:0:
250,210,33267,2,0,L|347:201,1,76.4999976654053,0|0,1:0|1:0,0:0:0:0:
443,116,33564,1,10,0:0:0:0:
487,206,33712,6,0,L|497:34,1,152.999995330811,6|0,1:0|0:0,0:0:0:0:
307,105,34158,2,0,P|371:104|399:92,1,76.4999976654053,10|0,0:0|0:0,0:0:0:0:
183,27,34455,2,0,P|247:28|275:40,1,76.4999976654053,2|0,0:0|0:0,0:0:0:0:
75,111,34752,2,0,P|139:110|167:98,1,76.4999976654053,10|0,0:0|0:0,0:0:0:0:
12,36,35049,5,2,0:0:0:0:
12,36,35346,2,0,P|39:96|19:188,1,152.999995330811,10|2,0:0|1:0,0:0:0:0:
129,279,35792,1,0,1:0:0:0:
115,189,35940,1,10,0:0:0:0:
289,318,36089,6,0,P|238:292|141:301,1,152.999995330811,2|0,1:0|1:0,0:0:0:0:
38,185,36534,2,0,L|141:190,1,76.4999976654053,10|2,0:0|0:0,0:0:0:0:
254,119,36831,2,0,L|151:124,1,76.4999976654053,2|2,1:0|1:0,0:0:0:0:
323,187,37128,1,10,0:0:0:0:
331,100,37277,1,2,1:0:0:0:
237,198,37425,6,0,L|245:295,1,76.4999976654053,2|2,0:0|1:0,0:0:0:0:
379,337,37722,2,0,L|387:240,1,76.4999976654053,10|2,0:0|1:0,0:0:0:0:
419,59,38019,1,10,0:0:0:0:
323,187,38168,1,10,0:0:0:0:
342,12,38316,1,2,1:0:0:0:
417,164,38465,1,0,1:0:0:0:
258,47,38613,6,0,B|227:36|187:52|195:65|155:77|124:61,1,127.500004863739,6|0,1:0|1:0,0:0:0:0:
54,109,39059,1,0,1:0:0:0:
54,109,39207,2,0,P|47:153|54:187,1,63.7500024318696,8|0,0:0|0:0,0:0:0:0:
119,232,39504,2,0,L|204:225,1,63.7500024318696,2|8,1:0|0:0,0:0:0:0:
281,115,39801,6,0,P|257:151|252:192,1,63.7500024318696,2|0,1:0|1:0,0:0:0:0:
286,317,40098,2,0,P|277:274|252:242,1,63.7500024318696,10|0,0:0|0:0,0:0:0:0:
122,293,40395,1,2,1:0:0:0:
199,329,40544,1,0,1:0:0:0:
91,377,40693,6,0,P|87:307|75:250,1,127.500004863739,10|0,0:0|1:0,0:0:0:0:
24,149,41138,1,8,0:0:0:0:
178,72,41287,1,0,1:0:0:0:
151,164,41435,1,0,1:0:0:0:
101,53,41584,1,8,0:0:0:0:
101,53,41881,2,0,L|189:47,1,63.7500024318696,0|8,1:0|0:0,0:0:0:0:
310,144,42178,2,0,L|222:138,1,63.7500024318696,0|0,1:0|1:0,0:0:0:0:
370,72,42475,2,0,P|398:104|387:198,2,127.500004863739,10|2|10,0:0|1:0|0:0,0:0:0:0:
276,28,43217,1,0,0:0:0:0:
151,164,43366,6,0,P|102:139|3:152,1,127.500004863739,6|0,1:0|1:0,0:0:0:0:
1,233,43811,1,0,1:0:0:0:
1,233,43960,2,0,L|91:225,1,63.7500024318696,8|0,0:0|0:0,0:0:0:0:
193,297,44257,2,0,L|103:289,1,63.7500024318696,2|8,1:0|0:0,0:0:0:0:
90,144,44554,6,0,B|131:171|131:171|227:177,1,127.500004863739,2|10,1:0|0:0,0:0:0:0:
322,100,44999,1,0,0:0:0:0:
322,100,45148,2,0,L|234:109,1,63.7500024318696,2|0,1:0|1:0,0:0:0:0:
164,19,45445,2,0,L|252:28,1,63.7500024318696,14|0,0:0|0:0,0:0:0:0:
104,172,45742,6,0,B|92:77|92:77|104:89|125:103,1,127.500004863739,14|0,0:0|1:0,0:0:0:0:
291,261,46188,2,0,B|303:166|303:166|291:178|270:192,1,127.500004863739,10|0,3:0|1:0,0:0:0:0:
104,350,46633,2,0,B|92:255|92:255|104:267|125:281,1,127.500004863739,10|0,3:0|0:0,0:0:0:0:
253,345,47079,2,0,P|296:356|374:309,1,127.500004863739,2|2,0:0|0:0,0:0:0:0:
410,242,47524,6,0,L|426:131,1,95.6250036478044,2|0,0:0|0:0,0:0:0:0:
451,72,47821,2,0,L|464:166,1,95.6250036478044,2|0,0:0|0:0,0:0:0:0:
512,254,48118,6,0,L|388:240,1,101.999996887207,6|0,1:0|0:0,0:0:0:0:
238,114,48415,2,0,L|361:100,1,101.999996887207,8|0,0:0|0:0,0:0:0:0:
255,278,48712,1,2,1:0:0:0:
202,202,48861,1,2,1:0:0:0:
213,362,49009,1,10,0:0:0:0:
344,275,49158,1,2,0:0:0:0:
213,106,49306,6,0,B|194:135|194:135|203:216,1,101.999996887207,6|0,1:0|0:0,0:0:0:0:
332,370,49603,2,0,B|351:341|351:341|342:260,1,101.999996887207,8|0,0:0|0:0,0:0:0:0:
97,161,49900,1,2,1:0:0:0:
213,362,50049,1,0,1:0:0:0:
330,178,50197,2,0,L|215:169,1,101.999996887207,10|0,0:0|0:0,0:0:0:0:
26,310,50494,6,0,P|82:271|185:288,1,152.999995330811,6|0,1:0|0:0,0:0:0:0:
112,361,50792,2,0,B|96:328|96:328|114:171,1,152.999995330811,14|0,0:0|0:0,0:0:0:0:
126,129,51089,1,6,1:0:0:0:
269,313,51237,1,0,1:0:0:0:
300,69,51386,1,14,0:0:0:0:
186,223,51534,1,0,0:0:0:0:
398,287,51683,6,0,P|463:285|513:255,1,101.999996887207,2|0,1:0|0:0,0:0:0:0:
300,69,51980,2,0,P|269:126|270:184,1,101.999996887207,8|0,0:0|0:0,0:0:0:0:
324,351,52277,1,2,1:0:0:0:
377,151,52425,1,2,1:0:0:0:
186,223,52574,2,0,B|241:260|241:260|357:249,1,152.999995330811,10|0,0:0|0:0,0:0:0:0:
425,342,52871,6,0,L|278:355,1,101.999996887207,2|0,1:0|0:0,0:0:0:0:
50,300,53168,2,0,L|197:313,1,101.999996887207,8|0,0:0|0:0,0:0:0:0:
368,184,53465,1,2,1:0:0:0:
186,223,53613,1,0,1:0:0:0:
374,302,53762,1,10,0:0:0:0:
283,150,53910,1,0,0:0:0:0:
192,324,54059,6,0,L|183:184,1,101.999996887207,2|0,1:0|0:0,0:0:0:0:
87,67,54356,2,0,L|78:207,1,101.999996887207,8|0,0:0|0:0,0:0:0:0:
283,150,54653,2,0,P|242:113|194:100,1,101.999996887207,2|2,1:0|1:0,0:0:0:0:
192,324,54950,2,0,P|244:306|279:271,1,101.999996887207,10|0,0:0|0:0,0:0:0:0:
359,103,55247,6,0,L|378:232,1,101.999996887207,2|0,1:0|0:0,0:0:0:0:
461,328,55544,2,0,L|480:199,1,101.999996887207,10|0,0:0|0:0,0:0:0:0:
290,207,55841,1,2,1:0:0:0:
370,265,55990,1,2,1:0:0:0:
217,272,56138,1,10,0:0:0:0:
275,102,56287,1,2,0:0:0:0:
325,350,56435,6,0,P|395:359|449:325,1,101.999996887207,0|0,1:0|1:0,0:0:0:0:
265,182,56732,2,0,P|216:168|167:179,1,101.999996887207,12|0,0:0|0:0,0:0:0:0:
60,316,57029,1,2,1:0:0:0:
144,82,57178,1,0,1:0:0:0:
184,353,57326,1,10,0:0:0:0:
35,154,57475,1,0,1:0:0:0:
227,267,57623,6,0,B|305:256|305:256|349:268|349:268|448:253,1,203.999993774414,6|8,1:0|0:0,0:0:0:0:
478,178,58069,1,0,0:0:0:0:
313,143,58217,1,2,1:0:0:0:
417,90,58366,1,0,1:0:0:0:
287,45,58514,1,10,0:0:0:0:
398,217,58663,1,0,0:0:0:0:
224,117,58811,6,0,B|205:146|205:146|214:227,1,101.999996887207,6|0,1:0|0:0,0:0:0:0:
318,360,59108,2,0,B|337:331|337:331|328:250,1,101.999996887207,8|0,0:0|0:0,0:0:0:0:
128,263,59405,1,2,1:0:0:0:
236,310,59554,1,0,1:0:0:0:
47,360,59702,2,0,L|162:351,1,101.999996887207,10|0,0:0|0:0,0:0:0:0:
401,262,59999,6,0,P|345:301|242:284,1,152.999995330811,6|0,1:0|0:0,0:0:0:0:
315,210,60297,2,0,B|331:243|331:243|313:400,1,152.999995330811,14|0,0:0|0:0,0:0:0:0:
232,383,60594,1,6,1:0:0:0:
185,198,60742,1,0,1:0:0:0:
419,315,60891,1,14,0:0:0:0:
151,302,61039,1,0,0:0:0:0:
315,210,61188,6,0,B|385:188|388:228|462:204|462:204|433:165|379:173,1,203.999993774414,2|8,1:0|0:0,0:0:0:0:
332,102,61633,1,0,0:0:0:0:
496,12,61782,2,0,P|496:63|481:116,1,101.999996887207,2|0,1:0|1:0,0:0:0:0:
345,201,62079,2,0,P|331:151|331:101,1,101.999996887207,10|0,0:0|0:0,0:0:0:0:
466,252,62376,6,0,L|253:239,1,203.999993774414,2|10,1:0|0:0,0:0:0:0:
133,292,62821,1,2,0:0:0:0:
122,99,62970,2,0,P|155:149|168:194,1,101.999996887207,2|2,1:0|1:0,0:0:0:0:
1,372,63267,2,0,L|11:263,1,101.999996887207,10|0,0:0|0:0,0:0:0:0:
236,132,63564,6,0,L|317:145,2,67.9999979248048,10|8|8,0:0|0:0|0:0,0:0:0:0:
167,188,63861,2,0,L|59:196,1,101.999996887207,8|8,0:0|0:0,0:0:0:0:
190,0,64158,6,0,P|231:41|221:159,1,152.999995330811,10|0,0:0|0:0,0:0:0:0:
194,229,64455,2,0,P|153:188|163:70,1,152.999995330811,10|0,0:0|0:0,0:0:0:0:
274,58,64752,6,0,B|345:51|345:51|394:75|394:75|473:69,1,203.999993774414,6|8,1:0|0:0,0:0:0:0:
512,166,65197,1,0,0:0:0:0:
342,256,65346,2,0,L|326:141,1,101.999996887207,2|2,1:0|1:0,0:0:0:0:
480,356,65643,2,0,L|496:241,1,101.999996887207,10|2,0:0|0:0,0:0:0:0:
304,353,65940,6,0,B|233:346|233:346|184:370|184:370|105:364,1,203.999993774414,6|8,1:0|0:0,0:0:0:0:
21,281,66386,1,0,0:0:0:0:
184,140,66534,1,2,1:0:0:0:
159,280,66683,1,0,1:0:0:0:
78,46,66831,1,10,0:0:0:0:
92,194,66980,1,0,0:0:0:0:
188,53,67128,6,0,P|245:40|311:55,1,101.999996887207,6|2,1:0|0:0,0:0:0:0:
369,274,67425,2,0,P|312:287|246:272,1,101.999996887207,14|2,0:0|0:0,0:0:0:0:
363,86,67722,2,0,P|376:143|361:209,1,101.999996887207,6|0,1:0|1:0,0:0:0:0:
191,239,68019,2,0,P|178:182|193:116,1,101.999996887207,14|0,0:0|0:0,0:0:0:0:
369,274,68316,6,0,L|154:268,1,203.999993774414,2|8,1:0|0:0,0:0:0:0:
98,197,68762,1,0,0:0:0:0:
37,384,68910,2,0,P|69:335|80:287,1,101.999996887207,2|2,1:0|1:0,0:0:0:0:
51,52,69207,2,0,P|22:94|9:143,1,101.999996887207,10|2,0:0|0:0,0:0:0:0:
165,268,69504,6,0,B|256:259|256:259|292:281|292:281|373:274,1,203.999993774414,2|8,1:0|0:0,0:0:0:0:
457,233,69950,1,0,0:0:0:0:
313,83,70098,2,0,P|309:154|330:196,1,101.999996887207,2|0,1:0|1:0,0:0:0:0:
464,331,70395,2,0,P|468:260|447:218,1,101.999996887207,10|0,0:0|0:0,0:0:0:0:
217,57,70693,6,0,B|194:119|194:119|240:280,1,203.999993774414,2|8,1:0|0:0,0:0:0:0:
327,324,71138,1,0,0:0:0:0:
120,370,71287,2,0,L|131:252,1,101.999996887207,2|2,1:0|1:0,0:0:0:0:
16,147,71584,2,0,L|27:265,1,101.999996887207,10|0,0:0|0:0,0:0:0:0:
279,146,71881,5,2,1:0:0:0:
106,82,72029,1,0,0:0:0:0:
345,245,72178,1,10,0:0:0:0:
91,317,72326,1,0,0:0:0:0:
264,126,72475,1,2,1:0:0:0:
218,362,72623,1,2,1:0:0:0:
75,115,72772,1,10,0:0:0:0:
106,344,72920,1,2,0:0:0:0:
307,203,73069,6,0,L|432:188,1,101.999996887207,0|0,1:0|1:0,0:0:0:0:
432,354,73366,2,0,L|330:341,1,101.999996887207,8|0,1:2|0:0,0:0:0:0:
355,117,73663,1,2,1:1:0:0:
446,269,73811,1,8,3:0:0:0:
289,50,73960,1,10,3:1:0:0:
215,226,74108,1,8,3:0:0:0:
393,8,74257,5,6,1:1:0:0:
367,363,74554,1,0,1:0:0:0:
68,130,74851,2,0,L|211:122,1,101.999996887207,14|0,0:0|0:0,0:0:0:0:
316,231,75148,2,0,L|173:223,1,101.999996887207,2|8,0:0|0:0,0:0:0:0:
230,40,75445,6,0,P|270:103|264:162,1,101.999996887207,6|8,1:0|0:0,0:0:0:0:
163,309,75742,1,8,1:0:0:0:
68,130,76039,6,0,B|36:181|36:181|72:357,1,203.999993774414,14|2,0:0|0:0,0:0:0:0:
122,384,76485,1,0,0:0:0:0:
264,313,76633,6,0,L|141:307,1,101.999996887207,6|0,1:0|0:0,0:0:0:0:
332,175,76930,2,0,L|209:181,1,101.999996887207,2|0,1:0|0:0,0:0:0:0:
406,245,77227,2,0,P|437:179|425:137,1,101.999996887207,14|0,0:0|0:0,0:0:0:0:
294,25,77524,2,0,P|335:84|378:95,1,101.999996887207,2|8,0:0|0:0,0:0:0:0:
512,123,77821,6,0,L|260:117,1,203.999993774414,6|8,1:0|1:0,0:0:0:0:
195,70,78267,1,0,0:0:0:0:
195,70,78415,2,0,L|73:73,1,101.999996887207,10|0,0:0|0:0,0:0:0:0:
200,209,78712,2,0,L|301:211,1,101.999996887207,2|0,0:0|0:0,0:0:0:0:
102,327,79009,5,6,1:1:0:0:
85,40,79306,1,2,1:0:0:0:
347,162,79603,1,14,0:0:0:0:
25,179,79900,2,0,L|135:169,1,101.999996887207,2|8,0:0|0:0,0:0:0:0:
307,307,80197,6,0,L|205:297,1,101.999996887207,6|0,1:0|0:0,0:0:0:0:
345,216,80494,1,8,0:0:0:0:
417,294,80643,1,0,0:0:0:0:
422,170,80792,2,0,B|434:214|434:214|411:314,1,127.500004863739,2|0,0:0|0:0,0:0:0:0:
252,211,81237,6,0,L|237:121,1,85,6|0,1:0|0:0,0:0:0:0:
298,9,81534,1,2,1:0:0:0:
138,41,81683,1,10,0:0:0:0:
332,120,81831,2,0,L|442:110,1,85,2|0,0:0|1:0,0:0:0:0:
252,211,82128,1,2,1:0:0:0:
232,76,82277,1,10,0:0:0:0:
351,217,82425,6,0,L|350:330,1,85,2|0,1:0|0:0,0:0:0:0:
165,230,82722,1,2,1:0:0:0:
332,137,82871,6,0,L|429:128,1,56.6666666666667,8|8,0:0|0:0,0:0:0:0:
465,100,83069,5,8,0:0:0:0:
465,100,83168,6,0,L|367:89,1,85,8|0,0:0|0:0,0:0:0:0:
135,70,83465,1,0,1:0:0:0:
416,254,83613,1,8,3:0:0:0:
111,313,83762,5,4,1:0:0:0:
256,192,83836,12,0,87920,0:0:0:0:
