osu file format v14

[General]
AudioFilename: audio.mp3
AudioLeadIn: 0
PreviewTime: 47821
Countdown: 0
SampleSet: Soft
StackLeniency: 0.4
Mode: 0
LetterboxInBreaks: 0
WidescreenStoryboard: 0

[Editor]
DistanceSpacing: 1.5
BeatDivisor: 4
GridSize: 8
TimelineZoom: 2.3

[Metadata]
Title:Haruka Kanata (TV Size)
TitleUnicode:ハルカカナタ (TV Size)
Artist:UNLIMITS
ArtistUnicode:UNLIMITS
Creator:Xandit
Version:Extra
Source:BLEACH
Tags:Astronic schoolboy Nevo yShadowXOP_ ChuuritsuTv Entry BLEACH anime ending 28 japanese
BeatmapID:1831120
BeatmapSetID:876133

[Difficulty]
HPDrainRate:6
CircleSize:4.2
OverallDifficulty:9
ApproachRate:9.3
SliderMultiplier:1.4
SliderTickRate:1

[Events]
//Background and Video events
0,0,"BG.png",0,0
//Break Periods
//Storyboard Layer 0 (Background)
//Storyboard Layer 1 (Fail)
//Storyboard Layer 2 (Pass)
//Storyboard Layer 3 (Foreground)
//Storyboard Sound Samples

[TimingPoints]
594,297.029702970297,4,2,1,55,1,0
594,-125,4,2,1,55,0,0
5346,-125,4,2,1,65,0,0
9504,-90.9090909090909,4,2,1,75,0,0
9950,-100,4,2,1,95,0,1
19455,-90.9090909090909,4,2,1,75,0,0
28960,-83.3333333333333,4,2,1,80,0,0
38613,-111.111111111111,4,2,1,65,0,0
45742,-90.9090909090909,4,2,1,80,0,0
46113,-90.9090909090909,4,2,1,5,0,0
46188,-111.111111111111,4,2,1,70,0,0
46559,-111.111111111111,4,2,1,5,0,0
46633,-125,4,2,1,60,0,0
47004,-125,4,2,1,5,0,0
47079,-100,4,2,1,60,0,0
47524,-333.333333333333,4,2,1,60,0,0
48118,-90.9090909090909,4,2,1,95,0,1
63564,-90.9090909090909,4,2,1,95,0,0
64752,-90.9090909090909,4,2,1,95,0,1
74257,-125,4,2,1,75,0,0
80197,-125,4,2,1,65,0,0
81237,-100,4,2,1,95,0,0
83762,-166.666666666667,4,2,1,95,0,0
84059,-196.078431372549,4,2,1,85,0,0
84356,-196.078431372549,4,2,2,75,0,0
84653,-196.078431372549,4,2,1,65,0,0
84950,-196.078431372549,4,2,2,55,0,0
85247,-196.078431372549,4,2,1,50,0,0
85544,-196.078431372549,4,2,2,45,0,0
85841,-196.078431372549,4,2,1,40,0,0
86138,-196.078431372549,4,2,2,35,0,0
86435,-196.078431372549,4,2,1,30,0,0
86732,-196.078431372549,4,2,2,25,0,0
87029,-196.078431372549,4,2,1,20,0,0
87326,-196.078431372549,4,2,2,15,0,0
87623,-196.078431372549,4,2,1,10,0,0
87920,-196.078431372549,4,2,2,5,0,0

[Colours]
Combo1 : 80,124,91
Combo2 : 120,120,120
Combo3 : 201,151,1
Combo4 : 168,0,0

[HitObjects]
417,64,296,5,2,0:0:0:0:
417,64,594,6,0,P|411:96|413:129,1,56,2|2,1:0|1:0,0:0:0:0:
459,191,891,1,2,0:0:0:0:
459,191,1039,2,0,P|413:168|351:173,1,112,2|2,0:0|0:0,0:0:0:0:
399,301,1485,1,2,0:0:0:0:
399,301,1633,1,2,0:0:0:0:
399,301,1782,6,0,L|394:219,1,56,0|0,0:0|0:0,0:0:0:0:
319,324,2079,2,0,L|314:242,1,56,0|0,0:0|0:0,0:0:0:0:
239,347,2376,2,0,L|234:265,1,56,0|0,0:0|0:0,0:0:0:0:
159,370,2673,2,0,L|154:288,1,56,0|0,0:0|0:0,0:0:0:0:
84,224,2970,6,0,L|166:219,1,56,2|2,0:0|0:0,0:0:0:0:
208,264,3267,1,2,0:0:0:0:
208,264,3415,2,0,B|183:232|183:232|198:148,1,112,2|2,0:0|0:0,0:0:0:0:
328,153,3861,1,2,0:0:0:0:
328,153,4009,1,2,0:0:0:0:
328,153,4158,6,0,P|291:160|259:155,1,56,2|0,0:0|0:0,0:0:0:0:
195,42,4455,2,0,P|219:70|231:100,1,56,2|0,0:0|0:0,0:0:0:0:
166,213,4752,2,0,P|178:177|198:152,1,56,2|0,0:0|0:0,0:0:0:0:
329,222,5049,2,0,L|234:212,1,84,2|0,0:0|0:0,0:0:0:0:
403,288,5346,6,0,L|410:225,1,56,2|2,1:0|1:0,0:0:0:0:
384,101,5643,2,0,L|377:156,1,56,2|2,0:0|0:0,0:0:0:0:
322,277,5940,2,0,L|329:214,1,56,0|2,0:0|0:0,0:0:0:0:
303,90,6237,2,0,L|296:145,1,56,2|2,0:0|0:0,0:0:0:0:
188,259,6534,6,0,L|243:265,1,56,2|0,0:0|0:0,0:0:0:0:
218,174,6831,2,0,L|162:167,1,56,2|0,0:0|0:0,0:0:0:0:
73,306,7128,6,0,L|128:312,1,56,2|0,0:0|0:0,0:0:0:0:
103,222,7425,2,0,L|14:212,1,84,2|0,0:0|0:0,0:0:0:0:
106,87,7722,6,0,P|94:114|93:152,1,56,2|2,1:0|1:0,0:0:0:0:
169,266,8019,2,0,P|181:239|182:201,1,56,2|2,0:0|0:0,0:0:0:0:
47,224,8316,2,0,L|106:221,1,56,0|2,0:0|0:0,0:0:0:0:
229,130,8613,2,0,L|170:127,1,56,2|2,0:0|0:0,0:0:0:0:
285,289,8910,5,4,0:0:0:0:
285,289,9207,1,6,0:0:0:0:
350,125,9504,5,10,0:0:0:0:
241,362,9653,1,10,0:0:0:0:
58,90,9950,6,0,P|105:123|189:97,1,140,6|2,1:0|1:0,0:0:0:0:
253,16,10396,1,10,0:0:0:0:
128,46,10544,1,2,0:0:0:0:
256,175,10693,2,0,L|260:102,1,70,0|2,1:0|1:0,0:0:0:0:
249,352,10990,1,10,0:0:0:0:
330,222,11138,6,0,B|274:217|274:217|248:230|248:230|193:226,1,140,2|2,1:0|1:0,0:0:0:0:
401,272,11584,2,0,P|413:238|409:184,1,70,10|2,0:0|0:0,0:0:0:0:
329,79,11881,1,0,1:0:0:0:
330,221,12029,1,0,1:0:0:0:
492,123,12178,1,8,0:0:0:0:
265,168,12326,6,0,P|247:231|292:297,1,140,2|2,1:0|1:0,0:0:0:0:
414,74,12772,1,10,0:0:0:0:
330,222,12920,1,2,0:0:0:0:
181,86,13069,2,0,L|260:83,1,70,0|2,1:0|1:0,0:0:0:0:
417,175,13366,1,10,0:0:0:0:
142,177,13514,6,0,B|158:136|158:136|127:38,1,140,2|2,1:0|1:0,0:0:0:0:
63,122,13960,1,10,0:0:0:0:
85,295,14108,1,2,0:0:0:0:
330,222,14257,2,0,L|255:217,1,70,0|0,1:0|1:0,0:0:0:0:
32,197,14554,1,8,0:0:0:0:
218,300,14702,6,0,L|358:309,1,140,6|2,1:0|1:0,0:0:0:0:
462,171,15148,1,10,0:0:0:0:
330,222,15296,1,2,0:0:0:0:
426,353,15445,2,0,P|434:316|425:265,1,70,0|2,1:0|1:0,0:0:0:0:
330,222,15742,1,10,0:0:0:0:
492,102,15891,6,0,P|431:133|364:115,1,140,2|2,1:0|1:0,0:0:0:0:
319,17,16336,1,10,0:0:0:0:
421,54,16485,1,2,0:0:0:0:
197,261,16633,5,0,1:0:0:0:
252,81,16782,1,0,1:0:0:0:
379,218,16930,1,8,0:0:0:0:
210,329,17079,6,0,P|198:257|182:192,1,140,6|2,1:0|1:0,0:0:0:0:
42,109,17524,2,0,P|79:126|131:122,1,70,10|2,0:0|0:0,0:0:0:0:
205,113,17821,1,0,1:0:0:0:
89,33,17970,1,2,1:0:0:0:
48,253,18118,1,10,0:0:0:0:
317,181,18267,6,0,B|243:159|253:211|175:190,1,140,6|2,1:0|1:0,0:0:0:0:
181,30,18712,1,10,0:0:0:0:
242,247,18861,1,2,0:0:0:0:
364,118,19009,2,0,P|334:105|293:100,1,70,2|2,1:0|1:0,0:0:0:0:
384,238,19306,1,10,0:0:0:0:
484,173,19455,6,0,L|470:326,1,154.000004699707,6|0,1:0|0:0,0:0:0:0:
384,238,19900,1,8,0:0:0:0:
384,238,20197,6,0,L|377:314,1,77.0000023498536,2|2,0:0|0:0,0:0:0:0:
302,270,20494,1,10,0:0:0:0:
331,174,20643,2,0,P|381:159|460:216,1,154.000004699707,2|0,0:0|0:0,0:0:0:0:
302,270,21089,1,8,0:0:0:0:
302,270,21386,6,0,L|298:358,2,77.0000023498536,2|2|10,0:0|0:0|0:0,0:0:0:0:
153,150,21831,2,0,L|157:238,1,77.0000023498536,2|0,0:0|0:0,0:0:0:0:
298,346,22128,2,0,L|302:258,1,77.0000023498536,2|8,0:0|0:0,0:0:0:0:
80,153,22425,2,0,L|84:241,1,77.0000023498536,2|0,0:0|0:0,0:0:0:0:
225,349,22722,2,0,L|229:261,1,77.0000023498536,2|8,0:0|0:0,0:0:0:0:
187,213,23019,6,0,B|225:242|225:242|333:229,1,154.000004699707,2|0,0:0|0:0,0:0:0:0:
432,212,23465,1,10,0:0:0:0:
432,212,23762,5,2,1:0:0:0:
292,163,23910,1,2,1:0:0:0:
320,309,24059,1,10,0:0:0:0:
419,127,24207,6,0,L|256:147,1,154.000004699707,6|0,1:0|0:0,0:0:0:0:
120,167,24653,1,8,0:0:0:0:
120,167,24950,2,0,P|132:214|125:255,2,77.0000023498536,2|2|10,0:0|0:0|0:0,0:0:0:0:
58,100,25395,6,0,P|91:126|207:115,1,154.000004699707,2|0,0:0|0:0,0:0:0:0:
139,44,25841,1,8,0:0:0:0:
261,183,26138,2,0,L|258:272,2,77.0000023498536,2|2|10,0:0|0:0|0:0,0:0:0:0:
138,320,26584,6,0,B|223:286|215:373|312:324,1,154.000004699707,2|2,0:0|0:0,0:0:0:0:
366,275,27029,1,8,0:0:0:0:
446,347,27178,2,0,L|461:184,1,154.000004699707,2|2,0:0|0:0,0:0:0:0:
478,92,27623,1,8,0:0:0:0:
378,76,27772,2,0,B|314:70|314:70|288:84|288:84|225:78,1,154.000004699707,2|0,0:0|0:0,0:0:0:0:
132,63,28217,5,8,0:0:0:0:
132,63,28514,1,2,1:0:0:0:
192,205,28663,1,2,1:0:0:0:
285,83,28811,1,10,0:0:0:0:
119,245,28960,6,0,L|294:235,1,167.999994873047,6|0,1:0|0:0,0:0:0:0:
253,315,29405,2,0,L|169:319,1,83.9999974365235,8|0,0:0|0:0,0:0:0:0:
58,171,29702,1,2,0:0:0:0:
119,245,29851,1,2,0:0:0:0:
216,81,29999,1,10,0:0:0:0:
163,155,30148,1,2,0:0:0:0:
44,78,30296,6,0,L|127:73,1,83.9999974365235,0|0,0:0|0:0,0:0:0:0:
328,164,30593,2,0,L|244:168,1,83.9999974365235,8|0,0:0|0:0,0:0:0:0:
58,171,30891,1,2,0:0:0:0:
216,81,31039,1,2,0:0:0:0:
190,242,31188,1,10,0:0:0:0:
178,150,31336,6,0,P|139:95|190:3,1,167.999994873047,2|2,0:0|0:0,0:0:0:0:
299,82,31782,2,0,L|215:80,1,83.9999974365235,8|2,0:0|0:0,0:0:0:0:
350,7,32079,1,0,0:0:0:0:
395,126,32227,1,2,0:0:0:0:
257,165,32376,1,8,0:0:0:0:
299,82,32524,1,2,0:0:0:0:
347,255,32673,6,0,L|339:163,1,83.9999974365235,0|0,0:0|0:0,0:0:0:0:
472,91,32970,2,0,L|464:183,1,83.9999974365235,8|0,0:0|0:0,0:0:0:0:
347,255,33267,1,0,1:0:0:0:
465,175,33415,1,0,1:0:0:0:
475,317,33564,1,10,0:0:0:0:
288,314,33712,6,0,B|314:338|314:338|344:261|268:205,1,167.999994873047,6|0,1:0|0:0,0:0:0:0:
113,203,34158,2,0,P|154:208|193:190,1,83.9999974365235,10|0,0:0|0:0,0:0:0:0:
215,60,34455,1,2,0:0:0:0:
144,129,34603,1,0,0:0:0:0:
262,251,34752,1,10,0:0:0:0:
237,155,34900,1,0,0:0:0:0:
205,308,35049,6,0,L|308:293,1,83.9999974365235,2|0,0:0|0:0,0:0:0:0:
409,174,35346,2,0,L|306:189,1,83.9999974365235,10|0,0:0|0:0,0:0:0:0:
198,210,35643,1,2,1:0:0:0:
330,303,35792,1,0,1:0:0:0:
345,142,35940,1,10,0:0:0:0:
119,169,36089,6,0,L|160:340,1,167.999994873047,2|0,1:0|1:0,0:0:0:0:
240,100,36534,1,10,0:0:0:0:
184,233,36683,1,2,0:0:0:0:
113,57,36831,1,2,1:0:0:0:
286,201,36980,1,2,1:0:0:0:
82,277,37128,1,10,0:0:0:0:
365,68,37277,6,0,B|370:131|370:131|397:161|397:161|403:233,1,167.999994873047,2|2,1:0|1:0,0:0:0:0:
408,308,37722,2,0,P|456:296|501:307,1,83.9999974365235,10|2,0:0|1:0,0:0:0:0:
340,366,38019,1,10,0:0:0:0:
402,225,38168,1,10,0:0:0:0:
267,137,38316,1,2,1:0:0:0:
306,241,38465,1,0,1:0:0:0:
266,84,38613,6,0,P|234:85|204:79,1,62.9999980773926,6|8,1:0|0:0,0:0:0:0:
117,52,38910,1,0,1:0:0:0:
185,2,39059,1,0,1:0:0:0:
138,133,39207,2,0,L|161:282,1,125.999996154785,8|2,0:0|1:0,0:0:0:0:
174,337,39653,1,8,0:0:0:0:
259,316,39801,6,0,L|333:304,1,62.9999980773926,2|0,1:0|1:0,0:0:0:0:
430,208,40098,2,0,L|355:219,1,62.9999980773926,10|0,0:0|0:0,0:0:0:0:
291,232,40395,1,2,1:0:0:0:
312,154,40544,1,0,1:0:0:0:
178,132,40693,1,10,0:0:0:0:
237,179,40841,1,0,0:0:0:0:
258,9,40990,6,0,L|244:83,1,62.9999980773926,0|8,1:0|0:0,0:0:0:0:
163,211,41287,1,0,1:0:0:0:
110,88,41435,1,0,1:0:0:0:
294,123,41584,2,0,P|239:107|164:146,1,125.999996154785,8|0,0:0|1:0,0:0:0:0:
163,211,42029,1,8,0:0:0:0:
234,258,42178,6,0,P|247:220|242:185,1,62.9999980773926,0|0,1:0|1:0,0:0:0:0:
93,256,42475,2,0,P|120:282|162:294,1,62.9999980773926,10|0,0:0|0:0,0:0:0:0:
117,117,42772,1,2,1:0:0:0:
163,211,42920,1,0,1:0:0:0:
266,27,43069,1,10,0:0:0:0:
220,121,43217,1,0,0:0:0:0:
336,69,43366,6,0,P|346:9|336:-12,1,62.9999980773926,6|8,1:0|0:0,0:0:0:0:
180,41,43663,1,0,1:0:0:0:
220,121,43811,1,0,1:0:0:0:
303,152,43960,2,0,P|262:149|197:205,1,125.999996154785,8|2,0:0|1:0,0:0:0:0:
274,228,44405,1,8,0:0:0:0:
355,288,44554,6,0,L|345:200,1,62.9999980773926,2|0,1:0|1:0,0:0:0:0:
453,99,44851,2,0,L|443:187,1,62.9999980773926,10|0,0:0|0:0,0:0:0:0:
281,290,45148,2,0,L|271:202,1,62.9999980773926,2|0,1:0|1:0,0:0:0:0:
379,101,45445,2,0,L|369:189,1,62.9999980773926,14|0,0:0|0:0,0:0:0:0:
236,62,45742,6,0,B|229:141|229:141|201:179|201:179|195:245,1,192.500005874634,14|0,0:0|0:0,0:0:0:0:
151,98,46188,6,0,B|181:163|181:163|177:204|177:204|202:258,1,157.499995193482,10|0,3:0|0:0,0:0:0:0:
95,152,46633,6,0,B|144:186|144:186|159:219|159:219|200:248,1,140,10|0,3:0|0:0,0:0:0:0:
22,279,47079,6,0,B|48:257|48:257|68:253|68:253|89:235,2,70,2|2|2,0:0|0:0|0:0,0:0:0:0:
194,244,47524,6,0,L|189:290,1,41.9999987182618,2|2,0:0|0:0,0:0:0:0:
151,176,48118,6,0,P|199:168|262:208,1,115.50000352478,6|0,1:0|0:0,0:0:0:0:
289,272,48415,2,0,P|285:221|310:174,1,77.0000023498536,8|0,0:0|0:0,0:0:0:0:
416,90,48712,1,2,1:0:0:0:
361,237,48861,1,2,1:0:0:0:
262,4,49009,1,10,0:0:0:0:
328,132,49158,1,2,0:0:0:0:
67,101,49306,6,0,L|193:95,1,115.50000352478,6|0,1:0|0:0,0:0:0:0:
243,130,49603,2,0,L|166:133,1,77.0000023498536,8|0,0:0|0:0,0:0:0:0:
3,156,49900,1,2,1:0:0:0:
123,40,50049,1,0,1:0:0:0:
152,229,50197,1,10,0:0:0:0:
11,49,50346,1,0,0:0:0:0:
235,244,50494,6,0,L|141:241,1,77.0000023498536,6|2,1:0|0:0,0:0:0:0:
328,132,50792,2,0,L|404:134,1,77.0000023498536,14|2,0:0|0:0,0:0:0:0:
236,326,51089,2,0,L|142:323,1,77.0000023498536,6|0,1:0|1:0,0:0:0:0:
329,214,51387,2,0,L|405:216,1,77.0000023498536,14|0,0:0|0:0,0:0:0:0:
512,205,51683,5,2,1:0:0:0:
353,321,51831,1,0,0:0:0:0:
384,56,51980,1,8,0:0:0:0:
414,209,52128,1,0,0:0:0:0:
129,125,52277,6,0,B|170:121|170:121|187:107|187:107|206:118|206:118|248:114,1,115.50000352478,2|0,1:0|0:0,0:0:0:0:
309,145,52574,2,0,B|277:147|277:147|264:157|264:157|250:150|250:150|219:152,1,77.0000023498536,10|2,0:0|0:0,0:0:0:0:
150,241,52871,5,2,1:0:0:0:
309,145,53019,1,0,0:0:0:0:
339,330,53168,1,8,0:0:0:0:
207,158,53316,1,0,0:0:0:0:
409,65,53465,6,0,P|383:105|393:185,1,115.50000352478,2|0,1:0|0:0,0:0:0:0:
409,210,53762,2,0,P|371:202|334:211,1,77.0000023498536,10|0,0:0|0:0,0:0:0:0:
202,330,54059,5,2,1:0:0:0:
407,295,54207,1,0,0:0:0:0:
280,142,54356,1,8,0:0:0:0:
299,256,54504,1,0,0:0:0:0:
220,118,54653,6,0,P|272:125|324:105,1,77.0000023498536,2|2,1:0|1:0,0:0:0:0:
160,75,54950,2,0,L|190:194,1,115.50000352478,10|0,0:0|0:0,0:0:0:0:
197,224,55247,6,0,P|154:210|103:220,1,77.0000023498536,2|0,1:0|0:0,0:0:0:0:
30,271,55544,1,10,0:0:0:0:
151,291,55693,1,0,0:0:0:0:
41,109,55841,6,0,L|47:194,1,77.0000023498536,2|2,1:0|1:0,0:0:0:0:
54,384,56138,1,10,0:0:0:0:
344,212,56287,2,0,B|280:206|280:206|246:227|246:227|190:222,1,154.000004699707,2|0,0:0|1:0,0:0:0:0:
115,204,56732,1,12,0:0:0:0:
262,166,56881,1,0,0:0:0:0:
225,384,57029,6,0,L|213:294,1,77.0000023498536,2|0,1:0|1:0,0:0:0:0:
380,135,57326,2,0,L|368:225,1,77.0000023498536,10|0,0:0|1:0,0:0:0:0:
329,62,57623,6,0,P|364:94|456:99,1,115.50000352478,6|0,1:0|0:0,0:0:0:0:
485,58,57920,2,0,B|460:94|477:138,1,77.0000023498536,8|0,0:0|0:0,0:0:0:0:
412,34,58217,1,2,1:0:0:0:
294,173,58366,1,0,1:0:0:0:
235,0,58514,1,10,0:0:0:0:
311,75,58663,1,0,0:0:0:0:
343,233,58811,6,0,P|300:216|208:232,1,115.50000352478,6|0,1:0|0:0,0:0:0:0:
200,289,59108,2,0,L|182:200,1,77.0000023498536,8|0,0:0|0:0,0:0:0:0:
221,384,59405,1,2,1:0:0:0:
287,310,59554,1,0,1:0:0:0:
62,205,59702,1,10,0:0:0:0:
200,289,59851,1,0,0:0:0:0:
229,85,59999,6,0,L|220:186,1,77.0000023498536,6|0,1:0|0:0,0:0:0:0:
360,278,60296,2,0,L|351:177,1,77.0000023498536,14|0,0:0|0:0,0:0:0:0:
316,58,60594,2,0,L|307:159,1,77.0000023498536,6|0,1:0|1:0,0:0:0:0:
447,251,60891,2,0,L|438:150,1,77.0000023498536,14|0,0:0|0:0,0:0:0:0:
385,126,61188,6,0,P|422:151|511:116,1,115.50000352478,2|0,1:0|0:0,0:0:0:0:
433,0,61485,2,0,L|445:78,1,77.0000023498536,8|0,0:0|0:0,0:0:0:0:
344,209,61782,2,0,P|307:234|218:199,1,115.50000352478,2|0,1:0|0:0,0:0:0:0:
296,83,62079,2,0,L|284:161,1,77.0000023498536,10|0,0:0|0:0,0:0:0:0:
117,156,62376,6,0,L|197:151,1,77.0000023498536,2|2,1:0|0:0,0:0:0:0:
386,128,62673,1,10,0:0:0:0:
212,285,62821,1,2,0:0:0:0:
221,3,62970,1,2,1:0:0:0:
322,222,63118,1,2,1:0:0:0:
40,197,63267,1,10,0:0:0:0:
224,87,63415,1,0,0:0:0:0:
168,241,63564,5,10,0:0:0:0:
219,220,63663,5,8,0:0:0:0:
266,200,63762,5,8,0:0:0:0:
310,183,63861,5,8,0:0:0:0:
400,383,64009,1,8,0:0:0:0:
429,100,64158,1,10,0:0:0:0:
338,290,64306,1,8,0:0:0:0:
291,25,64455,1,10,0:0:0:0:
380,194,64603,1,8,0:0:0:0:
291,25,64752,6,0,P|348:-7|423:20,1,115.50000352478,6|0,1:0|0:0,0:0:0:0:
301,182,65049,2,0,L|277:93,1,77.0000023498536,8|0,0:0|0:0,0:0:0:0:
357,70,65346,1,2,1:0:0:0:
259,295,65494,1,2,1:0:0:0:
160,64,65643,1,10,0:0:0:0:
301,182,65792,1,2,0:0:0:0:
0,101,65940,6,0,B|29:122|29:122|119:118,1,115.50000352478,6|0,1:0|0:0,0:0:0:0:
160,64,66237,2,0,P|157:102|167:139,1,77.0000023498536,8|0,0:0|0:0,0:0:0:0:
270,278,66534,1,2,1:0:0:0:
239,89,66683,1,0,1:0:0:0:
108,228,66831,1,10,0:0:0:0:
214,186,66980,1,0,0:0:0:0:
181,336,67128,6,0,L|174:241,1,77.0000023498536,6|2,1:0|0:0,0:0:0:0:
353,169,67425,2,0,L|346:264,1,77.0000023498536,14|2,0:0|0:0,0:0:0:0:
268,384,67722,2,0,L|261:289,1,77.0000023498536,6|0,1:0|1:0,0:0:0:0:
435,120,68019,2,0,L|428:215,1,77.0000023498536,14|0,0:0|0:0,0:0:0:0:
406,381,68316,1,2,1:0:0:0:
321,229,68465,1,0,0:0:0:0:
496,229,68613,1,8,0:0:0:0:
413,289,68762,1,0,0:0:0:0:
253,180,68910,6,0,B|232:173|232:173|274:138|326:151,1,115.50000352478,2|0,1:0|0:0,0:0:0:0:
350,81,69207,2,0,P|303:72|264:77,1,77.0000023498536,10|2,0:0|0:0,0:0:0:0:
134,216,69504,1,2,1:0:0:0:
319,271,69653,1,0,0:0:0:0:
274,74,69801,1,8,0:0:0:0:
253,180,69950,1,0,0:0:0:0:
385,325,70098,6,0,P|401:270|378:212,1,115.50000352478,2|0,1:0|0:0,0:0:0:0:
340,188,70395,2,0,P|382:198|443:185,1,77.0000023498536,10|0,0:0|0:0,0:0:0:0:
509,119,70693,1,2,1:0:0:0:
449,226,70841,1,0,0:0:0:0:
335,19,70990,1,8,0:0:0:0:
396,117,71138,1,0,0:0:0:0:
235,9,71287,6,0,L|325:1,1,77.0000023498536,2|2,1:0|1:0,0:0:0:0:
289,120,71584,2,0,L|147:108,1,115.50000352478,10|0,0:0|0:0,0:0:0:0:
133,105,71881,6,0,P|117:145|120:191,1,77.0000023498536,2|0,1:0|0:0,0:0:0:0:
252,205,72178,2,0,P|225:171|184:150,1,77.0000023498536,10|0,0:0|0:0,0:0:0:0:
84,263,72475,1,2,1:0:0:0:
173,236,72623,1,2,1:0:0:0:
206,67,72772,2,0,L|124:60,1,77.0000023498536,10|2,0:0|0:0,0:0:0:0:
216,146,73069,5,0,1:0:0:0:
40,108,73366,1,8,1:2:0:0:
314,96,73663,1,2,1:1:0:0:
116,168,73811,1,8,3:0:0:0:
188,366,73960,1,10,3:1:0:0:
250,230,74108,1,8,3:0:0:0:
15,200,74257,6,0,B|41:174|41:174|125:167,1,112,6|0,1:1|1:0,0:0:0:0:
206,160,74702,1,0,0:0:0:0:
320,141,74851,2,0,P|301:96|324:27,1,112,14|2,0:0|0:0,0:0:0:0:
468,65,75296,1,8,0:0:0:0:
379,88,75445,1,6,1:0:0:0:
504,1,75594,2,0,L|513:121,1,112,8|0,0:0|0:0,0:0:0:0:
454,192,76039,6,0,L|381:187,1,56,14|0,0:0|0:0,0:0:0:0:
240,273,76336,2,0,L|295:269,1,56,2|0,0:0|0:0,0:0:0:0:
195,205,76633,6,0,P|167:238|179:324,1,112,6|2,1:0|1:0,0:0:0:0:
240,273,77079,1,0,0:0:0:0:
262,171,77227,2,0,L|145:167,1,112,14|2,0:0|0:0,0:0:0:0:
32,160,77673,1,8,0:0:0:0:
63,250,77821,1,6,1:0:0:0:
0,63,77970,2,0,B|29:86|29:86|129:87,1,112,8|0,0:0|0:0,0:0:0:0:
228,33,78415,6,0,L|157:33,1,56,10|0,0:0|0:0,0:0:0:0:
307,107,78712,2,0,L|363:107,1,56,2|0,0:0|0:0,0:0:0:0:
455,114,79009,6,0,P|444:140|443:184,1,56,6|2,1:1|0:0,0:0:0:0:
499,320,79306,1,2,1:0:0:0:
465,244,79455,1,2,0:0:0:0:
291,328,79603,2,0,B|331:340|331:340|415:321,1,112,14|2,0:0|0:0,0:0:0:0:
341,263,80049,1,8,0:0:0:0:
207,335,80197,5,6,1:0:0:0:
207,335,80494,1,8,0:0:0:0:
207,335,80792,6,0,B|174:285|202:225|202:225|216:254,1,140,2|0,0:0|0:0,0:0:0:0:
229,270,81237,6,0,P|189:283|97:251,1,140,6|2,1:0|1:0,0:0:0:0:
112,75,81683,1,10,0:0:0:0:
172,191,81831,1,2,0:0:0:0:
26,45,81980,2,0,L|115:42,1,70,0|2,1:0|1:0,0:0:0:0:
305,36,82277,1,10,0:0:0:0:
193,384,82425,6,0,L|175:212,1,140,2|2,1:0|1:0,0:0:0:0:
421,4,82871,5,8,0:0:0:0:
454,65,82970,5,8,0:0:0:0:
444,134,83069,5,8,0:0:0:0:
391,179,83168,5,8,0:0:0:0:
164,31,83316,5,0,0:0:0:0:
298,288,83465,1,0,1:0:0:0:
352,78,83613,1,8,3:0:0:0:
105,241,83762,5,4,1:0:0:0:
256,192,83836,12,0,87920,0:0:0:0:
