osu file format v14

[General]
AudioFilename: audio.mp3
AudioLeadIn: 0
PreviewTime: 47821
Countdown: 0
SampleSet: Soft
StackLeniency: 0.5
Mode: 0
LetterboxInBreaks: 0
WidescreenStoryboard: 1

[Editor]
DistanceSpacing: 0.9
BeatDivisor: 4
GridSize: 8
TimelineZoom: 2.3

[Metadata]
Title:Haruka Kanata (TV Size)
TitleUnicode:ハルカカナタ (TV Size)
Artist:UNLIMITS
ArtistUnicode:UNLIMITS
Creator:Xandit
Version:Entry's Hard
Source:BLEACH
Tags:Astronic schoolboy Nevo yShadowXOP_ ChuuritsuTv Entry BLEACH anime ending 28 japanese
BeatmapID:1838985
BeatmapSetID:876133

[Difficulty]
HPDrainRate:5
CircleSize:3.8
OverallDifficulty:7
ApproachRate:8
SliderMultiplier:1.6
SliderTickRate:1

[Events]
//Background and Video events
0,0,"BG.png",0,0
//Break Periods
//Storyboard Layer 0 (Background)
//Storyboard Layer 1 (Fail)
//Storyboard Layer 2 (Pass)
//Storyboard Layer 3 (Foreground)
//Storyboard Sound Samples

[TimingPoints]
594,297.029702970297,4,2,1,55,1,0
594,-100,4,2,1,55,0,0
1633,-166.666666666667,4,2,1,55,0,0
2970,-100,4,2,1,55,0,0
4009,-166.666666666667,4,2,1,55,0,0
5346,-100,4,2,1,55,0,0
6534,-125,4,2,1,55,0,0
7425,-166.666666666667,4,2,1,55,0,0
7648,-166.666666666667,4,2,1,5,0,0
7722,-100,4,2,1,65,0,0
9504,-100,4,2,1,75,0,0
9950,-90.9090909090909,4,2,1,95,0,1
19455,-125,4,2,1,75,0,0
19900,-100,4,2,1,75,0,0
20643,-125,4,2,1,75,0,0
21089,-100,4,2,1,75,0,0
23019,-125,4,2,1,75,0,0
23465,-100,4,2,1,75,0,0
24207,-125,4,2,1,75,0,0
24653,-100,4,2,1,75,0,0
25395,-125,4,2,1,75,0,0
25841,-100,4,2,1,75,0,0
26584,-125,4,2,1,75,0,0
27029,-100,4,2,1,75,0,0
27772,-125,4,2,1,75,0,0
28217,-100,4,2,1,75,0,0
28960,-125,4,2,1,80,0,0
29405,-100,4,2,1,80,0,0
30148,-125,4,2,1,80,0,0
30593,-100,4,2,1,80,0,0
31336,-125,4,2,1,80,0,0
31782,-100,4,2,1,80,0,0
33712,-125,4,2,1,80,0,0
34158,-100,4,2,1,80,0,0
36089,-125,4,2,1,80,0,0
36534,-100,4,2,1,80,0,0
37277,-125,4,2,1,80,0,0
37722,-100,4,2,1,80,0,0
38613,-100,4,2,1,65,0,0
45742,-100,4,2,1,80,0,0
46039,-100,4,2,1,70,0,0
46485,-100,4,2,1,60,0,0
48118,-90.9090909090909,4,2,1,95,0,1
51608,-90.9090909090909,4,2,1,5,0,1
51683,-90.9090909090909,4,2,1,95,0,1
61113,-90.9090909090909,4,2,1,5,0,1
61188,-90.9090909090909,4,2,1,95,0,1
63564,-90.9090909090909,4,2,1,95,0,0
64752,-90.9090909090909,4,2,1,95,0,1
68242,-90.9090909090909,4,2,1,5,0,1
68316,-90.9090909090909,4,2,1,95,0,1
74257,-125,4,2,1,75,0,0
74851,-100,4,2,1,75,0,0
78415,-125,4,2,1,75,0,0
79603,-100,4,2,1,75,0,0
80197,-125,4,2,1,75,0,0
81237,-90.9090909090909,4,2,1,95,0,0
83762,-90.9090909090909,4,2,1,95,0,0
84059,-90.9090909090909,4,2,1,85,0,0
84356,-90.9090909090909,4,2,2,75,0,0
84653,-90.9090909090909,4,2,1,65,0,0
84950,-90.9090909090909,4,2,2,55,0,0
85247,-90.9090909090909,4,2,1,50,0,0
85544,-90.9090909090909,4,2,2,45,0,0
85841,-90.9090909090909,4,2,1,40,0,0
86138,-90.9090909090909,4,2,2,35,0,0
86435,-90.9090909090909,4,2,1,30,0,0
86732,-90.9090909090909,4,2,2,25,0,0
87029,-90.9090909090909,4,2,1,20,0,0
87326,-90.9090909090909,4,2,2,15,0,0
87623,-90.9090909090909,4,2,1,10,0,0
87920,-90.9090909090909,4,2,2,5,0,0

[Colours]
Combo1 : 80,124,91
Combo2 : 120,120,120
Combo3 : 201,151,1
Combo4 : 168,0,0

[HitObjects]
313,147,296,5,2,0:0:0:0:
313,147,594,6,0,P|277:117|252:67,1,80,2|2,1:0|1:0,0:0:0:0:
235,12,891,1,2,0:0:0:0:
235,12,1039,2,0,P|157:24|79:75,1,160,2|2,0:0|0:0,0:0:0:0:
142,125,1485,1,2,0:0:0:0:
142,125,1633,2,0,B|146:162|172:188|172:188|159:207|159:207|203:260|154:312|154:312|79:297|78:229,1,335.999989746094,2|0,0:0|0:0,0:0:0:0:
206,371,2970,6,0,P|247:357|290:362,1,80,2|2,0:0|0:0,0:0:0:0:
362,369,3267,1,2,0:0:0:0:
362,369,3415,2,0,P|462:327|468:258,1,160,2|2,0:0|0:0,0:0:0:0:
448,209,3861,1,2,0:0:0:0:
448,209,4009,2,0,B|407:157|426:85|497:51|497:51|434:24|416:100|346:75,1,335.999989746094,2|2,0:0|0:0,0:0:0:0:
201,136,5346,6,0,L|221:239,1,80,2|2,1:0|1:0,0:0:0:0:
232,293,5643,1,2,0:0:0:0:
232,293,5792,2,0,P|175:349|93:378,1,160,2|2,0:0|0:0,0:0:0:0:
32,336,6237,2,0,P|25:292|35:246,1,80,2|2,0:0|0:0,0:0:0:0:
55,182,6534,2,0,P|75:113|66:37,2,128,2|2|2,0:0|0:0|0:0,0:0:0:0:
71,57,7425,2,0,P|106:59|147:72,1,71.9999978027344,2|0,0:0|0:0,0:0:0:0:
178,84,7722,5,2,1:0:0:0:
239,32,7871,1,2,1:0:0:0:
315,8,8019,1,2,0:0:0:0:
319,12,8168,2,0,B|390:-5|415:56|485:33,1,160,2|2,0:0|0:0,0:0:0:0:
484,115,8613,2,0,P|462:158|465:210,1,80,2|2,0:0|0:0,0:0:0:0:
460,269,8910,2,0,P|457:311|423:362,1,80,4|2,0:0|0:0,0:0:0:0:
361,344,9207,2,0,P|343:308|342:268,1,80,6|2,0:0|0:0,0:0:0:0:
218,311,9504,5,10,0:0:0:0:
218,311,9653,1,10,0:0:0:0:
260,232,9950,6,0,B|179:198|161:262|79:230,1,176.000005371094,6|2,1:0|1:0,0:0:0:0:
34,295,10395,2,0,P|46:333|85:373,1,88.000002685547,10|2,0:0|0:0,0:0:0:0:
152,331,10693,1,0,1:0:0:0:
152,331,10841,1,2,1:0:0:0:
178,252,10990,1,10,0:0:0:0:
178,252,11138,6,0,B|158:184|158:184|165:70,1,176.000005371094,2|2,1:0|1:0,0:0:0:0:
224,21,11584,2,0,P|269:46|319:48,1,88.000002685547,10|2,0:0|0:0,0:0:0:0:
374,93,11881,2,0,P|387:49|418:13,2,88.000002685547,0|0|8,1:0|1:0|0:0,0:0:0:0:
417,163,12326,6,0,P|465:202|400:280,1,176.000005371094,2|2,1:0|1:0,0:0:0:0:
332,252,12772,2,0,P|330:297|306:357,1,88.000002685547,10|2,0:0|0:0,0:0:0:0:
242,374,13069,1,0,1:0:0:0:
242,374,13217,1,2,1:0:0:0:
200,302,13366,1,10,0:0:0:0:
200,302,13514,6,0,P|210:230|196:122,1,176.000005371094,2|2,1:0|1:0,0:0:0:0:
114,105,13960,2,0,P|109:58|115:10,1,88.000002685547,10|2,0:0|0:0,0:0:0:0:
197,38,14257,2,0,B|235:51|247:28|299:47,2,88.000002685547,0|0|8,1:0|1:0|0:0,0:0:0:0:
113,17,14702,6,0,P|57:41|37:155,1,176.000005371094,6|2,1:0|1:0,0:0:0:0:
107,205,15148,2,0,P|158:197|213:211,1,88.000002685547,10|2,0:0|0:0,0:0:0:0:
250,263,15445,1,0,1:0:0:0:
254,267,15594,1,2,1:0:0:0:
266,348,15742,1,10,0:0:0:0:
270,352,15891,6,0,P|363:361|473:353,1,176.000005371094,2|2,1:0|1:0,0:0:0:0:
423,277,16336,2,0,P|432:232|477:193,1,88.000002685547,10|2,0:0|0:0,0:0:0:0:
475,120,16633,2,0,L|465:15,2,88.000002685547,0|0|8,1:0|1:0|0:0,0:0:0:0:
396,147,17079,6,0,B|336:152|336:152|294:174|294:174|226:177,1,176.000005371094,6|2,1:0|1:0,0:0:0:0:
172,239,17524,2,0,P|172:288|201:349,1,88.000002685547,10|2,0:0|0:0,0:0:0:0:
253,370,17821,1,0,1:0:0:0:
257,374,17970,1,2,1:0:0:0:
320,321,18118,1,10,0:0:0:0:
320,321,18267,6,0,P|316:242|259:133,1,176.000005371094,6|2,1:0|1:0,0:0:0:0:
203,117,18712,2,0,P|179:156|171:209,1,88.000002685547,10|2,0:0|0:0,0:0:0:0:
124,265,19009,2,0,P|79:271|30:258,2,88.000002685547,2|2|10,1:0|1:0|0:0,0:0:0:0:
180,325,19455,6,0,P|245:346|326:348,1,128,6|0,1:0|0:0,0:0:0:0:
335,357,19900,1,8,0:0:0:0:
399,247,20197,2,0,P|446:255|500:246,2,80,2|2|10,0:0|0:0|0:0,0:0:0:0:
343,187,20643,6,0,P|278:166|197:164,1,128,2|0,0:0|0:0,0:0:0:0:
187,154,21089,1,8,0:0:0:0:
80,212,21386,2,0,P|73:257|41:302,2,80,2|2|10,0:0|0:0|0:0,0:0:0:0:
30,149,21831,6,0,P|23:107|37:48,1,80,2|0,0:0|0:0,0:0:0:0:
77,6,22128,2,0,L|176:9,1,80,2|8,0:0|0:0,0:0:0:0:
195,78,22425,2,0,P|237:96|307:93,1,80,2|0,0:0|0:0,0:0:0:0:
341,62,22722,2,0,P|388:53|444:62,1,80,2|8,0:0|0:0,0:0:0:0:
492,89,23019,6,0,P|461:148|445:222,1,128,2|0,0:0|0:0,0:0:0:0:
450,239,23465,1,10,0:0:0:0:
375,305,23762,2,0,P|370:347|354:384,2,80,2|2|10,1:0|1:0|0:0,0:0:0:0:
370,225,24207,6,0,P|335:188|248:194,1,128,6|0,1:0|0:0,0:0:0:0:
234,203,24653,1,8,0:0:0:0:
122,156,24950,2,0,P|75:158|21:143,2,80,2|2|10,0:0|0:0|0:0,0:0:0:0:
139,78,25395,6,0,P|197:58|270:56,1,128,2|0,0:0|0:0,0:0:0:0:
294,50,25841,1,8,0:0:0:0:
401,12,26138,2,0,P|446:12|492:2,2,80,2|2|10,0:0|0:0|0:0,0:0:0:0:
367,84,26584,6,0,P|399:136|418:227,1,128,2|2,0:0|0:0,0:0:0:0:
430,278,27029,1,8,0:0:0:0:
434,282,27178,2,0,P|422:327|319:360,1,160,2|2,0:0|0:0,0:0:0:0:
246,338,27623,1,8,0:0:0:0:
246,338,27772,6,0,B|179:322|176:375|99:342,1,128,2|0,0:0|0:0,0:0:0:0:
89,354,28217,1,8,0:0:0:0:
120,272,28514,2,0,P|117:231|94:180,2,80,2|2|10,1:0|1:0|0:0,0:0:0:0:
192,307,28960,6,0,P|253:313|330:264,1,128,6|0,1:0|0:0,0:0:0:0:
338,209,29405,1,8,0:0:0:0:
338,209,29554,1,0,0:0:0:0:
397,261,29702,2,0,L|391:364,1,80,2|2,0:0|0:0,0:0:0:0:
469,363,29999,1,10,0:0:0:0:
473,367,30148,6,0,P|482:297|474:217,1,128,2|0,0:0|0:0,0:0:0:0:
419,186,30593,1,8,0:0:0:0:
419,186,30742,1,0,0:0:0:0:
413,105,30891,2,0,P|457:111|510:110,2,80,2|2|10,0:0|0:0|0:0,0:0:0:0:
369,38,31336,6,0,B|317:23|293:59|240:35,1,128,2|2,0:0|0:0,0:0:0:0:
170,2,31782,1,8,0:0:0:0:
170,2,31930,2,0,P|165:44|185:95,1,80,2|0,0:0|0:0,0:0:0:0:
234,133,32227,2,0,P|239:175|219:226,1,80,2|8,0:0|0:0,0:0:0:0:
197,284,32524,1,2,0:0:0:0:
252,342,32673,6,0,L|304:264,1,80,0|0,0:0|0:0,0:0:0:0:
366,315,32970,2,0,L|420:235,1,80,8|0,0:0|0:0,0:0:0:0:
338,215,33267,2,0,L|392:135,2,80,0|0|10,1:0|1:0|0:0,0:0:0:0:
290,151,33712,6,0,P|225:158|155:198,1,128,6|0,1:0|0:0,0:0:0:0:
179,265,34158,1,10,0:0:0:0:
183,269,34306,1,0,0:0:0:0:
158,345,34455,2,0,P|108:351|58:375,1,80,2|0,0:0|0:0,0:0:0:0:
23,304,34752,2,0,P|26:260|43:220,1,80,10|0,0:0|0:0,0:0:0:0:
95,169,35049,6,0,L|71:90,1,80,2|0,0:0|0:0,0:0:0:0:
116,25,35346,2,0,L|195:1,1,80,10|0,0:0|0:0,0:0:0:0:
216,78,35643,2,0,L|295:54,2,80,2|0|10,1:0|1:0|0:0,0:0:0:0:
190,154,36089,6,0,P|182:215|199:306,1,128,2|0,1:0|1:0,0:0:0:0:
219,354,36534,1,10,0:0:0:0:
375,320,36831,2,0,P|423:320|484:328,2,80,2|2|8,1:0|1:0|0:0,0:0:0:0:
321,260,37277,6,0,P|260:262|186:282,1,128,2|2,1:0|1:0,0:0:0:0:
149,343,37722,1,10,0:0:0:0:
149,343,37871,1,2,1:0:0:0:
69,341,38019,2,0,P|54:299|45:244,2,80,10|10|2,0:0|0:0|1:0,0:0:0:0:
120,189,38613,5,6,1:0:0:0:
120,189,38762,2,0,L|103:93,1,80,8|0,0:0|1:0,0:0:0:0:
168,59,39059,1,0,1:0:0:0:
168,59,39207,2,0,P|253:67|332:44,1,160,8|2,0:0|1:0,0:0:0:0:
396,13,39653,1,8,0:0:0:0:
450,71,39801,2,0,L|432:167,2,80,2|0|10,1:0|1:0|0:0,0:0:0:0:
324,170,40395,2,0,L|306:266,2,80,2|0|10,1:0|1:0|0:0,0:0:0:0:
244,309,40990,5,0,1:0:0:0:
244,309,41138,2,0,P|203:306|160:321,1,80,8|0,0:0|1:0,0:0:0:0:
101,365,41435,1,0,1:0:0:0:
101,365,41584,2,0,P|125:288|136:193,1,160,8|0,0:0|1:0,0:0:0:0:
67,167,42029,1,8,0:0:0:0:
39,91,42178,2,0,P|88:91|137:121,2,80,0|0|10,1:0|1:0|0:0,0:0:0:0:
189,145,42772,2,0,P|238:145|287:112,2,80,2|0|10,1:0|1:0|0:0,0:0:0:0:
189,65,43217,1,0,0:0:0:0:
249,11,43366,5,6,1:0:0:0:
249,11,43514,2,0,P|285:25|325:23,1,80,8|0,0:0|1:0,0:0:0:0:
405,19,43811,1,0,1:0:0:0:
409,23,43960,2,0,P|455:39|460:146,1,160,8|2,0:0|1:0,0:0:0:0:
407,191,44405,1,8,0:0:0:0:
395,270,44554,2,0,P|395:314|408:379,2,80,2|0|10,1:0|1:0|0:0,0:0:0:0:
278,159,45148,2,0,P|278:198|272:238,2,80,2|0|14,1:0|1:0|0:0,0:0:0:0:
224,309,45742,5,14,0:0:0:0:
90,221,46039,2,0,L|176:277,1,80,0|10,1:0|3:0,0:0:0:0:
221,117,46485,2,0,L|158:166,1,80,0|10,1:0|3:0,0:0:0:0:
334,3,47079,6,0,L|422:3,2,80,2|2|2,0:0|0:0|0:0,0:0:0:0:
334,3,48118,6,0,P|319:78|321:212,1,176.000005371094,6|8,1:0|0:0,0:0:0:0:
264,334,48712,1,2,1:0:0:0:
185,359,48861,1,2,1:0:0:0:
119,308,49009,2,0,P|74:313|16:291,1,88.000002685547,10|2,0:0|0:0,0:0:0:0:
22,219,49306,6,0,P|72:148|111:49,1,176.000005371094,6|8,1:0|0:0,0:0:0:0:
269,91,49900,1,2,1:0:0:0:
228,18,50049,1,0,1:0:0:0:
186,89,50197,2,0,P|175:136|188:206,1,88.000002685547,10|0,0:0|0:0,0:0:0:0:
229,241,50494,6,0,P|279:240|348:260,1,88.000002685547,6|2,1:0|0:0,0:0:0:0:
383,296,50792,2,0,P|433:297|502:277,1,88.000002685547,14|2,0:0|0:0,0:0:0:0:
500,212,51089,2,0,P|490:168|497:100,1,88.000002685547,6|0,1:0|1:0,0:0:0:0:
410,145,51386,2,0,P|340:137|270:108,1,132.00000402832,14|0,0:0|0:0,0:0:0:0:
242,126,51683,6,0,P|190:148|123:46,1,176.000005371094,2|8,1:0|0:0,0:0:0:0:
45,220,52277,1,2,1:0:0:0:
78,295,52425,1,2,1:0:0:0:
153,330,52574,2,0,P|203:327|270:352,1,88.000002685547,10|2,0:0|0:0,0:0:0:0:
298,277,52871,6,0,P|359:286|448:364,1,176.000005371094,2|8,1:0|0:0,0:0:0:0:
399,160,53465,1,2,1:0:0:0:
427,237,53613,1,0,1:0:0:0:
494,190,53762,2,0,P|487:141|501:74,1,88.000002685547,10|0,0:0|0:0,0:0:0:0:
450,32,54059,6,0,B|379:-3|344:63|275:20,1,176.000005371094,2|8,1:0|0:0,0:0:0:0:
234,183,54653,1,2,1:0:0:0:
202,106,54801,1,2,1:0:0:0:
154,173,54950,2,0,P|128:209|79:251,1,88.000002685547,10|0,0:0|0:0,0:0:0:0:
30,189,55247,6,0,P|20:148|28:80,1,88.000002685547,2|0,1:0|0:0,0:0:0:0:
39,21,55544,2,0,L|145:26,1,88.000002685547,10|0,0:0|0:0,0:0:0:0:
174,93,55841,1,2,1:0:0:0:
234,36,55990,1,2,1:0:0:0:
316,32,56138,2,0,P|368:37|423:62,1,88.000002685547,10|2,0:0|0:0,0:0:0:0:
429,127,56435,5,0,1:0:0:0:
493,179,56584,1,0,1:0:0:0:
482,260,56732,2,0,P|437:251|376:258,1,88.000002685547,12|0,0:0|0:0,0:0:0:0:
320,290,57029,1,2,1:0:0:0:
295,369,57178,1,0,1:0:0:0:
216,343,57326,2,0,P|204:297|210:228,1,88.000002685547,10|0,0:0|1:0,0:0:0:0:
213,174,57623,6,0,P|230:124|120:82,1,176.000005371094,6|8,1:0|0:0,0:0:0:0:
304,91,58217,1,2,1:0:0:0:
329,12,58366,1,0,1:0:0:0:
408,38,58514,2,0,P|420:84|414:153,1,88.000002685547,10|0,0:0|0:0,0:0:0:0:
411,207,58811,6,0,P|394:257|504:299,1,176.000005371094,6|8,1:0|0:0,0:0:0:0:
331,377,59405,1,2,1:0:0:0:
248,370,59554,1,0,1:0:0:0:
199,303,59702,2,0,P|157:330|101:340,1,88.000002685547,10|0,0:0|0:0,0:0:0:0:
38,349,59999,6,0,P|29:306|26:242,1,88.000002685547,6|0,1:0|0:0,0:0:0:0:
93,214,60296,2,0,P|117:173|123:116,1,88.000002685547,14|0,0:0|0:0,0:0:0:0:
152,55,60594,2,0,P|205:58|264:87,1,88.000002685547,6|0,1:0|1:0,0:0:0:0:
297,126,60891,2,0,P|351:147|456:134,1,132.00000402832,14|0,0:0|0:0,0:0:0:0:
462,162,61188,6,0,P|477:232|370:254,1,176.000005371094,2|8,1:0|0:0,0:0:0:0:
230,293,61782,1,2,1:0:0:0:
230,293,61930,2,0,L|245:387,1,88.000002685547,0|10,1:0|0:0,0:0:0:0:
304,225,62376,6,0,P|286:140|285:46,1,176.000005371094,2|10,1:0|0:0,0:0:0:0:
125,6,62970,1,2,1:0:0:0:
125,6,63118,2,0,P|83:19|23:68,1,88.000002685547,2|10,1:0|0:0,0:0:0:0:
19,121,63415,1,0,0:0:0:0:
79,182,63564,5,10,0:0:0:0:
83,186,63663,5,8,0:0:0:0:
87,190,63762,6,0,P|101:229|107:275,1,58.6666684570313,8|8,0:0|0:0,0:0:0:0:
127,328,64009,1,8,0:0:0:0:
127,328,64158,2,0,P|168:343|224:346,1,88.000002685547,10|8,0:0|0:0,0:0:0:0:
277,295,64455,2,0,P|333:303|381:331,1,88.000002685547,10|8,0:0|0:0,0:0:0:0:
430,362,64752,6,0,P|458:280|467:166,1,176.000005371094,6|8,1:0|0:0,0:0:0:0:
377,52,65346,1,2,1:0:0:0:
459,55,65494,1,2,1:0:0:0:
418,127,65643,2,0,P|371:135|312:169,1,88.000002685547,10|2,0:0|0:0,0:0:0:0:
263,107,65940,6,0,P|183:72|76:56,1,176.000005371094,6|8,1:0|0:0,0:0:0:0:
130,202,66534,1,2,1:0:0:0:
49,190,66683,1,0,1:0:0:0:
23,269,66831,2,0,P|76:287|129:284,1,88.000002685547,10|0,0:0|0:0,0:0:0:0:
186,265,67128,6,0,L|176:376,1,88.000002685547,6|2,1:0|0:0,0:0:0:0:
257,376,67425,2,0,P|298:351|347:342,1,88.000002685547,14|2,0:0|0:0,0:0:0:0:
411,305,67722,2,0,P|407:257|381:197,1,88.000002685547,6|0,1:0|1:0,0:0:0:0:
333,162,68019,2,0,P|270:151|210:120,1,132.00000402832,14|0,0:0|0:0,0:0:0:0:
204,78,68316,6,0,P|172:29|65:67,1,176.000005371094,2|8,1:0|0:0,0:0:0:0:
132,206,68910,1,2,1:0:0:0:
125,123,69059,1,2,1:0:0:0:
57,170,69207,2,0,P|34:208|33:279,1,88.000002685547,10|2,0:0|0:0,0:0:0:0:
95,298,69504,6,0,P|183:311|286:340,1,176.000005371094,2|8,1:0|0:0,0:0:0:0:
350,190,70098,1,2,1:0:0:0:
344,272,70247,1,0,1:0:0:0:
269,235,70395,2,0,P|227:215|156:211,1,88.000002685547,10|0,0:0|0:0,0:0:0:0:
140,138,70693,6,0,P|218:82|278:11,1,176.000005371094,2|8,1:0|0:0,0:0:0:0:
433,47,71287,1,2,1:0:0:0:
350,47,71435,1,2,1:0:0:0:
389,119,71584,2,0,P|435:135|480:174,1,88.000002685547,10|0,0:0|0:0,0:0:0:0:
481,239,71881,6,0,B|395:217|397:286|294:252,1,176.000005371094,2|10,1:0|0:0,0:0:0:0:
194,375,72475,1,2,1:0:0:0:
185,292,72623,1,2,1:0:0:0:
165,211,72772,2,0,P|150:169|107:125,1,88.000002685547,10|2,0:0|0:0,0:0:0:0:
83,209,73069,5,0,1:0:0:0:
238,153,73366,1,8,1:2:0:0:
393,209,73663,2,0,P|422:244|443:297,2,88.000002685547,2|8|10,1:1|3:0|3:1,0:0:0:0:
318,244,74108,1,8,3:0:0:0:
318,244,74257,6,0,P|249:251|168:242,1,128,6|0,1:1|1:0,0:0:0:0:
245,376,74851,1,14,0:0:0:0:
89,336,75148,2,0,P|68:305|25:270,1,80,2|8,0:0|0:0,0:0:0:0:
30,196,75445,2,0,P|27:152|40:101,2,80,6|8|8,1:0|0:0|1:0,0:0:0:0:
126,41,76039,1,14,0:0:0:0:
243,118,76336,1,2,0:0:0:0:
389,84,76633,6,0,P|439:93|491:125,1,80,6|0,1:0|0:0,0:0:0:0:
491,181,76930,2,0,P|447:190|414:210,1,80,2|0,1:0|0:0,0:0:0:0:
380,279,77227,2,0,P|339:305|284:300,1,80,14|0,0:0|0:0,0:0:0:0:
230,288,77524,2,0,P|218:332|212:388,1,80,2|8,0:0|0:0,0:0:0:0:
140,331,77821,2,0,P|119:295|113:248,2,80,6|8|8,1:0|0:0|1:0,0:0:0:0:
156,171,78415,2,0,P|163:102|157:35,1,128,10|2,0:0|0:0,0:0:0:0:
240,142,79009,6,0,P|284:176|339:246,1,128,6|2,1:1|1:0,0:0:0:0:
477,169,79603,1,14,0:0:0:0:
441,13,79900,1,2,0:0:0:0:
445,17,80197,2,0,B|390:-6|366:42|301:15,1,128,6|8,1:0|0:0,0:0:0:0:
319,21,80792,1,2,0:0:0:0:
327,29,81237,6,0,P|337:122|323:228,1,176.000005371094,6|2,1:0|1:0,0:0:0:0:
253,235,81683,2,0,P|207:223|161:191,1,88.000002685547,10|2,0:0|0:0,0:0:0:0:
132,129,81980,1,0,1:0:0:0:
132,129,82128,1,2,1:0:0:0:
69,183,82277,1,10,0:0:0:0:
69,183,82425,6,0,B|65:260|65:260|101:359,1,176.000005371094,2|2,1:0|1:0,0:0:0:0:
181,342,82871,5,8,0:0:0:0:
185,346,82970,5,8,0:0:0:0:
189,350,83069,6,0,P|235:349|284:361,1,58.6666684570313,8|8,0:0|0:0,0:0:0:0:
320,312,83316,2,0,P|368:302|421:271,2,88.000002685547,0|0|8,0:0|1:0|3:0,0:0:0:0:
250,207,83762,5,4,1:0:0:0:
256,192,83836,12,0,87920,0:0:0:0:
