osu file format v14

[General]
AudioFilename: audio.mp3
AudioLeadIn: 0
PreviewTime: 47821
Countdown: 0
SampleSet: Soft
StackLeniency: 0.3
Mode: 0
LetterboxInBreaks: 0
WidescreenStoryboard: 1

[Editor]
Bookmarks: 9950,38613
DistanceSpacing: 0.9
BeatDivisor: 4
GridSize: 4
TimelineZoom: 2.3

[Metadata]
Title:Haruka Kanata (TV Size)
TitleUnicode:ハルカカナタ (TV Size)
Artist:UNLIMITS
ArtistUnicode:UNLIMITS
Creator:Xandit
Version:Astronic's Expert
Source:BLEACH
Tags:Astronic schoolboy Nevo yShadowXOP_ ChuuritsuTv Entry BLEACH anime ending 28 japanese
BeatmapID:1839781
BeatmapSetID:876133

[Difficulty]
HPDrainRate:6
CircleSize:4
OverallDifficulty:8.5
ApproachRate:9.2
SliderMultiplier:1.8
SliderTickRate:1

[Events]
//Background and Video events
0,0,"BG.png",0,0
//Break Periods
//Storyboard Layer 0 (Background)
//Storyboard Layer 1 (Fail)
//Storyboard Layer 2 (Pass)
//Storyboard Layer 3 (Foreground)
//Storyboard Sound Samples

[TimingPoints]
594,297.029702970297,4,2,1,55,1,0
595,-125,4,2,1,55,0,0
5346,-125,4,2,1,65,0,0
9504,-125,4,2,1,75,0,0
9950,-83.3333333333333,4,2,1,95,0,1
19455,-125,4,2,1,70,0,0
19900,-100,4,2,1,70,0,0
20643,-125,4,2,1,70,0,0
20940,-100,4,2,1,70,0,0
24207,-125,4,2,1,70,0,0
24653,-100,4,2,1,70,0,0
25395,-125,4,2,1,70,0,0
25841,-100,4,2,1,70,0,0
27772,-125,4,2,1,70,0,0
28217,-100,4,2,1,70,0,0
28960,-125,4,2,1,70,0,0
29405,-100,4,2,1,70,0,0
30148,-125,4,2,1,70,0,0
30593,-100,4,2,1,70,0,0
32524,-125,4,2,1,70,0,0
32970,-100,4,2,1,70,0,0
33712,-125,4,2,1,70,0,0
34158,-100,4,2,1,70,0,0
36089,-125,4,2,1,70,0,0
36534,-100,4,2,1,70,0,0
37277,-125,4,2,1,70,0,0
38613,-111.111111111111,4,2,1,65,0,0
45742,-111.111111111111,4,2,1,80,0,0
46188,-111.111111111111,4,2,1,70,0,0
46633,-111.111111111111,4,2,1,60,0,0
47524,-142.857142857143,4,2,1,60,0,0
48118,-71.4285714285714,4,2,1,95,0,1
63564,-90.9090909090909,4,2,1,95,0,0
64158,-142.857142857143,4,2,1,95,0,0
64752,-71.4285714285714,4,2,1,95,0,1
74257,-100,4,2,1,75,0,0
80197,-125,4,2,1,65,0,0
81237,-76.9230769230769,4,2,1,95,0,0
82871,-90.9090909090909,4,2,1,95,0,0
83762,-166.666666666667,4,2,1,95,0,0
84059,-196.078431372549,4,2,1,85,0,0
84356,-196.078431372549,4,2,2,75,0,0
84653,-196.078431372549,4,2,1,65,0,0
84950,-196.078431372549,4,2,2,55,0,0
85247,-196.078431372549,4,2,1,50,0,0
85544,-196.078431372549,4,2,2,45,0,0
85841,-196.078431372549,4,2,1,40,0,0
86138,-196.078431372549,4,2,2,35,0,0
86435,-196.078431372549,4,2,1,30,0,0
86732,-196.078431372549,4,2,2,25,0,0
87029,-196.078431372549,4,2,1,20,0,0
87326,-196.078431372549,4,2,2,15,0,0
87623,-196.078431372549,4,2,1,10,0,0
87920,-196.078431372549,4,2,2,5,0,0

[Colours]
Combo1 : 80,124,91
Combo2 : 120,120,120
Combo3 : 201,151,1
Combo4 : 168,0,0

[HitObjects]
128,32,594,5,2,1:0:0:0:
160,104,742,1,2,1:0:0:0:
80,96,891,2,0,P|88:144|112:168,1,72,2|2,0:0|0:0,0:0:0:0:
40,212,1188,2,0,P|79:240|113:240,1,72,0|2,0:0|0:0,0:0:0:0:
96,320,1485,2,0,P|144:312|168:288,1,72,2|2,0:0|0:0,0:0:0:0:
236,248,1782,6,0,L|244:320,1,72,0|0,0:0|0:0,0:0:0:0:
312,204,2079,2,0,L|320:276,1,72,0|0,0:0|0:0,0:0:0:0:
388,156,2376,2,0,L|396:228,1,72,0|0,0:0|0:0,0:0:0:0:
460,120,2673,2,0,L|452:48,1,72,0|0,0:0|0:0,0:0:0:0:
364,4,2970,5,2,0:0:0:0:
376,80,3118,1,2,0:0:0:0:
232,60,3267,2,0,L|312:52,1,72,2|2,0:0|0:0,0:0:0:0:
212,140,3564,2,0,L|292:132,1,72,0|2,0:0|0:0,0:0:0:0:
196,224,3861,2,0,L|276:216,1,72,2|2,0:0|0:0,0:0:0:0:
340,264,4158,6,0,P|304:296|268:304,1,72,2|0,0:0|0:0,0:0:0:0:
420,244,4455,2,0,P|417:292|397:323,1,72,2|0,0:0|0:0,0:0:0:0:
464,176,4752,2,0,P|496:212|504:248,1,72,2|0,0:0|0:0,0:0:0:0:
384,172,5049,2,0,P|392:136|432:100,1,72,2|0,0:0|0:0,0:0:0:0:
420,244,5346,5,2,1:0:0:0:
340,264,5494,1,2,1:0:0:0:
308,192,5643,2,0,L|224:200,1,72,2|2,0:0|0:0,0:0:0:0:
280,112,5940,2,0,L|196:120,1,72,0|2,0:0|0:0,0:0:0:0:
256,32,6237,2,0,L|172:40,1,72,2|2,0:0|0:0,0:0:0:0:
100,40,6534,6,0,P|108:76|148:112,1,72,2|0,0:0|0:0,0:0:0:0:
72,164,6831,2,0,P|103:183|156:180,1,72,2|0,0:0|0:0,0:0:0:0:
140,268,7128,2,0,P|175:259|210:219,1,72,2|0,0:0|0:0,0:0:0:0:
264,172,7425,2,0,P|288:204|288:256,1,72,2|0,0:0|0:0,0:0:0:0:
137,186,7722,5,2,1:0:0:0:
200,132,7871,1,2,1:0:0:0:
130,102,8019,2,0,P|152:68|196:56,1,72,2|2,0:0|0:0,0:0:0:0:
60,132,8316,2,0,P|51:92|74:52,1,72,0|2,0:0|0:0,0:0:0:0:
64,212,8613,2,0,P|32:208|-4:180,1,72,2|2,0:0|0:0,0:0:0:0:
64,288,8910,6,0,P|84:324|120:344,1,72,4|2,0:0|0:0,0:0:0:0:
140,268,9207,1,6,0:0:0:0:
144,264,9504,1,10,0:0:0:0:
384,308,9653,1,10,0:0:0:0:
392,308,9950,6,0,B|416:284|416:284|408:196,1,107.999996704102,6|0,1:0|0:0,0:0:0:0:
336,80,10247,1,2,1:0:0:0:
336,252,10395,1,10,0:0:0:0:
404,128,10544,1,2,0:0:0:0:
228,254,10693,2,0,L|341:251,1,107.999996704102,0|2,1:0|1:0,0:0:0:0:
472,176,10990,1,10,0:0:0:0:
336,80,11138,2,0,L|224:84,1,107.999996704102,2|0,1:0|0:0,0:0:0:0:
144,144,11435,5,2,1:0:0:0:
172,336,11584,1,10,0:0:0:0:
228,254,11732,1,2,0:0:0:0:
64,328,11881,2,0,L|180:336,1,107.999996704102,0|0,1:0|1:0,0:0:0:0:
335,251,12178,1,8,0:0:0:0:
222,171,12326,2,0,P|206:219|226:275,1,107.999996704102,2|0,1:0|0:0,0:0:0:0:
408,308,12623,5,2,1:0:0:0:
476,168,12772,2,0,P|492:216|472:272,1,107.999996704102,10|2,0:0|0:0,0:0:0:0:
292,320,13069,1,0,1:0:0:0:
408,216,13217,1,2,1:0:0:0:
356,364,13366,1,10,0:0:0:0:
353,146,13514,2,0,L|239:155,1,107.999996704102,2|0,1:0|0:0,0:0:0:0:
128,170,13811,5,2,1:0:0:0:
164,340,13960,2,0,P|216:320|248:268,1,107.999996704102,10|2,0:0|0:0,0:0:0:0:
245,154,14257,1,0,1:0:0:0:
166,255,14405,1,0,1:0:0:0:
112,32,14554,1,8,0:0:0:0:
32,208,14702,2,0,P|89:200|132:166,1,107.999996704102,6|0,1:0|0:0,0:0:0:0:
160,96,14999,5,2,1:0:0:0:
166,255,15148,1,10,0:0:0:0:
296,132,15296,2,0,P|277:82|232:53,1,107.999996704102,2|0,0:0|1:0,0:0:0:0:
139,17,15594,1,2,1:0:0:0:
132,176,15742,1,10,0:0:0:0:
233,54,15891,2,0,P|192:20|132:20,1,107.999996704102,2|0,1:0|0:0,0:0:0:0:
132,176,16188,5,2,1:0:0:0:
308,16,16336,1,10,0:0:0:0:
368,156,16485,1,2,0:0:0:0:
233,54,16633,1,0,1:0:0:0:
264,232,16782,1,0,1:0:0:0:
432,84,16930,1,8,0:0:0:0:
468,264,17079,2,0,L|456:152,1,107.999996704102,6|0,1:0|0:0,0:0:0:0:
233,54,17376,5,2,1:0:0:0:
264,232,17524,1,10,0:0:0:0:
368,156,17673,1,2,0:0:0:0:
164,96,17821,2,0,L|56:104,1,107.999996704102,0|2,1:0|1:0,0:0:0:0:
120,256,18118,1,10,0:0:0:0:
192,168,18267,2,0,L|84:176,1,107.999996704102,6|0,1:0|0:0,0:0:0:0:
160,328,18564,5,2,1:0:0:0:
328,192,18712,1,10,0:0:0:0:
120,256,18861,1,2,0:0:0:0:
276,272,19009,2,0,L|383:274,1,107.999996704102,2|2,1:0|1:0,0:0:0:0:
420,184,19306,1,10,0:0:0:0:
244,352,19455,6,0,L|392:356,1,144,6|0,1:0|0:0,0:0:0:0:
488,228,19900,2,0,P|500:180|480:128,1,90,8|0,0:0|0:0,0:0:0:0:
388,100,20197,1,2,0:0:0:0:
420,184,20346,1,2,0:0:0:0:
448,48,20494,1,10,0:0:0:0:
307,86,20643,2,0,B|287:122|287:122|395:98,1,144,2|0,0:0|0:0,0:0:0:0:
288,8,21089,6,0,B|260:16|260:16|220:80,1,90,8|0,0:0|0:0,0:0:0:0:
244,200,21386,1,2,0:0:0:0:
288,124,21534,1,2,0:0:0:0:
176,236,21683,1,10,0:0:0:0:
328,288,21831,2,0,L|320:192,1,90,2|0,0:0|0:0,0:0:0:0:
184,140,22128,5,2,0:0:0:0:
196,316,22277,1,8,0:0:0:0:
244,200,22425,1,2,0:0:0:0:
87,240,22574,2,0,L|179:236,1,90,0|2,0:0|0:0,0:0:0:0:
288,124,22871,1,8,0:0:0:0:
176,152,23019,1,2,0:0:0:0:
332,192,23168,6,0,P|356:172|368:104,1,90,0|0,0:0|0:0,0:0:0:0:
216,76,23465,1,10,0:0:0:0:
244,200,23613,1,0,0:0:0:0:
328,56,23762,1,2,1:0:0:0:
176,152,23910,1,2,1:0:0:0:
332,192,24059,1,10,0:0:0:0:
348,320,24207,2,0,P|284:340|224:292,1,144,6|0,1:0|0:0,0:0:0:0:
68,344,24653,6,0,P|108:352|160:324,1,90,8|0,0:0|0:0,0:0:0:0:
36,216,24950,1,2,0:0:0:0:
100,272,25098,1,2,0:0:0:0:
156,136,25247,1,8,0:0:0:0:
151,332,25395,2,0,B|177:323|177:323|188:188,1,144,2|0,0:0|0:0,0:0:0:0:
248,32,25841,6,0,L|240:128,1,90,8|0,0:0|0:0,0:0:0:0:
186,206,26138,1,2,0:0:0:0:
168,64,26287,1,2,0:0:0:0:
320,136,26435,1,10,0:0:0:0:
337,24,26584,2,0,L|247:31,1,90,2|0,0:0|0:0,0:0:0:0:
412,72,26881,5,2,0:0:0:0:
240,121,27029,1,8,0:0:0:0:
419,161,27178,2,0,L|411:68,1,90,2|0,0:0|0:0,0:0:0:0:
320,136,27475,1,2,0:0:0:0:
444,240,27623,1,8,0:0:0:0:
472,160,27772,2,0,P|404:168|360:244,1,144,2|0,0:0|0:0,0:0:0:0:
460,356,28217,5,8,0:0:0:0:
444,240,28366,1,0,0:0:0:0:
284,296,28514,1,2,1:0:0:0:
500,296,28663,1,2,1:0:0:0:
416,160,28811,1,10,0:0:0:0:
384,336,28960,2,0,B|372:360|372:360|348:236,1,144,6|0,1:0|0:0,0:0:0:0:
320,36,29405,5,8,0:0:0:0:
272,196,29554,1,0,0:0:0:0:
392,88,29702,1,2,0:0:0:0:
236,8,29851,1,2,0:0:0:0:
194,203,29999,1,10,0:0:0:0:
284,116,30148,2,0,P|220:136|196:212,1,144,2|0,0:0|0:0,0:0:0:0:
240,352,30593,6,0,P|256:304|236:256,1,90,8|0,0:0|0:0,0:0:0:0:
116,260,30891,1,2,0:0:0:0:
180,308,31039,1,2,0:0:0:0:
272,196,31188,1,10,0:0:0:0:
105,170,31336,2,0,L|117:270,1,90,2|0,0:0|0:0,0:0:0:0:
208,84,31633,6,0,L|196:184,1,90,2|8,0:0|0:0,0:0:0:0:
288,72,31930,2,0,P|268:32|220:4,1,90,2|0,0:0|0:0,0:0:0:0:
132,80,32227,1,2,0:0:0:0:
280,144,32376,1,8,0:0:0:0:
404,19,32524,2,0,P|330:21|286:77,1,144,2|0,0:0|0:0,0:0:0:0:
360,264,32970,5,8,0:0:0:0:
368,100,33118,1,0,0:0:0:0:
197,173,33267,1,0,1:0:0:0:
404,184,33415,1,0,1:0:0:0:
208,84,33564,1,10,0:0:0:0:
248,290,33712,2,0,B|264:314|264:314|292:190,1,144,6|0,1:0|0:0,0:0:0:0:
348,348,34158,6,0,L|364:256,1,90,10|0,0:0|0:0,0:0:0:0:
285,112,34455,2,0,L|290:212,1,90,2|0,0:0|0:0,0:0:0:0:
444,272,34752,1,10,0:0:0:0:
360,88,34900,1,0,0:0:0:0:
200,210,35049,6,0,L|297:202,1,90,2|0,0:0|0:0,0:0:0:0:
224,24,35346,2,0,L|132:32,1,90,10|0,0:0|0:0,0:0:0:0:
80,192,35643,1,2,1:0:0:0:
134,31,35792,1,0,1:0:0:0:
200,210,35940,1,10,0:0:0:0:
0,168,36089,2,0,P|8:236|72:276,1,144,2|0,1:0|1:0,0:0:0:0:
212,132,36534,5,10,0:0:0:0:
80,192,36683,1,2,0:0:0:0:
196,260,36831,1,2,1:0:0:0:
97,101,36980,1,2,1:0:0:0:
67,275,37128,1,10,0:0:0:0:
288,224,37277,2,0,P|292:152|236:92,1,144,2|2,0:0|1:0,0:0:0:0:
264,292,37722,5,10,0:0:0:0:
452,220,37871,1,2,1:0:0:0:
340,328,38019,1,10,0:0:0:0:
368,220,38168,1,10,0:0:0:0:
452,352,38316,6,0,B|472:356|472:356|464:260,1,108,2|0,1:0|0:0,0:0:0:0:
457,225,38613,5,6,1:0:0:0:
457,225,38762,2,0,P|449:177|461:129,1,80.9999975280763,8|0,0:0|1:0,0:0:0:0:
336,48,39059,1,0,1:0:0:0:
368,220,39207,2,0,P|360:168|340:140,1,80.9999975280763,8|0,0:0|0:0,0:0:0:0:
204,212,39504,1,2,1:0:0:0:
204,212,39653,2,0,L|292:204,1,80.9999975280763,8|2,0:0|1:0,0:0:0:0:
256,64,39950,5,0,1:0:0:0:
132,160,40098,2,0,P|116:204|128:248,1,80.9999975280763,10|0,0:0|0:0,0:0:0:0:
284,204,40395,1,2,1:0:0:0:
192,112,40544,1,0,1:0:0:0:
184,292,40693,2,0,L|276:284,1,80.9999975280763,10|0,0:0|0:0,0:0:0:0:
365,196,40990,5,0,1:0:0:0:
365,196,41138,2,0,L|281:204,1,80.9999975280763,8|0,0:0|1:0,0:0:0:0:
352,276,41435,1,0,1:0:0:0:
420,144,41584,2,0,P|388:120|336:116,1,80.9999975280763,8|0,0:0|0:0,0:0:0:0:
432,220,41881,1,0,1:0:0:0:
448,60,42029,1,8,0:0:0:0:
267,109,42178,5,0,1:0:0:0:
267,109,42326,2,0,L|347:113,1,80.9999975280763,0|10,1:0|0:0,0:0:0:0:
252,24,42623,1,0,0:0:0:0:
180,148,42772,1,2,1:0:0:0:
244,196,42920,1,0,1:0:0:0:
184,68,43069,2,0,P|136:72|96:104,1,80.9999975280763,10|0,0:0|0:0,0:0:0:0:
192,276,43366,5,6,1:0:0:0:
192,276,43514,2,0,P|232:292|276:284,1,80.9999975280763,8|0,0:0|1:0,0:0:0:0:
365,196,43811,1,0,1:0:0:0:
368,352,43960,2,0,P|348:312|352:268,1,80.9999975280763,8|0,0:0|0:0,0:0:0:0:
428,140,44257,2,0,P|448:180|444:224,1,80.9999975280763,2|8,1:0|0:0,0:0:0:0:
296,92,44554,5,2,1:0:0:0:
296,92,44702,2,0,P|284:140|296:184,1,80.9999975280763,0|10,1:0|0:0,0:0:0:0:
340,24,44999,1,0,0:0:0:0:
209,177,45148,2,0,L|301:169,1,80.9999975280763,2|0,1:0|1:0,0:0:0:0:
420,27,45445,2,0,L|332:23,1,80.9999975280763,14|0,0:0|0:0,0:0:0:0:
168,64,45742,5,14,0:0:0:0:
360,136,45891,1,0,0:0:0:0:
104,136,46188,5,10,3:0:0:0:
340,24,46336,1,0,0:0:0:0:
276,204,46633,5,10,3:0:0:0:
224,4,46782,1,0,0:0:0:0:
212,312,47079,5,2,0:0:0:0:
249,82,47227,1,2,0:0:0:0:
288,288,47524,6,0,P|312:336|364:348,1,94.499997116089,2|0,0:0|0:0,0:0:0:0:
348,226,47821,6,0,P|305:244|287:287,1,94.499997116089,2|0,0:0|0:0,0:0:0:0:
348,349,48118,6,0,P|408:288|332:228,1,188.999994232178,6|0,1:0|0:0,0:0:0:0:
348,288,48415,6,0,L|480:288,1,125.999996154785,8|0,0:0|0:0,0:0:0:0:
344,16,48712,2,0,P|284:32|248:88,1,125.999996154785,2|2,1:0|1:0,0:0:0:0:
344,216,49009,2,0,P|360:156|329:96,1,125.999996154785,10|2,0:0|0:0,0:0:0:0:
176,116,49306,6,0,P|219:159|286:163,1,125.999996154785,6|0,1:0|0:0,0:0:0:0:
88,88,49603,2,0,P|88:148|132:199,1,125.999996154785,8|0,0:0|0:0,0:0:0:0:
281,164,49900,1,2,1:0:0:0:
164,36,50049,1,0,1:0:0:0:
48,232,50197,2,0,P|90:274|157:279,1,125.999996154785,10|0,0:0|0:0,0:0:0:0:
176,116,50494,5,6,1:0:0:0:
248,288,50643,1,2,0:0:0:0:
126,196,50792,2,0,L|252:208,1,125.999996154785,14|2,0:0|0:0,0:0:0:0:
356,211,51089,2,0,P|339:151|292:112,1,125.999996154785,6|0,1:0|1:0,0:0:0:0:
472,16,51386,2,0,P|424:55|407:115,1,125.999996154785,14|0,0:0|0:0,0:0:0:0:
388,304,51683,6,0,P|435:264|452:204,1,125.999996154785,2|0,1:0|0:0,0:0:0:0:
304,268,51980,1,8,0:0:0:0:
472,344,52128,1,0,0:0:0:0:
356,211,52277,1,2,1:0:0:0:
324,356,52425,1,2,1:0:0:0:
452,204,52574,2,0,L|444:72,1,125.999996154785,10|2,0:0|0:0,0:0:0:0:
252,80,52871,6,0,P|316:104|372:84,1,125.999996154785,2|0,1:0|0:0,0:0:0:0:
208,8,53168,1,8,0:0:0:0:
253,208,53316,1,0,0:0:0:0:
312,24,53465,1,2,1:0:0:0:
152,132,53613,1,0,1:0:0:0:
254,324,53762,2,0,P|274:272|250:205,1,125.999996154785,10|0,0:0|0:0,0:0:0:0:
68,260,54059,6,0,L|200:268,1,125.999996154785,2|0,1:0|0:0,0:0:0:0:
378,200,54356,2,0,L|252:207,1,125.999996154785,8|0,0:0|0:0,0:0:0:0:
372,285,54653,1,2,1:0:0:0:
252,132,54801,1,2,1:0:0:0:
254,324,54950,1,10,0:0:0:0:
452,252,55098,1,0,0:0:0:0:
380,160,55247,6,0,L|372:296,1,125.999996154785,2|0,1:0|0:0,0:0:0:0:
452,140,55544,2,0,L|460:4,1,125.999996154785,10|0,0:0|0:0,0:0:0:0:
224,16,55841,1,2,1:0:0:0:
384,80,55990,1,2,1:0:0:0:
152,132,56138,1,10,0:0:0:0:
388,4,56287,1,2,0:0:0:0:
380,160,56435,5,0,1:0:0:0:
308,8,56584,1,0,1:0:0:0:
216,204,56732,1,12,0:0:0:0:
292,84,56881,1,0,0:0:0:0:
272,272,57029,2,0,P|212:292|152:264,1,125.999996154785,2|0,1:0|1:0,0:0:0:0:
161,102,57326,2,0,P|208:143|214:209,1,125.999996154785,10|0,0:0|1:0,0:0:0:0:
72,280,57623,6,0,P|84:218|138:180,1,125.999996154785,6|0,1:0|0:0,0:0:0:0:
341,194,57920,2,0,L|216:203,1,125.999996154785,8|0,0:0|0:0,0:0:0:0:
420,164,58217,2,0,P|384:124|308:112,1,125.999996154785,2|0,1:0|1:0,0:0:0:0:
242,257,58514,2,0,P|294:245|343:186,1,125.999996154785,10|0,0:0|0:0,0:0:0:0:
252,56,58811,6,0,P|235:107|262:178,1,125.999996154785,6|0,1:0|0:0,0:0:0:0:
448,36,59108,2,0,L|308:28,1,125.999996154785,8|0,0:0|0:0,0:0:0:0:
164,152,59405,1,2,1:0:0:0:
315,110,59554,1,0,1:0:0:0:
112,92,59702,1,10,0:0:0:0:
215,203,59851,1,0,0:0:0:0:
168,40,59999,6,0,P|112:16|48:52,1,125.999996154785,6|0,1:0|0:0,0:0:0:0:
152,277,60296,2,0,L|164:148,1,125.999996154785,14|0,0:0|0:0,0:0:0:0:
64,228,60594,1,6,1:0:0:0:
236,100,60742,1,0,1:0:0:0:
280,252,60891,1,14,0:0:0:0:
164,152,61039,1,0,0:0:0:0:
240,324,61188,6,0,P|304:332|356:288,1,125.999996154785,2|0,1:0|0:0,0:0:0:0:
315,110,61485,1,8,0:0:0:0:
280,252,61633,1,0,0:0:0:0:
440,121,61782,2,0,L|304:109,1,125.999996154785,2|0,1:0|1:0,0:0:0:0:
226,180,62079,1,10,0:0:0:0:
350,297,62227,1,0,0:0:0:0:
476,192,62376,5,2,1:0:0:0:
280,252,62524,1,2,0:0:0:0:
420,248,62673,1,10,0:0:0:0:
314,109,62821,1,2,0:0:0:0:
199,291,62970,2,0,P|191:230|227:180,1,125.999996154785,2|2,1:0|1:0,0:0:0:0:
156,48,63267,2,0,P|163:109|128:159,1,125.999996154785,10|0,0:0|0:0,0:0:0:0:
260,66,63564,5,10,0:0:0:0:
310,35,63663,5,8,0:0:0:0:
369,51,63762,5,8,0:0:0:0:
396,100,63861,6,0,L|392:216,1,99.0000030212403,8|8,0:0|0:0,0:0:0:0:
344,296,64158,6,0,P|320:344|268:356,1,94.499997116089,10|0,0:0|0:0,0:0:0:0:
284,234,64455,6,0,P|327:252|345:295,1,94.499997116089,10|0,0:0|0:0,0:0:0:0:
284,357,64752,6,0,P|224:296|300:236,1,188.999994232178,6|0,1:0|0:0,0:0:0:0:
284,296,65049,6,0,L|152:296,1,125.999996154785,8|0,0:0|0:0,0:0:0:0:
28,76,65346,2,0,P|81:44|146:59,1,125.999996154785,2|2,1:0|1:0,0:0:0:0:
169,217,65643,2,0,P|115:185|94:121,1,125.999996154785,10|2,0:0|0:0,0:0:0:0:
217,27,65940,6,0,P|217:87|172:138,1,125.999996154785,6|0,1:0|0:0,0:0:0:0:
284,296,66237,2,0,L|276:160,1,125.999996154785,8|0,0:0|0:0,0:0:0:0:
169,217,66534,1,2,1:0:0:0:
208,360,66683,1,0,1:0:0:0:
400,302,66831,2,0,P|340:278|276:302,1,125.999996154785,10|0,0:0|0:0,0:0:0:0:
352,124,67128,6,0,P|377:183|439:211,1,125.999996154785,6|2,1:0|0:0,0:0:0:0:
440,0,67425,2,0,L|432:128,1,125.999996154785,14|2,0:0|0:0,0:0:0:0:
476,280,67722,1,6,1:0:0:0:
504,160,67871,1,0,1:0:0:0:
308,204,68019,1,14,0:0:0:0:
429,210,68168,1,0,0:0:0:0:
240,136,68316,6,0,P|208:192|232:264,1,125.999996154785,2|0,1:0|0:0,0:0:0:0:
248,48,68613,2,0,P|185:64|151:132,1,125.999996154785,8|0,0:0|0:0,0:0:0:0:
308,204,68910,1,2,1:0:0:0:
332,52,69059,1,2,1:0:0:0:
240,136,69207,1,10,0:0:0:0:
128,16,69356,1,2,0:0:0:0:
28,126,69504,6,0,L|156:114,1,125.999996154785,2|0,1:0|0:0,0:0:0:0:
172,308,69801,2,0,P|140:248|136:176,1,125.999996154785,8|0,0:0|0:0,0:0:0:0:
340,308,70098,2,0,P|372:248|376:176,1,125.999996154785,2|0,1:0|1:0,0:0:0:0:
248,60,70395,1,10,0:0:0:0:
220,249,70544,1,0,0:0:0:0:
376,104,70693,6,0,P|316:128|292:192,1,125.999996154785,2|0,1:0|0:0,0:0:0:0:
456,120,70990,2,0,P|440:52|384:20,1,125.999996154785,8|0,0:0|0:0,0:0:0:0:
248,60,71287,1,2,1:0:0:0:
377,191,71435,1,2,1:0:0:0:
320,20,71584,1,10,0:0:0:0:
292,181,71732,1,0,0:0:0:0:
456,120,71881,6,0,L|324:108,1,125.999996154785,2|0,1:0|0:0,0:0:0:0:
153,114,72178,1,10,0:0:0:0:
243,251,72326,1,0,0:0:0:0:
68,108,72475,2,0,P|84:168|152:200,1,125.999996154785,2|2,1:0|1:0,0:0:0:0:
116,48,72772,1,10,0:0:0:0:
16,204,72920,1,2,0:0:0:0:
125,324,73069,6,0,L|136:199,1,125.999996154785,0|0,1:0|1:0,0:0:0:0:
243,251,73366,2,0,L|233:126,1,125.999996154785,8|0,1:2|0:0,0:0:0:0:
308,356,73663,1,2,1:1:0:0:
328,144,73811,1,8,3:0:0:0:
392,308,73960,1,10,3:1:0:0:
243,251,74108,1,8,3:0:0:0:
372,76,74257,6,0,P|408:120|408:164,1,90,6|0,1:1|0:0,0:0:0:0:
288,72,74554,1,0,1:0:0:0:
332,8,74702,1,0,0:0:0:0:
339,233,74851,2,0,L|327:137,1,90,14|0,0:0|0:0,0:0:0:0:
248,4,75148,1,2,0:0:0:0:
153,114,75296,1,8,0:0:0:0:
288,72,75445,5,6,1:0:0:0:
144,203,75594,1,8,0:0:0:0:
200,60,75742,2,0,P|224:108|208:160,1,90,8|0,1:0|0:0,0:0:0:0:
88,260,76039,2,0,P|64:212|72:168,1,90,14|0,0:0|0:0,0:0:0:0:
160,280,76336,2,0,P|208:252|224:200,1,90,2|0,0:0|0:0,0:0:0:0:
153,114,76633,6,0,L|144:212,1,90,6|0,1:0|0:0,0:0:0:0:
68,12,76930,2,0,L|77:110,1,90,2|0,1:0|0:0,0:0:0:0:
160,280,77227,2,0,P|208:252|224:200,1,90,14|0,0:0|0:0,0:0:0:0:
336,352,77524,2,0,P|288:324|272:272,1,90,2|8,0:0|0:0,0:0:0:0:
284,152,77821,5,6,1:0:0:0:
348,276,77970,2,0,P|432:244|444:156,1,180,8|0,0:0|0:0,0:0:0:0:
276,62,78415,2,0,L|284:162,1,90,10|0,0:0|0:0,0:0:0:0:
368,192,78712,2,0,L|360:96,1,90,2|0,0:0|0:0,0:0:0:0:
204,116,79009,5,6,1:1:0:0:
288,224,79158,1,2,0:0:0:0:
132,248,79306,2,0,L|136:152,1,90,2|2,1:0|0:0,0:0:0:0:
207,26,79603,2,0,L|203:118,1,90,14|0,0:0|0:0,0:0:0:0:
368,192,79900,2,0,P|352:148|304:124,1,90,2|8,0:0|0:0,0:0:0:0:
218,329,80197,6,0,L|222:205,1,108,6|0,1:0|0:0,0:0:0:0:
184,160,80494,2,0,L|180:276,1,108,8|0,0:0|0:0,0:0:0:0:
156,287,80792,2,0,P|128:227|180:267,1,180,2|0,0:0|0:0,0:0:0:0:
92,348,81237,2,0,P|56:316|40:232,1,116.999994644165,6|0,1:0|0:0,0:0:0:0:
60,100,81534,5,2,1:0:0:0:
149,254,81683,1,10,0:0:0:0:
44,176,81831,1,2,0:0:0:0:
280,152,81980,2,0,L|163:140,1,116.999994644165,0|2,1:0|1:0,0:0:0:0:
260,232,82277,1,10,0:0:0:0:
248,68,82425,2,0,L|372:80,1,116.999994644165,2|0,1:0|0:0,0:0:0:0:
368,228,82722,5,2,1:0:0:0:
236,335,82871,5,8,0:0:0:0:
176,337,82970,5,8,0:0:0:0:
124,298,83069,5,8,0:0:0:0:
108,240,83168,6,0,L|116:132,1,99.0000030212403,8|0,0:0|0:0,0:0:0:0:
280,152,83465,1,0,1:0:0:0:
204,260,83613,1,8,3:0:0:0:
224,24,83762,5,4,1:0:0:0:
256,192,83910,12,0,87920,0:0:0:0:
