osu file format v14

[General]
AudioFilename: audio.mp3
AudioLeadIn: 0
PreviewTime: 47821
Countdown: 0
SampleSet: Soft
StackLeniency: 0.3
Mode: 0
LetterboxInBreaks: 0
WidescreenStoryboard: 1

[Editor]
Bookmarks: 9950,36831,38613,54059
DistanceSpacing: 1.3
BeatDivisor: 4
GridSize: 4
TimelineZoom: 2.3

[Metadata]
Title:Haruka Kanata (TV Size)
TitleUnicode:ハルカカナタ (TV Size)
Artist:UNLIMITS
ArtistUnicode:UNLIMITS
Creator:Xandit
Version:Astrandit's Insane
Source:BLEACH
Tags:Astronic schoolboy Nevo yShadowXOP_ ChuuritsuTv Entry BLEACH anime ending 28 japanese
BeatmapID:1848301
BeatmapSetID:876133

[Difficulty]
HPDrainRate:6
CircleSize:3.5
OverallDifficulty:7.5
ApproachRate:9
SliderMultiplier:1.5
SliderTickRate:1

[Events]
//Background and Video events
0,0,"BG.png",0,0
//Break Periods
//Storyboard Layer 0 (Background)
//Storyboard Layer 1 (Fail)
//Storyboard Layer 2 (Pass)
//Storyboard Layer 3 (Foreground)
//Storyboard Sound Samples

[TimingPoints]
594,297.029702970297,4,2,1,55,1,0
595,-125,4,2,1,55,0,0
7722,-125,4,2,1,65,0,0
9504,-125,4,2,1,75,0,0
9950,-83.3333333333333,4,2,1,95,0,1
19455,-125,4,2,1,70,0,0
19900,-100,4,2,1,70,0,0
20643,-125,4,2,1,70,0,0
20940,-100,4,2,1,70,0,0
24207,-125,4,2,1,70,0,0
24653,-100,4,2,1,70,0,0
25395,-125,4,2,1,70,0,0
25841,-100,4,2,1,70,0,0
27772,-125,4,2,1,70,0,0
28217,-100,4,2,1,70,0,0
28960,-125,4,2,1,70,0,0
29405,-100,4,2,1,70,0,0
30148,-125,4,2,1,70,0,0
30593,-100,4,2,1,70,0,0
32524,-125,4,2,1,70,0,0
32970,-100,4,2,1,70,0,0
33712,-125,4,2,1,70,0,0
34158,-100,4,2,1,70,0,0
36089,-125,4,2,1,70,0,0
36534,-100,4,2,1,70,0,0
37277,-125,4,2,1,70,0,0
38613,-111.111111111111,4,2,1,65,0,0
45742,-111.111111111111,4,2,1,80,0,0
46188,-111.111111111111,4,2,1,70,0,0
46633,-111.111111111111,4,2,1,60,0,0
47524,-142.857142857143,4,2,1,65,0,0
48118,-71.4285714285714,4,2,1,95,0,1
63564,-90.9090909090909,4,2,1,95,0,0
64158,-142.857142857143,4,2,1,95,0,0
64752,-71.4285714285714,4,2,1,95,0,1
74257,-100,4,2,1,75,0,0
80197,-125,4,2,1,95,0,0
81237,-76.9230769230769,4,2,1,95,0,0
82871,-90.9090909090909,4,2,1,95,0,0
83762,-196.078431372549,4,2,1,95,0,0
84059,-196.078431372549,4,2,1,85,0,0
84356,-196.078431372549,4,2,2,75,0,0
84653,-196.078431372549,4,2,1,65,0,0
84950,-196.078431372549,4,2,2,55,0,0
85247,-196.078431372549,4,2,1,50,0,0
85544,-196.078431372549,4,2,2,45,0,0
85841,-196.078431372549,4,2,1,40,0,0
86138,-196.078431372549,4,2,2,35,0,0
86435,-196.078431372549,4,2,1,30,0,0
86732,-196.078431372549,4,2,2,25,0,0
87029,-196.078431372549,4,2,1,20,0,0
87326,-196.078431372549,4,2,2,15,0,0
87623,-196.078431372549,4,2,1,10,0,0
87920,-196.078431372549,4,2,2,5,0,0

[Colours]
Combo1 : 80,124,91
Combo2 : 120,120,120
Combo3 : 201,151,1
Combo4 : 168,0,0

[HitObjects]
432,272,594,5,2,1:0:0:0:
491,218,742,1,2,1:0:0:0:
416,186,891,2,0,L|350:188,1,60,2|2,0:0|0:0,0:0:0:0:
367,110,1188,2,0,L|301:112,1,60,0|2,0:0|0:0,0:0:0:0:
318,34,1485,2,0,L|252:36,1,60,2|2,0:0|0:0,0:0:0:0:
220,112,1782,6,0,P|227:146|258:177,1,60,0|0,0:0|0:0,0:0:0:0:
189,224,2079,2,0,P|217:242|261:242,1,60,0|0,0:0|0:0,0:0:0:0:
250,324,2376,2,0,P|284:316|315:285,1,60,0|0,0:0|0:0,0:0:0:0:
364,355,2673,2,0,P|382:325|382:281,1,60,0|0,0:0|0:0,0:0:0:0:
420,171,2970,5,2,0:0:0:0:
359,223,3118,1,2,0:0:0:0:
444,248,3267,2,0,P|460:271|466:300,1,60,2|2,0:0|0:0,0:0:0:0:
386,300,3564,2,0,P|379:328|363:353,1,60,0|2,0:0|0:0,0:0:0:0:
304,301,3861,2,0,P|279:317|249:322,1,60,2|2,0:0|0:0,0:0:0:0:
243,246,4158,6,0,L|172:248,1,60,2|0,0:0|0:0,0:0:0:0:
191,171,4455,2,0,L|120:173,1,60,2|0,0:0|0:0,0:0:0:0:
141,95,4752,2,0,L|70:97,1,60,2|0,0:0|0:0,0:0:0:0:
92,19,5049,2,0,L|22:21,1,60,2|0,0:0|0:0,0:0:0:0:
235,84,5346,6,0,L|233:13,1,60,2|2,1:0|1:0,0:0:0:0:
323,129,5643,2,0,L|325:58,1,60,2|2,0:0|0:0,0:0:0:0:
252,228,5940,6,0,L|250:157,1,60,0|2,0:0|0:0,0:0:0:0:
340,273,6237,2,0,L|342:202,1,60,2|2,0:0|0:0,0:0:0:0:
469,338,6534,6,0,P|439:320|401:320,1,60,2|0,0:0|0:0,0:0:0:0:
282,344,6831,2,0,P|312:362|350:362,1,60,2|0,0:0|0:0,0:0:0:0:
360,218,7128,6,0,P|342:248|342:286,1,60,2|0,0:0|0:0,0:0:0:0:
447,192,7425,2,0,P|427:157|366:126,1,90,2|0,0:0|0:0,0:0:0:0:
241,146,7722,6,0,L|312:144,1,60,2|2,1:0|1:0,0:0:0:0:
215,235,8019,2,0,L|155:236,1,60,2|2,0:0|0:0,0:0:0:0:
259,314,8316,2,0,L|330:312,1,60,0|2,0:0|0:0,0:0:0:0:
419,216,8613,2,0,L|359:217,1,60,2|2,0:0|0:0,0:0:0:0:
160,320,8910,5,4,0:0:0:0:
160,320,9207,1,6,0:0:0:0:
160,320,9504,1,10,0:0:0:0:
144,112,9653,1,10,0:0:0:0:
66,205,9950,6,0,L|162:205,1,89.9999972534181,6|0,1:0|0:0,0:0:0:0:
290,93,10247,1,2,1:0:0:0:
130,13,10395,1,10,0:0:0:0:
192,88,10544,1,2,0:0:0:0:
290,93,10693,2,0,L|306:189,1,89.9999972534181,0|2,1:0|1:0,0:0:0:0:
370,45,10990,1,10,0:0:0:0:
467,84,11138,2,0,L|482:173,1,89.9999972534181,2|0,1:0|0:0,0:0:0:0:
386,125,11435,5,2,1:0:0:0:
475,171,11584,1,10,0:0:0:0:
434,257,11732,2,0,P|386:273|338:257,2,89.9999972534181,2|0|0,0:0|1:0|1:0,0:0:0:0:
304,181,12178,1,8,0:0:0:0:
205,290,12326,6,0,P|160:287|121:267,1,89.9999972534181,2|0,1:0|0:0,0:0:0:0:
90,178,12623,1,2,1:0:0:0:
193,100,12772,2,0,L|184:195,1,89.9999972534181,10|2,0:0|0:0,0:0:0:0:
205,290,13069,1,0,1:0:0:0:
206,194,13217,1,2,1:0:0:0:
304,181,13366,1,10,0:0:0:0:
378,224,13514,6,0,P|391:181|375:125,1,89.9999972534181,2|0,1:0|0:0,0:0:0:0:
304,181,13811,1,2,1:0:0:0:
308,89,13960,1,10,0:0:0:0:
385,49,14108,1,2,0:0:0:0:
228,130,14257,6,0,L|219:34,1,89.9999972534181,0|0,1:0|1:0,0:0:0:0:
304,181,14554,1,8,0:0:0:0:
443,106,14702,6,0,P|467:144|466:189,1,89.9999972534181,6|0,1:0|0:0,0:0:0:0:
403,247,14999,1,2,1:0:0:0:
367,85,15148,1,10,0:0:0:0:
443,106,15296,1,2,0:0:0:0:
392,166,15445,1,0,1:0:0:0:
367,85,15594,1,2,1:0:0:0:
309,153,15742,1,10,0:0:0:0:
406,254,15891,2,0,L|390:158,1,89.9999972534181,2|0,1:0|0:0,0:0:0:0:
265,182,16188,5,2,1:0:0:0:
130,173,16336,1,10,0:0:0:0:
152,253,16485,2,0,L|248:269,1,89.9999972534181,2|0,0:0|1:0,0:0:0:0:
194,349,16782,1,0,1:0:0:0:
93,330,16930,1,8,0:0:0:0:
330,254,17079,2,0,L|234:270,1,89.9999972534181,6|0,1:0|0:0,0:0:0:0:
241,268,17376,5,2,1:0:0:0:
322,349,17524,1,10,0:0:0:0:
406,254,17673,2,0,L|390:158,1,89.9999972534181,2|0,0:0|1:0,0:0:0:0:
370,45,17970,1,2,1:0:0:0:
318,118,18118,1,10,0:0:0:0:
479,150,18267,2,0,L|383:166,1,89.9999972534181,6|0,1:0|0:0,0:0:0:0:
265,182,18564,5,2,1:0:0:0:
290,13,18712,1,10,0:0:0:0:
112,124,18861,2,0,L|209:125,1,89.9999972534181,2|2,0:0|1:0,0:0:0:0:
210,45,19158,1,2,1:0:0:0:
50,61,19306,1,10,0:0:0:0:
92,236,19455,6,0,P|118:181|106:112,1,120,6|0,1:0|0:0,0:0:0:0:
235,226,19900,2,0,P|190:204|134:214,1,75,8|0,0:0|0:0,0:0:0:0:
171,286,20197,1,2,0:0:0:0:
235,226,20346,1,2,0:0:0:0:
299,166,20494,1,10,0:0:0:0:
299,166,20643,6,0,P|341:197|421:174,1,120,2|0,0:0|0:0,0:0:0:0:
389,55,21089,2,0,P|367:89|366:126,1,75,8|0,0:0|0:0,0:0:0:0:
405,187,21386,1,2,0:0:0:0:
365,122,21534,1,2,0:0:0:0:
325,57,21683,1,10,0:0:0:0:
284,130,21831,6,0,B|225:135|225:135|199:117|199:117|140:122,2,150,2|2|2,0:0|0:0|0:0,0:0:0:0:
257,50,22722,1,2,0:0:0:0:
172,199,22870,2,0,P|206:214|255:212,1,75,8|2,0:0|0:0,0:0:0:0:
172,199,23168,2,0,L|184:354,1,150,0|10,0:0|0:0,0:0:0:0:
99,13,23762,1,2,1:0:0:0:
165,68,23910,1,2,1:0:0:0:
238,121,24059,1,10,0:0:0:0:
306,173,24207,6,0,P|358:213|423:198,1,120,6|0,1:0|0:0,0:0:0:0:
392,59,24653,2,0,L|376:139,1,75,8|0,0:0|0:0,0:0:0:0:
408,206,24950,1,2,0:0:0:0:
466,141,25098,1,2,0:0:0:0:
306,93,25247,1,8,0:0:0:0:
157,151,25395,2,0,P|179:208|244:224,1,120,2|0,0:0|0:0,0:0:0:0:
421,280,25841,6,0,L|405:184,1,75,8|0,0:0|0:0,0:0:0:0:
306,173,26138,1,2,0:0:0:0:
322,269,26287,1,2,0:0:0:0:
261,333,26435,1,10,0:0:0:0:
242,253,26584,2,0,L|162:237,1,75,2|0,0:0|0:0,0:0:0:0:
130,141,26881,5,2,0:0:0:0:
168,238,27029,1,8,0:0:0:0:
66,285,27178,2,0,L|82:205,1,75,2|0,0:0|0:0,0:0:0:0:
168,238,27475,1,2,0:0:0:0:
44,120,27623,1,8,0:0:0:0:
50,109,27772,2,0,P|89:67|167:61,1,120,2|0,0:0|0:0,0:0:0:0:
203,155,28217,6,0,L|123:139,1,75,8|0,0:0|0:0,0:0:0:0:
306,125,28514,1,2,1:0:0:0:
226,77,28663,1,2,1:0:0:0:
274,221,28811,1,10,0:0:0:0:
375,197,28960,6,0,L|495:208,1,120,6|0,1:0|0:0,0:0:0:0:
205,262,29405,2,0,P|252:299|279:303,1,75,8|0,0:0|0:0,0:0:0:0:
106,226,29702,2,0,P|50:248|33:269,1,75,2|2,0:0|0:0,0:0:0:0:
205,262,29999,1,10,0:0:0:0:
183,164,30148,6,0,P|188:106|157:49,1,120,2|0,0:0|0:0,0:0:0:0:
21,112,30593,2,0,P|60:126|103:120,1,75,8|0,0:0|0:0,0:0:0:0:
160,52,30891,1,2,0:0:0:0:
94,122,31039,1,2,0:0:0:0:
179,207,31188,1,10,0:0:0:0:
167,311,31336,2,0,L|256:298,1,75,2|0,0:0|0:0,0:0:0:0:
97,211,31633,6,0,L|89:300,1,75,2|8,0:0|0:0,0:0:0:0:
198,142,31930,2,0,L|206:231,1,75,2|0,0:0|0:0,0:0:0:0:
10,147,32227,2,0,L|2:236,1,75,2|8,0:0|0:0,0:0:0:0:
71,43,32524,2,0,P|132:34|195:84,1,120,2|0,0:0|0:0,0:0:0:0:
176,224,32970,5,8,0:0:0:0:
112,128,33118,1,0,0:0:0:0:
256,96,33267,1,0,1:0:0:0:
96,208,33415,1,0,1:0:0:0:
176,55,33564,1,10,0:0:0:0:
272,192,33712,2,0,L|288:320,1,120,6|0,1:0|0:0,0:0:0:0:
435,281,34158,6,0,P|394:260|336:262,1,75,10|0,0:0|0:0,0:0:0:0:
141,341,34455,2,0,P|182:362|240:360,1,75,2|0,0:0|0:0,0:0:0:0:
191,209,34752,2,0,L|200:282,1,75,10|0,0:0|0:0,0:0:0:0:
114,259,35049,6,0,L|104:185,1,75,2|0,0:0|0:0,0:0:0:0:
266,148,35346,2,0,L|275:221,1,75,10|0,0:0|0:0,0:0:0:0:
290,317,35643,1,2,1:0:0:0:
200,283,35792,1,0,1:0:0:0:
275,222,35940,1,10,0:0:0:0:
361,252,36089,6,0,P|420:252|469:286,1,120,2|0,1:0|1:0,0:0:0:0:
469,286,36534,2,0,L|461:202,1,75,10|2,0:0|0:0,0:0:0:0:
368,76,36831,2,0,L|374:150,1,75,2|2,0:0|0:0,0:0:0:0:
361,252,37128,1,10,0:0:0:0:
210,208,37277,6,0,B|189:194|189:194|226:163|282:185,1,120,2|2,0:0|1:0,0:0:0:0:
133,247,37722,2,0,P|114:222|111:178,1,60,10|2,0:0|1:0,0:0:0:0:
165,123,38019,1,10,0:0:0:0:
45,248,38168,1,10,0:0:0:0:
48,98,38316,1,2,1:0:0:0:
108,195,38465,1,0,1:0:0:0:
201,236,38613,5,6,1:0:0:0:
201,236,38762,2,0,P|203:278|219:310,1,67.4999979400635,8|0,0:0|1:0,0:0:0:0:
336,272,39059,1,0,1:0:0:0:
398,134,39207,1,8,0:0:0:0:
247,169,39356,2,0,L|327:185,1,67.4999979400635,0|2,0:0|1:0,0:0:0:0:
432,48,39653,1,8,0:0:0:0:
240,25,39801,5,2,1:0:0:0:
240,25,39950,2,0,P|217:55|222:108,1,67.4999979400635,0|10,1:0|0:0,0:0:0:0:
320,80,40247,1,0,0:0:0:0:
144,0,40395,2,0,L|64:16,1,67.4999979400635,2|0,1:0|1:0,0:0:0:0:
16,192,40693,2,0,L|82:178,1,67.4999979400635,10|0,0:0|0:0,0:0:0:0:
125,90,40990,5,0,1:0:0:0:
125,90,41138,2,0,L|45:106,1,67.4999979400635,8|0,0:0|1:0,0:0:0:0:
82,178,41435,1,0,1:0:0:0:
196,241,41584,2,0,L|180:161,1,67.4999979400635,8|0,0:0|0:0,0:0:0:0:
213,83,41881,1,0,1:0:0:0:
182,174,42029,1,8,0:0:0:0:
336,304,42178,5,0,1:0:0:0:
336,304,42326,2,0,L|352:224,1,67.4999979400635,0|10,1:0|0:0,0:0:0:0:
336,144,42623,1,0,0:0:0:0:
400,80,42772,2,0,P|425:121|425:160,1,67.4999979400635,2|0,1:0|1:0,0:0:0:0:
272,208,43069,2,0,P|247:167|247:128,1,67.4999979400635,10|0,0:0|0:0,0:0:0:0:
304,0,43366,5,6,1:0:0:0:
304,0,43514,2,0,L|320:80,1,67.4999979400635,8|0,0:0|1:0,0:0:0:0:
244,148,43811,1,0,1:0:0:0:
176,16,43960,2,0,L|160:96,1,67.4999979400635,8|0,0:0|0:0,0:0:0:0:
144,176,44257,1,2,1:0:0:0:
80,32,44405,1,8,0:0:0:0:
79,38,44554,6,0,L|63:118,1,67.4999979400635,2|0,1:0|1:0,0:0:0:0:
106,250,44851,1,10,0:0:0:0:
144,176,44999,1,0,0:0:0:0:
0,176,45148,2,0,L|14:254,1,67.4999979400635,2|0,1:0|1:0,0:0:0:0:
224,304,45445,2,0,L|239:238,1,67.4999979400635,14|0,0:0|0:0,0:0:0:0:
162,82,45742,5,14,0:0:0:0:
0,176,45891,1,0,0:0:0:0:
244,148,46188,5,10,3:0:0:0:
106,250,46336,1,0,0:0:0:0:
144,176,46633,5,10,3:0:0:0:
224,304,46782,1,0,0:0:0:0:
336,208,47079,5,2,0:0:0:0:
304,352,47227,1,2,0:0:0:0:
432,224,47524,6,0,P|432:176|416:144,1,78.7499975967408,2|0,0:0|0:0,0:0:0:0:
400,128,47821,6,0,P|385:91|387:52,1,78.7499975967408,2|0,0:0|0:0,0:0:0:0:
336,16,48118,6,0,P|288:32|224:16,1,104.999996795654,6|0,1:0|0:0,0:0:0:0:
128,96,48415,2,0,L|112:208,1,104.999996795654,8|0,0:0|0:0,0:0:0:0:
176,304,48712,1,2,1:0:0:0:
113,199,48861,1,2,1:0:0:0:
16,208,49009,2,0,P|32:256|92:293,1,104.999996795654,10|2,0:0|0:0,0:0:0:0:
256,240,49306,6,0,L|368:240,1,104.999996795654,6|0,1:0|0:0,0:0:0:0:
443,206,49603,1,8,0:0:0:0:
363,141,49752,1,0,0:0:0:0:
361,240,49900,2,0,P|397:284|464:298,1,104.999996795654,2|0,1:0|1:0,0:0:0:0:
304,352,50197,2,0,P|256:336|192:352,1,104.999996795654,10|0,0:0|0:0,0:0:0:0:
153,187,50494,5,6,1:0:0:0:
153,276,50643,1,2,0:0:0:0:
80,304,50792,2,0,L|64:192,1,104.999996795654,14|2,0:0|0:0,0:0:0:0:
160,48,51089,2,0,P|224:64|256:112,1,104.999996795654,6|0,1:0|1:0,0:0:0:0:
256,240,51386,1,14,0:0:0:0:
336,144,51534,1,0,0:0:0:0:
192,176,51683,6,0,P|169:232|181:290,1,104.999996795654,2|0,1:0|0:0,0:0:0:0:
305,313,51980,1,8,0:0:0:0:
256,240,52128,1,0,0:0:0:0:
174,274,52277,2,0,L|64:256,1,104.999996795654,2|2,1:0|1:0,0:0:0:0:
32,96,52574,2,0,L|135:112,1,104.999996795654,10|2,0:0|0:0,0:0:0:0:
288,176,52871,6,0,L|176:192,1,104.999996795654,2|0,1:0|0:0,0:0:0:0:
221,105,53168,1,8,0:0:0:0:
288,176,53316,1,0,0:0:0:0:
198,294,53465,2,0,L|182:182,1,104.999996795654,2|0,1:0|1:0,0:0:0:0:
352,16,53762,2,0,P|368:64|352:128,1,104.999996795654,10|0,0:0|0:0,0:0:0:0:
304,240,54059,6,0,P|287:289|297:340,1,104.999996795654,2|0,1:0|0:0,0:0:0:0:
480,296,54356,2,0,L|368:296,1,104.999996795654,8|0,0:0|0:0,0:0:0:0:
223,287,54653,1,2,1:0:0:0:
230,195,54801,1,2,1:0:0:0:
297,340,54950,1,10,0:0:0:0:
304,240,55098,1,0,0:0:0:0:
495,192,55247,6,0,L|479:304,1,104.999996795654,2|0,1:0|0:0,0:0:0:0:
368,104,55544,2,0,L|384:209,1,104.999996795654,10|0,0:0|0:0,0:0:0:0:
464,96,55841,1,2,1:0:0:0:
352,16,55990,1,2,1:0:0:0:
288,160,56138,1,10,0:0:0:0:
368,104,56287,1,2,0:0:0:0:
176,64,56435,5,0,1:0:0:0:
208,144,56584,1,0,1:0:0:0:
176,64,56732,1,12,0:0:0:0:
122,135,56881,1,0,0:0:0:0:
194,248,57029,2,0,L|210:120,1,104.999996795654,2|0,1:0|1:0,0:0:0:0:
128,320,57326,2,0,P|176:352|240:336,1,104.999996795654,10|0,0:0|1:0,0:0:0:0:
391,266,57623,6,0,P|343:234|279:250,1,104.999996795654,6|0,1:0|0:0,0:0:0:0:
323,324,57920,1,8,0:0:0:0:
391,266,58069,1,0,0:0:0:0:
323,324,58217,2,0,P|371:356|435:340,1,104.999996795654,2|0,1:0|1:0,0:0:0:0:
448,192,58514,6,0,L|432:80,1,104.999996795654,10|0,0:0|0:0,0:0:0:0:
256,32,58811,2,0,L|270:135,1,104.999996795654,6|0,1:0|0:0,0:0:0:0:
294,225,59108,1,8,0:0:0:0:
352,160,59257,1,0,0:0:0:0:
240,288,59405,2,0,P|208:240|208:176,1,104.999996795654,2|0,1:0|1:0,0:0:0:0:
352,160,59702,2,0,P|382:202|388:254,1,104.999996795654,10|0,0:0|0:0,0:0:0:0:
240,288,59999,6,0,L|128:304,1,104.999996795654,6|0,1:0|0:0,0:0:0:0:
16,160,60296,1,14,0:0:0:0:
109,201,60445,1,0,0:0:0:0:
30,263,60594,2,0,L|14:151,1,104.999996795654,6|0,1:0|1:0,0:0:0:0:
176,80,60891,2,0,P|128:96|64:80,1,104.999996795654,14|0,0:0|0:0,0:0:0:0:
251,153,61188,6,0,P|299:169|368:144,1,104.999996795654,2|0,1:0|0:0,0:0:0:0:
400,16,61485,1,8,0:0:0:0:
304,80,61633,1,0,0:0:0:0:
432,208,61782,2,0,P|448:159|422:91,1,104.999996795654,2|0,1:0|1:0,0:0:0:0:
320,0,62079,2,0,P|271:3|225:50,1,104.999996795654,10|0,0:0|0:0,0:0:0:0:
251,153,62376,5,2,1:0:0:0:
304,80,62524,1,2,0:0:0:0:
160,112,62673,2,0,P|155:165|179:224,1,104.999996795654,10|2,0:0|0:0,0:0:0:0:
272,256,62970,1,2,1:0:0:0:
339,182,63118,1,2,1:0:0:0:
323,337,63267,2,0,P|268:353|206:328,1,104.999996795654,10|0,0:0|0:0,0:0:0:0:
64,272,63564,5,10,0:0:0:0:
64,272,63663,5,8,0:0:0:0:
64,272,63762,5,8,0:0:0:0:
64,272,63861,6,0,L|80:176,1,82.5000025177003,8|8,0:0|0:0,0:0:0:0:
128,96,64158,6,0,P|161:62|195:50,1,78.7499975967408,10|0,0:0|0:0,0:0:0:0:
218,50,64455,2,0,P|254:34|280:5,1,78.7499975967408,10|0,0:0|0:0,0:0:0:0:
279,5,64752,6,0,L|302:163,1,157.499995193482,6|0,1:0|0:0,0:0:0:0:
275,234,65049,2,0,P|332:205|387:215,1,104.999996795654,8|0,0:0|0:0,0:0:0:0:
474,291,65346,1,2,1:0:0:0:
344,288,65494,1,2,1:0:0:0:
415,123,65643,1,10,0:0:0:0:
414,212,65792,1,2,0:0:0:0:
468,69,65940,6,0,B|432:94|432:94|298:81,1,157.499995193482,6|0,1:0|0:0,0:0:0:0:
271,23,66237,2,0,L|283:131,1,104.999996795654,8|0,0:0|0:0,0:0:0:0:
307,299,66534,1,2,1:0:0:0:
368,190,66683,1,0,1:0:0:0:
232,246,66831,2,0,P|216:305|292:390,1,157.499995193482,10|0,0:0|0:0,0:0:0:0:
64,300,67128,6,0,L|170:293,1,104.999996795654,6|2,1:0|0:0,0:0:0:0:
346,153,67425,2,0,L|240:146,1,104.999996795654,14|2,0:0|0:0,0:0:0:0:
59,217,67722,2,0,L|165:210,1,104.999996795654,6|0,1:0|1:0,0:0:0:0:
341,70,68019,2,0,L|235:63,1,104.999996795654,14|0,0:0|0:0,0:0:0:0:
405,213,68316,6,0,P|369:138|459:58,1,209.999993591309,2|8,1:0|0:0,0:0:0:0:
454,141,68762,1,0,0:0:0:0:
435,298,68910,2,0,L|326:294,1,104.999996795654,2|2,1:0|1:0,0:0:0:0:
220,183,69207,2,0,L|329:179,1,104.999996795654,10|2,0:0|0:0,0:0:0:0:
194,269,69504,6,0,B|188:206|188:206|164:172|164:172|159:112,1,157.499995193482,2|0,1:0|0:0,0:0:0:0:
196,46,69801,2,0,P|146:75|84:71,1,104.999996795654,8|0,0:0|0:0,0:0:0:0:
383,137,70098,2,0,L|272:134,1,104.999996795654,2|0,1:0|1:0,0:0:0:0:
508,21,70395,2,0,L|397:23,1,104.999996795654,10|0,0:0|0:0,0:0:0:0:
456,99,70693,6,0,P|422:141|455:266,1,157.499995193482,2|0,1:0|0:0,0:0:0:0:
498,282,70990,2,0,L|377:277,1,104.999996795654,8|0,0:0|0:0,0:0:0:0:
323,322,71287,2,0,P|340:265|319:199,1,104.999996795654,2|2,1:0|1:0,0:0:0:0:
164,209,71584,2,0,P|204:252|272:267,1,104.999996795654,10|0,0:0|0:0,0:0:0:0:
273,9,71881,6,0,L|255:166,1,157.499995193482,2|0,1:0|0:0,0:0:0:0:
252,183,72178,2,0,L|358:177,1,104.999996795654,10|0,0:0|0:0,0:0:0:0:
142,136,72475,6,0,L|160:293,1,157.499995193482,2|0,1:0|0:0,0:0:0:0:
163,310,72772,2,0,L|57:304,1,104.999996795654,10|2,0:0|0:0,0:0:0:0:
335,123,73069,2,0,L|316:232,1,104.999996795654,0|0,1:0|1:0,0:0:0:0:
231,135,73366,1,8,1:2:0:0:
231,135,73663,5,2,1:1:0:0:
421,126,73811,1,8,3:0:0:0:
208,221,73960,1,10,3:1:0:0:
388,54,74108,1,8,3:0:0:0:
168,294,74257,6,0,P|131:247|146:163,1,150,6|0,1:1|1:0,0:0:0:0:
231,135,74702,1,0,0:0:0:0:
208,221,74851,1,14,0:0:0:0:
208,221,75148,1,2,0:0:0:0:
208,221,75445,6,0,L|374:206,1,150,6|8,1:0|1:0,0:0:0:0:
449,200,75891,1,0,0:0:0:0:
409,273,76039,1,14,0:0:0:0:
409,273,76336,1,2,0:0:0:0:
409,273,76633,6,0,P|372:287|331:284,1,75,6|0,1:0|0:0,0:0:0:0:
255,330,76930,2,0,P|218:316|177:319,1,75,2|0,1:0|0:0,0:0:0:0:
106,371,77227,2,0,L|98:283,1,75,14|0,0:0|0:0,0:0:0:0:
162,235,77524,2,0,L|169:147,1,75,2|8,0:0|0:0,0:0:0:0:
183,67,77821,2,0,B|220:95|220:95|329:79,1,150,6|8,1:0|1:0,0:0:0:0:
387,23,78267,5,0,0:0:0:0:
387,23,78415,2,0,P|372:60|386:121,1,75,10|0,0:0|0:0,0:0:0:0:
439,182,78712,2,0,P|454:219|440:280,1,75,2|0,0:0|0:0,0:0:0:0:
299,237,79009,2,0,L|386:229,1,75,6|2,1:1|0:0,0:0:0:0:
271,320,79306,2,0,L|358:312,1,75,2|2,1:0|0:0,0:0:0:0:
184,170,79603,2,0,L|96:162,1,75,14|0,0:0|0:0,0:0:0:0:
212,253,79900,2,0,L|124:245,1,75,2|8,0:0|0:0,0:0:0:0:
40,238,80197,5,6,1:0:0:0:
40,238,80494,1,8,0:0:0:0:
40,238,80792,2,0,B|53:367,1,120,2|0,0:0|0:0,0:0:0:0:
336,336,81237,6,0,P|320:288|336:224,1,97.4999955368044,6|0,1:0|0:0,0:0:0:0:
176,208,81534,5,2,1:0:0:0:
224,288,81683,1,10,0:0:0:0:
256,160,81831,1,2,0:0:0:0:
128,128,81980,1,0,1:0:0:0:
176,208,82128,1,2,1:0:0:0:
208,64,82277,1,10,0:0:0:0:
336,224,82425,2,0,P|352:176|336:112,1,97.4999955368044,2|0,1:0|0:0,0:0:0:0:
256,160,82722,5,2,1:0:0:0:
320,320,82871,5,8,0:0:0:0:
373,319,82970,5,8,0:0:0:0:
419,286,83069,5,8,0:0:0:0:
432,240,83168,6,0,L|432:144,1,82.5000025177003,8|0,0:0|0:0,0:0:0:0:
368,32,83465,1,0,1:0:0:0:
345,130,83613,1,8,3:0:0:0:
512,40,83762,5,4,1:0:0:0:
256,192,83836,12,0,87920,0:0:0:0:
