osu file format v14

[General]
AudioFilename: audio.mp3
AudioLeadIn: 0
PreviewTime: 109025
Countdown: 0
SampleSet: Soft
StackLeniency: 0.7
Mode: 0
LetterboxInBreaks: 0
WidescreenStoryboard: 0

[Editor]
Bookmarks: 133147,133349
DistanceSpacing: 2.4
BeatDivisor: 4
GridSize: 4
TimelineZoom: 4.299998

[Metadata]
Title:Kami Eno Boutoku
TitleUnicode:神への冒涜
Artist:Universal Sound Team
ArtistUnicode:ユニバーサルサウンドチーム
Creator:P o M u T a
Version:Expert
Source:ミリオンゴッド-神々の系譜-
Tags:pomuta zeus kamigami no keihu keifu gaisen another hades MILLION GOD ORIGINAL SOUND TRACK bros god game slot
BeatmapID:1216667
BeatmapSetID:574469

[Difficulty]
HPDrainRate:6
CircleSize:4.8
OverallDifficulty:8.5
ApproachRate:9.4
SliderMultiplier:3
SliderTickRate:1

[Events]
//Background and Video events
0,0,"Art-of-painting-a-green-animal_1024x768.jpg",0,0
//Break Periods
//Storyboard Layer 0 (Background)
//Storyboard Layer 1 (Fail)
//Storyboard Layer 2 (Pass)
//Storyboard Layer 3 (Foreground)
//Storyboard Layer 4 (Overlay)
//Storyboard Sound Samples

[TimingPoints]
377,405.405405405405,4,2,1,80,1,0
6458,-200,4,2,1,80,0,0
6863,-100,4,2,1,80,0,0
11931,-100,4,2,1,5,0,0
11998,-100,4,2,1,80,0,0
12235,-100,4,2,1,5,0,0
12336,-100,4,2,1,80,0,0
22876,-90.9090909090909,4,2,1,80,0,0
23079,-100,4,2,1,80,0,0
36052,-100,4,2,1,80,0,0
37674,-111.111111111111,4,2,1,80,0,0
38890,-100,4,2,1,80,0,0
39295,-111.111111111111,4,2,1,80,0,0
42133,-100,4,2,1,80,0,0
42539,-133.333333333333,4,2,1,80,0,0
43045,-133.333333333333,4,2,1,5,0,0
43147,-133.333333333333,4,2,1,80,0,0
43755,-100,4,2,1,80,0,0
44160,-100,4,2,2,80,0,1
60174,-200,4,2,2,80,0,1
60376,-166.666666666667,4,2,2,80,0,1
60782,-133.333333333333,4,2,2,80,0,1
61187,-100,4,2,2,80,0,1
61998,-83.3333333333333,4,2,2,80,0,1
63620,-66.6666666666667,4,2,2,80,0,1
66052,-100,4,2,2,80,0,1
66863,-100,4,2,1,80,0,0
72944,-200,4,2,1,80,0,0
73349,-100,4,2,1,80,0,0
78417,-100,4,2,1,5,0,0
78518,-100,4,2,1,80,0,0
78721,-100,4,2,1,5,0,0
78822,-100,4,2,1,80,0,0
89363,-90.9090909090909,4,2,1,80,0,0
89566,-100,4,2,1,80,0,0
104160,-111.111111111111,4,2,1,80,0,0
105376,-100,4,2,1,80,0,0
105782,-111.111111111111,4,2,1,80,0,0
108620,-100,4,2,1,80,0,0
109025,-133.333333333333,4,2,1,80,0,0
109532,-133.333333333333,4,2,1,5,0,0
109633,-133.333333333333,4,2,1,80,0,0
110241,-100,4,2,1,80,0,0
110647,-100,4,2,2,80,0,1
126660,-200,4,2,2,80,0,1
126863,-166.666666666667,4,2,2,80,0,1
127268,-133.333333333333,4,2,2,80,0,1
127674,-100,4,2,2,80,0,1
128485,-83.3333333333333,4,2,2,80,0,1
130106,-66.6666666666667,4,2,2,80,0,1
132539,-100,4,2,2,80,0,1
133349,-100,4,2,1,80,0,0

[Colours]
Combo1 : 128,0,121
Combo2 : 13,242,173
Combo3 : 0,179,255
Combo4 : 252,196,3

[HitObjects]
209,245,377,6,0,P|124:312|27:267,1,225,6|0,0:0|0:0,0:0:0:0:
302,137,985,2,0,P|386:71|483:115,1,225
256,192,1593,1,0,0:0:0:0:
117,103,1795,1,0,0:0:0:0:
28,268,1998,6,0,L|18:182,1,75,2|0,0:0|0:0,0:0:0:0:
125,177,2302,2,0,L|117:103,1,75
387,177,2606,2,0,L|395:103,1,75
484,268,2910,2,0,L|492:193,1,75
256,284,3214,1,0,0:0:0:0:
256,100,3417,1,0,0:0:0:0:
368,352,3620,6,0,L|444:356,1,75,6|0,0:0|0:0,0:0:0:0:
425,279,3822,2,0,L|501:283,1,75
361,209,4025,5,0,0:0:0:0:
330,206,4126,1,0,0:0:0:0:
256,284,4228,1,0,0:0:0:0:
287,287,4329,1,0,0:0:0:0:
155,254,4431,6,0,L|163:333,1,75,6|0,0:0|0:0,0:0:0:0:
75,215,4633,2,0,L|82:289,1,75
110,140,4836,5,0,0:0:0:0:
80,137,4937,1,0,0:0:0:0:
49,135,5039,1,0,0:0:0:0:
202,147,5140,1,0,0:0:0:0:
290,72,5241,6,0,P|326:70|359:88,1,75
202,147,5444,1,0,0:0:0:0:
221,72,5545,2,0,P|185:70|152:88,1,75
310,147,5748,1,0,0:0:0:0:
256,270,5849,2,0,L|256:193,1,75
212,333,6052,6,0,L|167:326,3,37.5
282,355,6255,2,0,L|327:348,1,37.5,2|0,0:0|0:0,0:0:0:0:
386,353,6356,2,0,L|431:346,1,37.5,2|0,0:0|0:0,0:0:0:0:
491,337,6458,6,0,P|465:294|441:281,1,75,8|0,0:0|0:0,0:0:0:0:
380,267,6762,2,0,L|374:284,1,18.75
317,230,6863,5,4,0:0:0:0:
307,251,6964,2,0,P|281:191|312:114,1,150
476,131,7268,2,0,P|438:138|402:130,1,75,8|0,0:0|0:0,0:0:0:0:
348,23,7471,1,0,0:0:0:0:
359,43,7572,2,0,B|318:28|318:28|286:36,1,75
193,111,7775,1,0,0:0:0:0:
203,90,7876,2,0,L|121:98,1,75
236,0,8079,2,0,L|251:152,1,150,8|0,0:0|0:0,0:0:0:0:
250,149,8383,1,0,0:0:0:0:
334,191,8485,5,0,0:0:0:0:
327,212,8586,2,0,B|373:220|373:220|434:197|434:197|482:204,1,150
445,289,8890,2,0,P|458:324|454:369,1,75,8|0,0:0|0:0,0:0:0:0:
380,113,9093,1,0,0:0:0:0:
402,117,9194,2,0,L|486:129,1,75
358,21,9397,1,0,0:0:0:0:
345,39,9498,2,0,L|270:28,1,75
86,114,9701,2,0,P|161:157|219:135,1,150,8|0,0:0|0:0,0:0:0:0:
216,137,10005,1,0,0:0:0:0:
162,64,10106,5,4,0:0:0:0:
64,229,10208,2,0,B|121:229|121:229|212:268,1,150
343,329,10512,2,0,L|418:323,1,75,8|0,0:0|0:0,0:0:0:0:
281,374,10714,1,0,0:0:0:0:
270,303,10816,2,0,P|267:339|284:378,1,75
255,130,11018,1,0,0:0:0:0:
330,253,11120,2,0,P|333:217|316:178,1,75
256,56,11322,2,0,B|259:72|259:72|253:113|253:113|256:131,1,75,8|0,0:0|0:0,0:0:0:0:
159,182,11525,2,0,B|148:142|148:142|160:106,1,75
330,253,11728,6,0,B|367:238|367:238|431:270|472:244,1,150,4|0,0:0|0:0,0:0:0:0:
182,253,12032,2,0,B|145:268|145:268|81:236|39:261,1,150,4|0,0:0|0:0,0:0:0:0:
249,131,12336,2,0,L|256:205,1,75,4|0,0:0|0:0,0:0:0:0:
208,343,12539,5,0,0:0:0:0:
185,345,12640,1,0,0:0:0:0:
304,361,12741,1,0,0:0:0:0:
281,363,12842,1,0,0:0:0:0:
400,379,12944,6,0,L|489:370,1,75,2|0,0:0|0:0,0:0:0:0:
281,363,13147,1,0,0:0:0:0:
304,361,13248,1,0,0:0:0:0:
185,345,13349,5,4,0:0:0:0:
208,343,13451,2,0,L|183:192,1,150
87,257,13755,2,0,L|99:332,1,75,8|0,0:0|0:0,0:0:0:0:
256,147,13958,1,0,0:0:0:0:
265,126,14059,2,0,L|252:50,1,75
398,195,14262,1,0,0:0:0:0:
407,174,14363,2,0,L|394:98,1,75
390,289,14566,2,0,P|427:274|468:281,1,75,8|0,0:0|0:0,0:0:0:0:
250,230,14768,2,0,P|213:215|172:222,1,75
85,64,14971,5,0,0:0:0:0:
69,79,15072,2,0,P|46:144|86:213,1,150
80,356,15376,2,0,P|111:331|125:292,1,75,8|0,0:0|0:0,0:0:0:0:
186,129,15579,1,0,0:0:0:0:
206,150,15681,1,0,0:0:0:0:
256,81,15782,2,0,L|255:5,1,75
326,188,15985,1,0,0:0:0:0:
306,209,16087,1,0,0:0:0:0:
286,230,16188,2,0,L|299:311,1,75,8|0,0:0|0:0,0:0:0:0:
430,201,16390,2,0,L|417:120,1,75
219,286,16593,5,4,0:0:0:0:
209,306,16694,1,0,0:0:0:0:
205,328,16795,1,0,0:0:0:0:
206,350,16897,1,0,0:0:0:0:
133,367,16998,5,8,0:0:0:0:
134,337,17099,1,0,0:0:0:0:
130,306,17201,1,0,0:0:0:0:
116,279,17302,1,0,0:0:0:0:
43,259,17404,6,0,P|24:295|26:349,1,75
21,55,17606,2,0,P|24:92|43:125,1,75
206,192,17809,5,8,0:0:0:0:
161,192,17910,1,0,0:0:0:0:
115,192,18012,1,0,0:0:0:0:
70,192,18113,1,0,0:0:0:0:
193,68,18214,6,0,L|201:32,3,37.5,4|0|0|0,0:0|0:0|0:0|0:0,0:0:0:0:
256,109,18417,2,0,L|264:73,3,37.5
348,175,18620,6,0,L|356:211,3,37.5
411,134,18823,2,0,L|419:170,3,37.5
459,290,19025,5,0,0:0:0:0:
384,288,19126,1,0,0:0:0:0:
308,286,19228,1,0,0:0:0:0:
233,284,19329,1,0,0:0:0:0:
179,192,19431,6,0,L|187:154,7,37.5
121,90,19836,6,0,L|22:94,2,100,4|0|0,0:0|0:0|0:0,0:0:0:0:
256,26,20241,1,8,0:0:0:0:
391,192,20444,6,0,L|292:196,1,75
495,134,20647,1,0,0:0:0:0:
346,302,20849,1,0,0:0:0:0:
495,134,21052,1,8,0:0:0:0:
489,171,21154,1,0,0:0:0:0:
483,208,21255,1,0,0:0:0:0:
477,245,21356,1,0,0:0:0:0:
391,192,21458,6,0,L|381:92,2,100
346,302,21863,6,0,P|299:294|266:303,1,75,8|0,0:0|0:0,0:0:0:0:
147,351,22066,2,0,L|69:346,1,75
272,300,22268,6,0,L|172:292,2,100
346,302,22674,6,0,P|299:294|266:303,1,75,8|0,0:0|0:0,0:0:0:0:
147,351,22877,2,0,L|59:345,1,82.5000025177003
32,197,23079,6,0,P|108:181|179:193,1,150
252,209,23383,1,0,0:0:0:0:
306,156,23485,2,0,L|291:0,1,150,8|0,0:0|0:0,0:0:0:0:
282,224,23789,5,0,0:0:0:0:
335,171,23891,2,0,L|324:49,1,75
406,223,24093,1,0,0:0:0:0:
417,222,24143,1,0,0:0:0:0:
428,221,24194,1,0,0:0:0:0:
486,151,24295,2,0,P|445:145|411:156,1,75,8|0,0:0|0:0,0:0:0:0:
428,292,24498,2,0,P|469:298|503:287,1,75
335,171,24701,6,0,L|329:110,3,37.5
428,292,24904,2,0,P|469:298|503:287,1,75
282,224,25106,1,8,0:0:0:0:
237,216,25208,1,0,0:0:0:0:
193,227,25309,1,0,0:0:0:0:
165,262,25410,1,0,0:0:0:0:
165,307,25512,6,0,L|172:348,1,37.5,4|0,0:0|0:0,0:0:0:0:
248,297,25714,1,0,0:0:0:0:
54,283,25917,6,0,L|61:324,1,37.5
147,143,26120,1,0,0:0:0:0:
79,139,26221,1,0,0:0:0:0:
11,135,26322,5,4,0:0:0:0:
49,79,26424,1,0,0:0:0:0:
11,135,26728,5,8,0:0:0:0:
121,82,26830,1,0,0:0:0:0:
404,165,27133,6,0,B|356:179|356:179|307:162|307:162|258:173,1,150
304,238,27437,1,0,0:0:0:0:
345,81,27539,2,0,B|262:100|262:100|197:87,1,150,8|0,0:0|0:0,0:0:0:0:
261,21,27843,1,0,0:0:0:0:
151,169,27944,6,0,L|102:159,2,37.5
304,238,28147,2,0,L|314:189,2,37.5
236,377,28349,2,0,L|285:387,2,37.5,8|0|0,0:0|0:0|0:0,0:0:0:0:
83,308,28552,2,0,L|73:357,1,37.5
73,294,28654,2,0,L|63:343,1,37.5
63,280,28756,2,0,L|53:329,1,37.5
53,266,28856,2,0,L|43:315,1,37.5
10,197,28958,6,0,P|65:186|131:246,1,150,0|8,0:0|0:0,0:0:0:0:
211,109,29262,2,0,B|142:148|142:62|70:109,1,150
301,109,29566,6,0,B|370:148|370:62|440:108,1,150,4|0,0:0|0:0,0:0:0:0:
332,43,29870,1,0,0:0:0:0:
409,184,29971,2,0,P|446:190|482:179,1,75,8|0,0:0|0:0,0:0:0:0:
332,43,30174,2,0,P|295:37|259:48,1,75
178,225,30376,2,0,P|190:147|142:99,1,150
114,175,30681,1,0,0:0:0:0:
265,234,30782,2,0,L|250:393,1,150,8|0,0:0|0:0,0:0:0:0:
252,384,31086,1,0,0:0:0:0:
416,192,31187,5,4,0:0:0:0:
256,32,31593,1,0,0:0:0:0:
96,192,31998,1,0,0:0:0:0:
256,352,32404,1,8,0:0:0:0:
416,192,32809,5,4,0:0:0:0:
291,245,33012,1,0,0:0:0:0:
303,283,33113,1,0,0:0:0:0:
315,321,33214,1,0,0:0:0:0:
230,139,33417,1,0,0:0:0:0:
242,101,33518,1,0,0:0:0:0:
254,63,33619,1,0,0:0:0:0:
84,273,33822,1,0,0:0:0:0:
123,264,33924,1,0,0:0:0:0:
162,273,34025,1,12,0:0:0:0:
448,191,34228,1,0,0:0:0:0:
409,182,34330,1,0,0:0:0:0:
370,191,34431,5,4,0:0:0:0:
142,191,34633,1,0,0:0:0:0:
337,271,34836,1,0,0:0:0:0:
176,110,35038,1,8,0:0:0:0:
256,340,35241,5,4,0:0:0:0:
257,42,35443,1,0,0:0:0:0:
152,297,35647,1,0,0:0:0:0:
361,88,35849,1,8,0:0:0:0:
79,192,36052,6,0,L|0:192,1,75
217,192,36255,2,0,L|134:192,1,75
356,192,36458,2,0,L|270:192,1,75
495,192,36660,2,0,L|416:192,1,75
508,260,36863,5,0,0:0:0:0:
440,260,36964,1,0,0:0:0:0:
440,124,37066,5,0,0:0:0:0:
508,124,37167,1,0,0:0:0:0:
409,192,37268,5,0,0:0:0:0:
341,192,37370,1,0,0:0:0:0:
273,192,37471,1,0,0:0:0:0:
205,192,37572,1,0,0:0:0:0:
99,229,37674,6,0,B|138:229|138:229|166:277|225:268,1,134.999995880127,4|0,0:0|0:0,0:0:0:0:
102,299,37978,1,0,0:0:0:0:
205,192,38079,2,0,B|157:160|157:160|70:160,1,134.999995880127,8|0,0:0|0:0,0:0:0:0:
23,100,38383,1,0,0:0:0:0:
79,40,38485,6,0,L|149:40,1,67.4999979400635
433,40,38687,2,0,L|365:40,1,67.4999979400635
77,3,38890,6,0,L|224:29,1,150,8|0,0:0|0:0,0:0:0:0:
436,195,39295,6,0,P|365:184|302:227,1,134.999995880127,4|0,0:0|0:0,0:0:0:0:
494,157,39599,1,0,0:0:0:0:
297,240,39701,2,0,B|249:251|249:251|211:234|211:234|160:245,1,134.999995880127,8|0,0:0|0:0,0:0:0:0:
9,286,40005,1,0,0:0:0:0:
17,359,40106,2,0,B|58:371|58:371|155:350,1,134.999995880127
364,300,40512,1,12,0:0:0:0:
364,300,40917,6,0,B|405:312|405:312|502:291,1,134.999995880127,4|0,0:0|0:0,0:0:0:0:
499,220,41221,1,0,0:0:0:0:
337,335,41322,6,0,B|378:347|378:347|475:326,1,134.999995880127,8|0,0:0|0:0,0:0:0:0:
434,175,41626,1,0,0:0:0:0:
357,210,41728,6,0,L|345:142,1,67.4999979400635
166,143,41931,2,0,L|155:210,1,67.4999979400635
256,192,42133,2,0,L|256:41,1,150,12|0,0:0|0:0,0:0:0:0:
17,235,42539,6,0,P|14:268|22:298,1,56.2500021457673,4|0,0:0|0:0,0:0:0:0:
94,260,42741,1,0,0:0:0:0:
178,311,42843,2,0,P|193:258|176:205,1,112.500004291535
61,124,43147,5,0,0:0:0:0:
60,116,43197,1,0,0:0:0:0:
59,108,43248,1,0,0:0:0:0:
58,100,43299,1,0,0:0:0:0:
57,92,43349,1,0,0:0:0:0:
1,58,43451,6,0,B|34:68|34:68|113:52,1,112.500004291535
183,34,43755,1,0,0:0:0:0:
257,27,43856,1,0,0:0:0:0:
331,36,43958,1,0,0:0:0:0:
398,68,44059,1,0,0:0:0:0:
446,125,44160,6,0,P|472:193|457:275,1,150,4|0,0:0|0:0,0:0:0:0:
329,319,44464,1,0,0:0:0:0:
329,319,44566,2,0,P|364:316|409:337,1,75,8|0,0:0|0:0,0:0:0:0:
183,319,44768,2,0,P|148:316|103:337,1,75
256,365,44971,2,0,L|256:213,1,150
209,155,45275,1,0,0:0:0:0:
150,201,45376,2,0,P|113:206|71:203,1,75,8|0,0:0|0:0,0:0:0:0:
7,69,45579,2,0,L|86:71,1,75
227,6,45782,6,0,L|209:154,1,150,4|0,0:0|0:0,0:0:0:0:
208,154,46086,1,0,0:0:0:0:
261,221,46187,1,8,0:0:0:0:
404,215,46289,6,0,B|351:207|351:207|319:226|319:226|261:221,1,150
55,283,46593,2,0,B|113:288|113:288|145:269|145:269|201:278,1,150
394,338,46897,2,0,B|340:329|340:329|308:348|308:348|250:343,1,150
459,295,47201,2,0,P|471:333|464:372,1,75,4|0,0:0|0:0,0:0:0:0:
338,199,47404,6,0,P|312:127|348:63,1,150,4|0,0:0|0:0,0:0:0:0:
352,223,47708,1,0,0:0:0:0:
356,52,47809,2,0,B|314:59|314:59|278:49,1,75,8|0,0:0|0:0,0:0:0:0:
202,103,48012,2,0,L|127:100,1,75
7,54,48214,2,0,B|6:109|6:109|24:155|24:155|21:205,1,150
13,283,48518,1,0,0:0:0:0:
90,253,48620,2,0,L|166:255,1,75,8|0,0:0|0:0,0:0:0:0:
208,342,48822,2,0,L|132:340,1,75
135,166,49025,6,0,L|304:170,1,150,4|0,0:0|0:0,0:0:0:0:
361,138,49329,1,0,0:0:0:0:
351,63,49431,2,0,L|361:139,1,75,8|0,0:0|0:0,0:0:0:0:
351,321,49633,2,0,L|361:245,1,75
428,31,49836,2,0,L|274:39,1,150,4|0,0:0|0:0,0:0:0:0:
278,38,50140,1,0,0:0:0:0:
492,147,50241,2,0,P|499:110|488:74,1,75,12|0,0:0|0:0,0:0:0:0:
492,237,50444,2,0,P|499:273|488:309,1,75,4|0,0:0|0:0,0:0:0:0:
285,192,50647,6,0,L|434:192,1,150,4|0,0:0|0:0,0:0:0:0:
222,268,50951,1,0,0:0:0:0:
246,296,51052,2,0,B|252:335|252:335|238:370,1,75,8|0,0:0|0:0,0:0:0:0:
101,188,51255,2,0,B|95:149|95:149|109:114,1,75
323,50,51458,5,0,0:0:0:0:
223,43,51593,5,0,0:0:0:0:
123,37,51728,5,0,0:0:0:0:
323,50,51863,2,0,L|474:36,1,150,8|0,0:0|0:0,0:0:0:0:
472,36,52167,1,0,0:0:0:0:
486,117,52268,6,0,L|335:131,1,150,4|0,0:0|0:0,0:0:0:0:
264,139,52573,1,0,0:0:0:0:
192,146,52674,1,8,0:0:0:0:
42,159,52775,6,0,L|192:146,1,150
73,83,53079,2,0,L|10:219,1,150
119,152,53383,2,0,L|32:29,1,150
102,235,53687,2,0,L|176:228,1,75,4|0,0:0|0:0,0:0:0:0:
363,310,53890,6,0,P|286:299|223:335,1,150,4|0,0:0|0:0,0:0:0:0:
392,328,54194,1,0,0:0:0:0:
199,364,54295,2,0,L|119:356,1,75,8|0,0:0|0:0,0:0:0:0:
253,226,54498,2,0,L|333:218,1,75
459,83,54701,2,0,P|369:144|265:109,1,225
38,68,55106,2,0,P|86:68|109:82,1,75,8|0,0:0|0:0,0:0:0:0:
259,267,55309,1,0,0:0:0:0:
259,267,55512,6,0,B|298:275|298:275|368:256|368:256|407:264,1,150,4|0,0:0|0:0,0:0:0:0:
476,312,55816,1,0,0:0:0:0:
298,202,55917,6,0,B|259:194|259:194|189:213|189:213|150:205,1,150,8|0,0:0|0:0,0:0:0:0:
81,157,56221,1,0,0:0:0:0:
362,117,56322,6,0,P|370:83|357:38,1,75,4|0,0:0|0:0,0:0:0:0:
81,157,56525,2,0,P|71:193|79:229,1,75,4|0,0:0|0:0,0:0:0:0:
224,165,56728,5,12,0:0:0:0:
211,122,56829,1,0,0:0:0:0:
313,257,56931,5,4,0:0:0:0:
328,190,57032,1,0,0:0:0:0:
286,352,57133,6,0,B|233:361|233:361|182:342|182:342|132:346,1,150,6|0,0:0|0:0,0:0:0:0:
241,289,57437,1,2,0:0:0:0:
140,164,57539,2,0,L|147:238,1,75,10|2,0:1|0:0,0:0:0:0:
41,197,57741,2,0,L|48:123,1,75,2|0,0:0|0:0,0:0:0:0:
114,63,57944,5,2,0:0:0:0:
165,74,58045,1,2,0:0:0:0:
217,67,58147,1,2,0:0:0:0:
253,30,58248,1,2,0:0:0:0:
292,94,58349,2,0,B|322:83|322:83|375:92,1,75,8|0,0:1|0:0,0:0:0:0:
397,164,58552,5,2,0:0:0:0:
433,125,58654,1,2,0:0:0:0:
440,73,58755,1,6,0:0:0:0:
414,27,58856,1,2,0:0:0:0:
364,90,58958,2,0,B|322:83|322:83|292:94,1,75
256,168,59160,5,10,0:1:0:0:
225,210,59262,1,2,0:0:0:0:
173,218,59363,1,2,0:0:0:0:
124,198,59464,1,2,0:0:0:0:
168,130,59566,5,6,0:0:0:0:
116,118,59667,2,0,P|44:178|52:234,1,150,2|0,0:0|0:0,0:0:0:0:
15,293,59971,2,0,B|51:293|51:293|85:311,1,75,10|2,0:1|0:0,0:0:0:0:
222,340,60174,6,0,L|268:336,1,37.5,2|2,0:0|0:0,0:0:0:0:
464,303,60376,6,0,B|443:321|443:321|379:309,1,89.9999972534181,6|0,0:0|0:0,0:0:0:0:
359,304,60681,1,2,0:0:0:0:
482,164,60782,6,0,L|418:169,1,56.2500021457673,10|2,0:1|0:0,0:0:0:0:
310,171,60985,2,0,L|246:166,1,56.2500021457673,2|2,0:0|0:0,0:0:0:0:
33,124,61187,6,0,B|87:46|162:74|162:74|162:1,1,225,2|2,0:0|0:0,0:0:0:0:
125,166,61593,2,0,B|140:207|140:207|136:238,1,75,10|2,0:1|0:0,0:0:0:0:
15,357,61795,2,0,B|0:316|0:316|3:284,1,75,2|0,0:0|0:0,0:0:0:0:
287,307,61998,6,0,B|244:307|244:307|207:335,1,89.9999972534181,6|2,0:0|0:0,0:0:0:0:
403,222,62201,2,0,B|446:222|446:222|483:194,1,89.9999972534181,2|2,0:0|0:0,0:0:0:0:
346,362,62404,1,10,0:1:0:0:
291,235,62505,1,2,0:0:0:0:
206,335,62607,6,0,B|163:335|163:335|126:363,1,89.9999972534181,0|2,0:0|0:0,0:0:0:0:
15,357,62809,1,2,0:0:0:0:
11,226,62910,2,0,B|91:260|91:260|173:209,1,179.999994506836,2|2,0:0|0:0,0:0:0:0:
15,27,63214,2,0,L|81:94,1,89.9999972534181,8|2,0:1|0:0,0:0:0:0:
15,357,63417,2,0,L|81:290,1,89.9999972534181,2|2,0:0|0:0,0:0:0:0:
255,130,63620,6,0,L|486:150,1,225.000008583069,2|2,0:0|0:0,0:0:0:0:
479,149,63924,1,2,0:0:0:0:
255,254,64025,2,0,L|486:234,1,225.000008583069,10|2,0:1|0:0,0:0:0:0:
479,234,64329,1,2,0:0:0:0:
167,149,64431,6,0,L|81:229,1,112.500004291535,2|2,0:0|0:0,0:0:0:0:
345,235,64633,2,0,L|431:155,1,112.500004291535,2|2,0:0|0:0,0:0:0:0:
256,192,64836,6,0,L|256:136,3,56.2500021457673,2|2|2|2,0:0|0:0|0:0|0:0,0:0:0:0:
256,236,65039,5,2,0:0:0:0:
256,247,65089,1,2,0:0:0:0:
256,258,65140,1,2,0:0:0:0:
256,269,65191,1,2,0:0:0:0:
256,280,65241,1,6,0:0:0:0:
256,192,65292,12,0,65951,0:0:0:0:
256,280,66052,6,0,L|256:318,7,37.5
194,364,66458,1,0,0:0:0:0:
119,354,66559,1,0,0:0:0:0:
95,283,66660,1,0,0:0:0:0:
20,273,66761,1,0,0:0:0:0:
65,209,66863,6,0,B|56:174|56:174|104:235|104:235|151:235,1,150,6|0,0:0|0:0,0:0:0:0:
190,159,67167,2,0,P|205:79|165:8,1,150
335,19,67471,2,0,P|305:86|322:159,1,150,0|2,0:0|0:0,0:0:0:0:
371,235,67775,2,0,B|408:235|408:235|456:174|456:174|447:209,1,150
256,192,68079,1,0,0:0:0:0:
256,30,68282,1,0,0:0:0:0:
256,354,68485,6,0,L|181:342,2,75,2|0|0,0:0|0:0|0:0,0:0:0:0:
256,273,68789,2,0,L|330:261,2,75
256,192,69093,2,0,L|181:180,2,75,0|0|2,0:0|0:0|0:0,0:0:0:0:
256,111,69397,2,0,L|330:99,2,75
256,30,69701,2,0,L|181:18,2,75
488,112,70106,6,0,L|479:190,1,75,6|0,0:0|0:0,0:0:0:0:
381,187,70309,2,0,L|372:265,1,75
253,354,70512,5,0,0:0:0:0:
248,316,70613,1,0,0:0:0:0:
130,269,70714,1,0,0:0:0:0:
125,307,70815,1,0,0:0:0:0:
27,235,70917,6,0,L|21:153,1,75,6|0,0:0|0:0,0:0:0:0:
127,154,71120,2,0,L|162:79,1,75
261,111,71322,1,0,0:0:0:0:
298,104,71424,1,0,0:0:0:0:
334,97,71525,1,0,0:0:0:0:
286,38,71626,1,0,0:0:0:0:
355,168,71728,6,0,L|422:203,1,75
489,238,71931,1,0,0:0:0:0:
261,224,72032,2,0,L|194:189,1,75
127,154,72235,1,0,0:0:0:0:
251,346,72336,2,0,L|318:381,1,75
158,332,72539,6,0,L|167:373,3,37.5
92,303,72741,2,0,L|79:347,1,37.5,2|0,0:0|0:0,0:0:0:0:
43,253,72843,2,0,L|13:286,1,37.5,2|0,0:0|0:0,0:0:0:0:
16,190,72944,6,0,P|57:185|90:203,1,75,8|0,0:0|0:0,0:0:0:0:
153,206,73248,2,0,L|173:182,1,18.75
169,120,73349,5,4,0:0:0:0:
156,100,73451,2,0,P|220:82|290:122,1,150
376,216,73755,2,0,L|465:205,1,75,8|0,0:0|0:0,0:0:0:0:
487,63,73958,1,0,0:0:0:0:
477,42,74059,2,0,L|388:53,1,75
376,216,74262,1,0,0:0:0:0:
366,237,74363,2,0,L|277:226,1,75
358,139,74566,2,0,L|507:146,1,150,8|0,0:0|0:0,0:0:0:0:
512,71,74870,1,0,0:0:0:0:
333,69,74971,5,0,0:0:0:0:
318,52,75072,2,0,B|270:38|270:38|231:67|167:47,1,150
42,105,75376,2,0,P|84:103|120:118,1,75,8|0,0:0|0:0,0:0:0:0:
71,192,75579,1,0,0:0:0:0:
114,269,75681,2,0,P|79:281|41:278,1,75
71,192,75883,1,0,0:0:0:0:
42,105,75985,2,0,P|84:103|120:118,1,75
186,219,76187,2,0,B|256:192|256:192|329:211,1,150,8|0,0:0|0:0,0:0:0:0:
260,271,76491,1,0,0:0:0:0:
196,133,76593,5,4,0:0:0:0:
217,125,76694,2,0,B|256:110|256:110|199:123|134:104,1,150
326,62,76998,2,0,P|341:103|336:139,1,75,8|0,0:0|0:0,0:0:0:0:
207,313,77201,1,0,0:0:0:0:
186,322,77302,2,0,P|171:281|176:245,1,75
305,313,77505,1,0,0:0:0:0:
325,322,77606,2,0,P|340:287|337:250,1,75
256,376,77809,2,0,L|256:220,1,150,8|0,0:0|0:0,0:0:0:0:
256,203,78113,1,0,0:0:0:0:
197,74,78214,6,0,P|124:89|62:150,1,150,4|0,0:0|0:0,0:0:0:0:
314,74,78518,2,0,P|387:88|443:138,1,150,4|0,0:0|0:0,0:0:0:0:
469,270,78822,2,0,P|470:311|456:351,1,75,4|0,0:0|0:0,0:0:0:0:
382,239,79025,5,0,0:0:0:0:
393,211,79126,1,0,0:0:0:0:
309,244,79228,1,0,0:0:0:0:
320,216,79329,1,0,0:0:0:0:
236,249,79431,2,0,B|248:212|248:212|212:240,1,75,2|0,0:0|0:0,0:0:0:0:
7,319,79633,2,0,B|32:310|32:310|82:317,1,75
105,193,79836,5,4,0:0:0:0:
84,171,79937,2,0,P|73:84|112:26,1,150
167,262,80241,2,0,L|151:350,1,75,8|0,0:0|0:0,0:0:0:0:
220,69,80444,1,0,0:0:0:0:
242,88,80545,2,0,P|247:131|228:160,1,75
338,192,80748,1,0,0:0:0:0:
368,192,80849,2,0,L|443:192,1,75
241,296,81052,2,0,P|249:259|178:181,1,150,8|0,0:0|0:0,0:0:0:0:
181,181,81356,1,0,0:0:0:0:
114,145,81458,5,0,0:0:0:0:
100,119,81559,2,0,P|97:75|174:17,1,150
170,94,81863,5,8,0:0:0:0:
244,86,81965,2,0,L|170:94,1,75
382,192,82167,1,0,0:0:0:0:
307,184,82269,2,0,L|381:191,1,75
444,129,82471,1,0,0:0:0:0:
437,92,82572,1,0,0:0:0:0:
430,54,82674,2,0,B|403:40|403:40|345:49,1,75,8|0,0:0|0:0,0:0:0:0:
440,240,82876,2,0,B|467:254|467:254|525:245,1,75
302,112,83079,5,4,0:0:0:0:
279,114,83181,1,0,0:0:0:0:
256,116,83282,1,0,0:0:0:0:
233,118,83383,1,0,0:0:0:0:
125,73,83485,5,8,0:0:0:0:
127,100,83587,1,0,0:0:0:0:
129,128,83688,1,0,0:0:0:0:
132,155,83789,1,0,0:0:0:0:
84,254,83890,5,0,0:0:0:0:
116,251,83992,1,0,0:0:0:0:
148,248,84093,1,0,0:0:0:0:
180,245,84194,1,0,0:0:0:0:
281,291,84295,5,8,0:0:0:0:
277,254,84397,1,0,0:0:0:0:
274,217,84498,1,0,0:0:0:0:
271,180,84599,1,0,0:0:0:0:
302,111,84701,6,0,L|261:114,3,37.5,4|0|0|0,0:0|0:0|0:0|0:0,0:0:0:0:
125,73,84904,6,0,L|128:113,3,37.5
84,254,85106,6,0,L|124:251,3,37.5
281,291,85309,6,0,L|278:250,3,37.5
336,205,85512,5,0,0:0:0:0:
409,220,85613,1,0,0:0:0:0:
482,236,85714,2,0,P|481:197|458:162,1,75
432,291,85917,6,0,L|439:334,7,37.5
371,371,86322,6,0,L|268:362,2,100,4|0|0,0:0|0:0|0:0,0:0:0:0:
501,381,86728,1,8,0:0:0:0:
307,192,86931,6,0,L|160:179,1,75
437,202,87133,1,0,0:0:0:0:
313,52,87336,1,0,0:0:0:0:
437,202,87539,1,8,0:0:0:0:
440,172,87640,1,0,0:0:0:0:
443,142,87741,1,0,0:0:0:0:
446,112,87843,1,0,0:0:0:0:
384,244,87944,6,0,B|437:236|437:236|481:258,2,100
305,321,88349,2,0,P|265:327|230:315,1,75,8|0,0:0|0:0,0:0:0:0:
91,370,88552,2,0,P|131:364|166:376,1,75
232,316,88755,6,0,P|219:265|234:222,2,100
305,321,89160,6,0,P|265:327|230:315,1,75,8|0,0:0|0:0,0:0:0:0:
90,370,89363,2,0,P|140:365|188:393,1,82.5000025177003
234,221,89566,6,0,P|154:229|99:193,1,150
76,120,89870,1,0,0:0:0:0:
132,71,89971,2,0,P|212:63|267:99,1,150,8|0,0:0|0:0,0:0:0:0:
289,171,90275,1,0,0:0:0:0:
404,117,90376,6,0,L|481:108,1,75
417,33,90579,1,0,0:0:0:0:
398,35,90630,1,0,0:0:0:0:
379,37,90681,1,0,0:0:0:0:
429,197,90782,2,0,L|506:188,1,75,8|0,0:0|0:0,0:0:0:0:
349,332,90985,2,0,P|346:294|359:260,1,75
289,171,91187,6,0,L|326:166,3,37.5
349,332,91390,2,0,P|346:294|359:260,1,75
429,197,91593,2,0,L|506:188,1,75,8|0,0:0|0:0,0:0:0:0:
363,162,91795,2,0,L|289:171,1,75
149,145,91998,6,0,L|187:140,1,37.5,4|0,0:0|0:0,0:0:0:0:
256,90,92200,1,0,0:0:0:0:
64,323,92404,6,0,L|78:287,1,37.5,0|0,0:3|0:3,0:3:0:0:
69,202,92606,2,0,P|28:214|3:244,1,75
77,127,92809,5,4,0:0:0:0:
149,145,92910,1,0,0:0:0:0:
77,127,93214,5,8,0:0:0:0:
221,163,93315,1,0,0:0:0:0:
221,163,93620,6,0,B|276:177|276:177|371:163,1,150
279,94,93924,1,0,0:0:0:0:
337,250,94025,2,0,B|412:237|412:237|381:259|370:305,1,150,8|0,0:0|0:0,0:0:0:0:
469,197,94329,1,0,0:0:0:0:
423,110,94431,6,0,L|414:73,2,37.5
279,94,94633,2,0,L|270:57,2,37.5
135,78,94836,2,0,L|126:41,2,37.5,8|0|0,0:0|0:0|0:0,0:0:0:0:
27,207,95039,2,0,L|18:170,1,37.5
41,217,95140,2,0,L|32:180,1,37.5
55,227,95241,2,0,L|46:190,1,37.5
69,237,95343,2,0,L|60:200,1,37.5
13,297,95444,6,0,P|82:317|140:274,1,150,0|8,0:0|0:0,0:0:0:0:
174,345,95748,2,0,P|218:280|191:213,1,150
316,217,96052,6,0,P|294:286|338:345,1,150,4|0,0:0|0:0,0:0:0:0:
371,273,96356,1,0,0:0:0:0:
359,170,96458,2,0,P|319:174|288:158,1,75,8|0,0:0|0:0,0:0:0:0:
153,170,96660,2,0,P|193:174|224:158,1,75
87,102,96863,2,0,P|59:170|87:237,1,150
174,77,97167,1,0,0:0:0:0:
108,16,97268,2,0,L|28:11,1,75,8|0,0:0|0:0,0:0:0:0:
248,72,97471,2,0,L|168:77,1,75
404,16,97674,5,4,0:0:0:0:
256,345,98079,1,0,0:0:0:0:
108,16,98485,1,0,0:0:0:0:
447,309,98890,1,8,0:0:0:0:
65,309,99295,5,4,0:0:0:0:
203,192,99498,1,0,0:0:0:0:
165,192,99599,1,0,0:0:0:0:
127,192,99701,1,0,0:0:0:0:
256,66,99904,1,0,0:0:0:0:
294,66,100005,1,0,0:0:0:0:
332,66,100107,1,0,0:0:0:0:
480,192,100309,1,0,0:0:0:0:
480,154,100410,1,0,0:0:0:0:
480,116,100512,1,12,0:0:0:0:
354,245,100715,1,0,0:0:0:0:
354,283,100816,1,0,0:0:0:0:
354,321,100918,5,4,0:0:0:0:
256,192,101120,1,0,0:0:0:0:
158,321,101322,1,0,0:0:0:0:
256,118,101525,1,8,0:0:0:0:
428,321,101727,5,4,0:0:0:0:
256,44,101931,1,0,0:0:0:0:
84,321,102133,1,0,0:0:0:0:
462,192,102336,1,8,0:0:0:0:
50,192,102539,6,0,L|138:192,1,75
255,43,102741,2,0,L|202:97,1,75
255,340,102944,2,0,L|202:287,1,75
387,192,103147,2,0,L|462:192,1,75
256,192,103349,5,0,0:0:0:0:
180,192,103451,1,0,0:0:0:0:
104,192,103552,1,0,0:0:0:0:
28,192,103654,1,0,0:0:0:0:
28,266,103755,5,0,0:0:0:0:
104,266,103857,1,0,0:0:0:0:
180,266,103958,1,0,0:0:0:0:
256,266,104060,1,0,0:0:0:0:
310,354,104160,6,0,B|359:364|359:364|414:347|414:347|464:360,1,134.999995880127,4|0,0:0|0:0,0:0:0:0:
440,353,104464,1,0,0:0:0:0:
351,283,104566,2,0,P|327:205|357:147,1,134.999995880127,8|0,0:0|0:0,0:0:0:0:
421,217,104870,1,0,0:0:0:0:
257,135,104971,2,0,L|174:126,1,67.4999979400635
421,217,105174,2,0,L|504:208,1,67.4999979400635
245,111,105376,2,0,L|52:90,1,150,8|0,0:0|0:0,0:0:0:0:
1,364,105782,6,0,P|52:312|125:316,1,134.999995880127,4|0,0:0|0:0,0:0:0:0:
212,337,106086,1,0,0:0:0:0:
250,238,106187,2,0,P|266:181|230:94,1,134.999995880127,8|0,0:0|0:0,0:0:0:0:
212,337,106491,1,0,0:0:0:0:
313,329,106593,2,0,L|463:317,1,134.999995880127
125,316,106998,1,12,0:0:0:0:
125,316,107404,6,0,B|111:289|111:289|125:209|125:209|112:177,1,134.999995880127,4|0,0:0|0:0,0:0:0:0:
51,215,107708,1,0,0:0:0:0:
208,192,107809,2,0,B|194:165|194:165|208:85|208:85|195:53,1,134.999995880127,8|0,0:0|0:0,0:0:0:0:
134,91,108113,1,0,0:0:0:0:
274,156,108214,6,0,L|349:148,1,67.4999979400635
341,235,108417,2,0,L|274:228,1,67.4999979400635
453,128,108620,2,0,P|417:191|453:254,1,150,12|0,0:0|0:0,0:0:0:0:
344,308,109025,6,0,L|355:381,1,56.2500021457673,4|0,0:0|0:0,0:0:0:0:
272,340,109228,1,0,0:0:0:0:
160,350,109329,2,0,L|314:335,1,112.500004291535
110,289,109633,5,0,0:0:0:0:
101,286,109684,1,0,0:0:0:0:
92,283,109735,1,0,0:0:0:0:
84,280,109785,1,0,0:0:0:0:
75,277,109836,1,0,0:0:0:0:
15,324,109937,2,0,P|33:271|15:219,1,112.500004291535
11,144,110241,1,0,0:0:0:0:
38,73,110343,1,0,0:0:0:0:
108,48,110444,1,0,0:0:0:0:
182,57,110545,1,0,0:0:0:0:
239,106,110647,6,0,L|397:111,1,150,4|0,0:0|0:0,0:0:0:0:
437,34,110951,1,0,0:0:0:0:
386,196,111052,6,0,L|312:194,1,75,8|0,0:0|0:0,0:0:0:0:
362,31,111255,2,0,L|437:34,1,75
375,220,111458,6,0,L|225:215,1,150
149,212,111762,1,0,0:0:0:0:
306,368,111863,2,0,P|327:334|331:293,1,75,8|0,0:0|0:0,0:0:0:0:
180,299,112066,2,0,P|185:336|206:368,1,75
149,212,112268,6,0,B|103:238|103:238|4:217,1,150,4|0,0:0|0:0,0:0:0:0:
93,155,112572,1,0,0:0:0:0:
36,303,112674,1,8,0:0:0:0:
15,132,112775,2,0,P|72:76|140:89,1,150
351,156,113079,2,0,B|316:174|316:174|200:159,1,150
437,78,113383,2,0,P|467:162|446:223,1,150
306,92,113687,2,0,P|305:56|320:18,1,75,4|0,0:0|0:0,0:0:0:0:
351,267,113890,6,0,B|316:249|316:249|200:264,1,150,4|0,0:0|0:0,0:0:0:0:
150,334,114194,1,0,0:0:0:0:
42,187,114295,2,0,L|31:267,1,75,8|0,0:0|0:0,0:0:0:0:
274,331,114498,2,0,L|263:256,1,75
42,104,114701,2,0,P|107:114|162:58,1,150
85,35,115005,1,0,0:0:0:0:
207,145,115106,2,0,L|281:141,1,75,12|0,0:0|0:0,0:0:0:0:
400,35,115309,2,0,L|326:31,1,75
207,145,115512,6,0,B|291:140|291:140|348:177,1,150,4|0,0:0|0:0,0:0:0:0:
174,150,115816,1,0,0:0:0:0:
390,240,115917,2,0,P|398:276|389:319,1,75,8|0,0:0|0:0,0:0:0:0:
175,223,116120,2,0,P|167:187|176:144,1,75
249,268,116322,2,0,L|93:257,1,150,4|0,0:0|0:0,0:0:0:0:
99,257,116626,1,0,0:0:0:0:
207,145,116728,2,0,L|281:141,1,75,12|0,0:0|0:0,0:0:0:0:
122,56,116931,2,0,L|47:61,1,75,4|0,0:0|0:0,0:0:0:0:
229,166,117133,6,0,L|379:157,1,150,4|0,0:0|0:0,0:0:0:0:
367,83,117437,1,0,0:0:0:0:
467,259,117539,2,0,L|378:250,1,75,8|0,0:0|0:0,0:0:0:0:
267,333,117741,2,0,B|236:340|236:340|190:331,1,75
21,210,117944,5,0,0:0:0:0:
117,184,118079,5,0,0:0:0:0:
206,227,118214,5,0,0:0:0:0:
21,210,118349,2,0,P|9:172|67:76,1,150,8|0,0:0|0:0,0:0:0:0:
84,254,118654,1,0,0:0:0:0:
164,117,118755,6,0,B|220:127|220:127|265:110|265:110|317:117,1,150,4|0,0:0|0:0,0:0:0:0:
213,54,119059,1,0,0:0:0:0:
273,183,119160,1,8,0:0:0:0:
204,309,119262,2,0,P|132:314|82:373,1,150
308,309,119566,2,0,P|380:314|430:373,1,150
256,372,119870,2,0,L|256:221,1,150
357,45,120174,2,0,B|363:85|363:85|357:119,1,75,4|0,0:0|0:0,0:0:0:0:
132,69,120376,6,0,B|179:97|179:97|281:90,1,150,4|0,0:0|0:0,0:0:0:0:
109,52,120681,1,0,0:0:0:0:
357,119,120782,2,0,B|363:85|363:85|357:45,1,75,8|0,0:0|0:0,0:0:0:0:
134,156,120985,2,0,B|139:236,1,75
265,311,121187,2,0,P|187:313|142:370,1,150
292,325,121491,1,0,0:0:0:0:
120,371,121593,2,0,L|38:364,1,75,8|0,0:0|0:0,0:0:0:0:
303,245,121795,2,0,L|377:238,1,75
453,305,121998,6,0,P|477:228|445:165,1,150,4|0,0:0|0:0,0:0:0:0:
349,133,122302,1,0,0:0:0:0:
463,314,122404,6,0,P|487:237|455:174,1,150,8|0,0:0|0:0,0:0:0:0:
359,142,122708,1,0,0:0:0:0:
265,46,122809,6,0,L|349:43,1,75,4|0,0:0|0:0,0:0:0:0:
156,131,123012,2,0,L|240:128,1,75
64,61,123214,5,12,0:0:0:0:
101,55,123316,1,0,0:0:0:0:
24,192,123417,5,4,0:0:0:0:
72,135,123518,1,0,0:0:0:0:
101,348,123620,6,0,L|129:196,1,150,6|0,0:0|0:0,0:0:0:0:
24,314,123924,1,2,0:0:0:0:
191,274,124025,2,0,L|201:352,1,75,10|2,0:1|0:0,0:0:0:0:
311,348,124228,2,0,L|321:274,1,75,2|2,0:0|0:0,0:0:0:0:
429,192,124431,5,2,0:0:0:0:
435,236,124532,1,2,0:0:0:0:
441,280,124633,1,2,0:0:0:0:
447,324,124735,1,2,0:0:0:0:
458,123,124836,2,0,B|431:117|431:117|379:132,1,75,8|0,0:1|0:0,0:0:0:0:
288,65,125039,5,2,0:0:0:0:
243,63,125140,1,2,0:0:0:0:
198,61,125241,1,6,0:0:0:0:
152,59,125343,1,2,0:0:0:0:
103,171,125444,2,0,L|29:168,1,75
216,178,125647,5,10,0:1:0:0:
261,180,125748,1,2,0:0:0:0:
306,182,125849,1,2,0:0:0:0:
352,184,125951,1,2,0:0:0:0:
430,252,126052,1,6,0:0:0:0:
428,116,126154,2,0,P|456:195|428:255,1,150,2|0,0:0|0:0,0:0:0:0:
324,86,126458,2,0,L|334:12,1,75,10|2,0:1|0:0,0:0:0:0:
256,258,126660,6,0,L|264:306,1,37.5,2|2,0:0|0:0,0:0:0:0:
167,349,126863,6,0,P|122:346|77:370,1,89.9999972534181,6|0,0:0|0:0,0:0:0:0:
10,362,127167,1,2,0:0:0:0:
50,136,127268,6,0,P|53:109|47:81,1,56.2500021457673,10|2,0:1|0:0,0:0:0:0:
50,247,127471,2,0,P|53:274|47:302,1,56.2500021457673,2|2,0:0|0:0,0:0:0:0:
139,192,127674,6,0,L|374:192,1,225,2|2,0:0|0:0,0:0:0:0:
447,288,128079,2,0,L|425:362,1,75,10|2,0:1|0:0,0:0:0:0:
234,263,128282,2,0,L|256:192,1,75,2|0,0:0|0:0,0:0:0:0:
73,54,128485,6,0,P|129:46|161:64,1,89.9999972534181,6|2,0:0|0:0,0:0:0:0:
157,323,128687,2,0,P|116:340|73:330,1,89.9999972534181,2|2,0:0|0:0,0:0:0:0:
241,14,128890,2,0,P|286:47|296:83,1,89.9999972534181,10|2,0:1|0:0,0:0:0:0:
110,262,129092,2,0,P|69:244|45:207,1,89.9999972534181,0|2,0:0|0:0,0:0:0:0:
378,150,129295,5,2,0:0:0:0:
499,253,129397,2,0,B|440:241|440:241|380:258|380:258|325:243,1,179.999994506836,2|2,0:0|0:0,0:0:0:0:
133,149,129701,2,0,P|121:107|131:64,1,89.9999972534181,8|2,0:1|0:0,0:0:0:0:
380,64,129904,2,0,P|390:107|378:149,1,89.9999972534181,2|2,0:0|0:0,0:0:0:0:
46,233,130106,6,0,P|156:266|188:368,1,225.000008583069,2|2,0:0|0:0,0:0:0:0:
72,348,130410,1,2,0:0:0:0:
323,362,130512,2,0,P|361:260|466:233,1,225.000008583069,10|2,0:1|0:0,0:0:0:0:
440,348,130816,1,2,0:0:0:0:
256,192,130917,6,0,B|212:179|212:179|145:189,1,112.500004291535,2|2,0:0|0:0,0:0:0:0:
481,129,131120,2,0,B|415:138|415:138|371:125,1,112.500004291535,2|2,0:0|0:0,0:0:0:0:
251,53,131322,6,0,L|184:59,1,56.2500021457673,2|2,0:0|0:0,0:0:0:0:
125,29,131424,2,0,L|92:74,1,56.2500021457673,2|2,0:0|0:0,0:0:0:0:
23,101,131525,2,0,L|28:163,4,56.2500021457673,2|2|2|2|6,0:0|0:0|0:0|0:0|0:0,0:0:0:0:
256,192,131779,12,0,132437,0:0:0:0:
256,192,132539,6,0,L|256:155,7,37.5
192,264,132944,5,0,0:0:0:0:
192,340,133045,1,0,0:0:0:0:
256,304,133147,1,0,0:0:0:0:
320,264,133248,1,0,0:0:0:0:
320,340,133350,5,6,0:0:0:0:
