osu file format v14

[General]
AudioFilename: audio.mp3
AudioLeadIn: 0
PreviewTime: 109025
Countdown: 0
SampleSet: Soft
StackLeniency: 0.7
Mode: 0
LetterboxInBreaks: 0
WidescreenStoryboard: 1

[Editor]
Bookmarks: 133147,133349
DistanceSpacing: 1
BeatDivisor: 1
GridSize: 4
TimelineZoom: 2.999999

[Metadata]
Title:Kami Eno Boutoku
TitleUnicode:神への冒涜
Artist:Universal Sound Team
ArtistUnicode:ユニバーサルサウンドチーム
Creator:P o M u T a
Version:Easy
Source:ミリオンゴッド-神々の系譜-
Tags:pomuta zeus kamigami no keihu keifu gaisen another hades MILLION GOD ORIGINAL SOUND TRACK bros god game slot
BeatmapID:1297960
BeatmapSetID:574469

[Difficulty]
HPDrainRate:2
CircleSize:3
OverallDifficulty:2
ApproachRate:3
SliderMultiplier:0.999999999999998
SliderTickRate:1

[Events]
//Background and Video events
0,0,"Art-of-painting-a-green-animal_1024x768.jpg",0,0
//Break Periods
//Storyboard Layer 0 (Background)
//Storyboard Layer 1 (Fail)
//Storyboard Layer 2 (Pass)
//Storyboard Layer 3 (Foreground)
//Storyboard Layer 4 (Overlay)
//Storyboard Sound Samples

[TimingPoints]
377,405.405405405405,4,2,1,80,1,0
44160,-100,4,2,2,80,0,1
66863,-100,4,2,1,80,0,0
110647,-100,4,2,2,80,0,1
133349,-100,4,2,1,80,0,0

[Colours]
Combo1 : 128,0,121
Combo2 : 13,242,173
Combo3 : 0,179,255
Combo4 : 252,196,3

[HitObjects]
174,90,377,6,0,B|273:104|273:104|371:79|371:79|468:92,1,299.999999999999,6|0,0:0|0:0,0:0:0:0:
474,192,1998,2,0,B|375:178|375:178|277:203|277:203|179:189,1,299.999999999999,2|0,0:0|0:0,0:0:0:0:
94,136,3620,5,6,0:0:0:0:
154,326,4431,1,6,0:0:0:0:
352,350,5241,2,0,P|463:241|407:125,1,299.999999999999,0|8,0:0|0:0,0:0:0:0:
323,78,6863,6,0,B|249:67|249:67|117:99,1,200,4|0,0:0|0:0,0:0:0:0:
31,126,8079,1,8,0:0:0:0:
108,189,8485,2,0,P|211:200|288:301,1,200,0|0,0:0|0:0,0:0:0:0:
326,352,9701,1,8,0:0:0:0:
414,305,10106,6,0,B|430:101,1,200,4|0,0:0|0:0,0:0:0:0:
371,24,11322,1,8,0:0:0:0:
283,73,11728,1,4,0:0:0:0:
114,321,12944,1,2,0:0:0:0:
49,244,13349,6,0,P|29:185|77:50,1,200,4|0,0:0|0:0,0:0:0:0:
169,53,14566,1,8,0:0:0:0:
268,63,14971,2,0,B|330:80|330:80|395:38|395:38|456:51,1,200,0|0,0:0|0:0,0:0:0:0:
504,135,16187,1,8,0:0:0:0:
434,206,16593,6,0,L|421:311,1,99.9999999999998,0|8,0:0|0:0,0:0:0:0:
332,351,17404,2,0,L|320:248,1,99.9999999999998,0|8,0:0|0:0,0:0:0:0:
303,152,18214,2,0,P|139:83|81:252,1,399.999999999999,4|4,0:0|0:0,0:0:0:0:
135,336,20241,6,0,P|74:353|30:337,2,99.9999999999998,8|0|8,0:0|0:0|0:0,0:0:0:0:
200,260,21458,1,0,0:0:0:0:
256,177,21863,2,0,L|256:72,2,99.9999999999998,8|0|8,0:0|0:0|0:0,0:0:0:0:
312,260,23079,6,0,P|415:263|461:183,1,200,0|0,0:0|0:0,0:0:0:0:
472,88,24295,1,8,0:0:0:0:
380,128,24701,2,0,B|322:128|322:128|281:109,1,99.9999999999998,0|8,0:0|0:0,0:0:0:0:
206,173,25512,2,0,B|167:155|167:155|109:155,1,99.9999999999998,4|0,0:0|0:0,0:0:0:0:
30,216,26322,6,0,P|5:175|8:126,1,99.9999999999998,4|8,0:0|0:0,0:0:0:0:
85,61,27133,2,0,L|191:61,1,99.9999999999998,0|8,0:0|0:0,0:0:0:0:
280,91,27944,1,0,0:0:0:0:
378,74,28349,1,8,0:0:0:0:
461,129,28755,2,0,P|473:180|458:234,1,99.9999999999998,0|8,0:0|0:0,0:0:0:0:
374,273,29566,6,0,B|274:252|274:318|175:273,1,200,4|0,0:0|0:0,0:0:0:0:
92,224,30782,1,8,0:0:0:0:
59,129,31187,5,4,0:0:0:0:
234,33,31998,1,0,0:0:0:0:
425,91,32809,1,4,0:0:0:0:
444,290,33620,1,0,0:0:0:0:
252,346,34431,2,0,L|48:314,1,200,4|4,0:0|0:0,0:0:0:0:
212,192,36052,2,0,L|409:161,1,200,0|0,0:0|0:0,0:0:0:0:
256,31,37674,6,0,L|137:49,1,99.9999999999998,4|8,0:0|0:0,0:0:0:0:
60,71,38485,2,0,P|39:130|48:176,1,99.9999999999998,0|8,0:0|0:0,0:0:0:0:
98,249,39295,1,4,0:0:0:0:
196,233,39701,2,0,P|296:223|381:294,1,200,8|12,0:0|0:0,0:0:0:0:
446,346,40917,5,4,0:0:0:0:
496,259,41322,2,0,L|471:54,1,200,8|12,0:0|0:0,0:0:0:0:
376,30,42539,1,4,0:0:0:0:
123,192,43755,1,0,0:0:0:0:
192,264,44160,6,0,P|288:248|364:312,2,200,4|0|4,0:0|0:0|0:0,0:0:0:0:
124,340,46187,1,8,0:0:0:0:
40,288,46593,2,0,L|32:188,1,99.9999999999998,0|8,0:0|0:0,0:0:0:0:
48,88,47404,6,0,P|132:32|228:48,1,200,4|0,0:0|0:0,0:0:0:0:
308,104,48620,1,8,0:0:0:0:
236,176,49025,2,0,P|216:224|224:280,1,99.9999999999998,4|8,0:0|0:0,0:0:0:0:
308,320,49836,2,0,P|359:312|403:276,1,99.9999999999998,4|12,0:0|0:0,0:0:0:0:
444,196,50647,6,0,P|464:96|416:16,2,200,4|0|4,0:0|0:0|0:0,0:0:0:0:
344,192,52674,1,8,0:0:0:0:
244,188,53079,2,0,L|144:200,1,99.9999999999998,0|8,0:0|0:0,0:0:0:0:
56,248,53890,6,0,B|120:292|120:292|244:276,1,200,4|0,0:0|0:0,0:0:0:0:
340,260,55106,1,8,0:0:0:0:
440,244,55512,2,0,L|424:145,1,99.9999999999998,4|8,0:0|0:0,0:0:0:0:
360,68,56322,1,4,0:0:0:0:
284,132,56728,1,12,0:0:0:0:
236,44,57133,6,0,P|136:32|56:92,1,200,6|2,0:0|0:0,0:0:0:0:
24,180,58349,1,8,0:1:0:0:
120,208,58755,2,0,P|220:196|300:256,1,200,6|6,0:0|0:0,0:0:0:0:
332,344,59971,1,10,0:1:0:0:
428,316,60376,6,0,B|456:272|456:272|456:216,1,99.9999999999998,6|10,0:0|0:1,0:0:0:0:
380,156,61187,2,0,B|332:156|332:156|288:128,1,99.9999999999998,2|10,0:0|0:1,0:0:0:0:
256,32,61998,1,6,0:0:0:0:
156,48,62404,1,10,0:1:0:0:
56,64,62809,2,0,P|32:112|36:160,1,99.9999999999998,2|8,0:0|0:1,0:0:0:0:
124,204,63620,5,2,0:0:0:0:
220,172,64025,1,10,0:1:0:0:
312,212,64431,1,2,0:0:0:0:
316,312,64836,2,0,B|364:328|364:328|412:304,1,99.9999999999998,2|6,0:0|0:0,0:0:0:0:
24,192,66863,6,0,B|123:178|123:178|221:203|221:203|318:190,1,299.999999999999,6|0,0:0|0:0,0:0:0:0:
324,90,68484,2,0,B|225:104|225:104|127:79|127:79|29:93,1,299.999999999999,2|0,0:0|0:0,0:0:0:0:
24,192,70106,5,6,0:0:0:0:
196,292,70917,1,6,0:0:0:0:
380,212,71728,2,0,L|368:108,2,99.9999999999998,0|0|0,0:0|0:0|0:0,0:0:0:0:
456,276,72944,1,8,0:0:0:0:
376,336,73349,6,0,B|304:316|304:316|180:340,1,200,4|0,0:0|0:0,0:0:0:0:
80,340,74566,1,8,0:0:0:0:
12,264,74971,2,0,P|20:168|104:116,1,200,0|0,0:0|0:0,0:0:0:0:
201,117,76187,1,8,0:0:0:0:
257,199,76593,6,0,P|265:295|346:346,1,200,4|0,0:0|0:0,0:0:0:0:
445,329,77809,1,8,0:0:0:0:
502,247,78214,1,4,0:0:0:0:
256,74,79431,1,2,0:0:0:0:
164,32,79836,6,0,P|92:47|54:165,1,200,4|0,0:0|0:0,0:0:0:0:
134,211,81052,1,8,0:0:0:0:
222,163,81458,2,0,B|285:130|285:130|418:158,1,200,0|0,0:0|0:0,0:0:0:0:
484,225,82674,1,8,0:0:0:0:
420,301,83079,6,0,B|385:317|385:317|311:298,1,99.9999999999998,4|8,0:0|0:0,0:0:0:0:
228,276,83890,2,0,B|168:260|168:260|133:276,1,99.9999999999998,0|8,0:0|0:0,0:0:0:0:
41,317,84701,2,0,P|28:165|234:109,1,399.999999999999,4|4,0:0|0:0,0:0:0:0:
287,192,86728,6,0,L|387:192,2,99.9999999999998,8|0|8,0:0|0:0|0:0,0:0:0:0:
233,275,87944,1,0,0:0:0:0:
150,331,88349,1,8,0:0:0:0:
50,321,88755,2,0,P|25:268|34:210,1,99.9999999999998,0|8,0:0|0:0,0:0:0:0:
89,149,89566,6,0,B|186:114|186:198|282:149,1,200,0|0,0:0|0:0,0:0:0:0:
362,90,90782,1,8,0:0:0:0:
452,132,91187,2,0,P|486:183|473:237,1,99.9999999999998,0|8,0:0|0:0,0:0:0:0:
415,293,91998,2,0,B|374:279|374:279|308:299,1,99.9999999999998,4|0,0:0|0:3,0:0:0:0:
227,334,92809,6,0,L|119:323,1,99.9999999999998,4|8,0:0|0:0,0:0:0:0:
69,242,93620,2,0,L|177:231,1,99.9999999999998,0|8,0:0|0:0,0:0:0:0:
267,217,94431,1,0,0:0:0:0:
334,143,94836,1,8,0:0:0:0:
283,56,95241,2,0,P|231:44|176:62,1,99.9999999999998,0|8,0:0|0:0,0:0:0:0:
109,119,96052,6,0,P|59:217|99:300,1,200,4|0,0:0|0:0,0:0:0:0:
170,355,97268,1,8,0:0:0:0:
256,304,97674,5,4,0:0:0:0:
422,192,98485,1,0,0:0:0:0:
256,80,99295,1,4,0:0:0:0:
90,192,100106,1,0,0:0:0:0:
256,304,100917,6,0,L|461:275,1,200,4|4,0:0|0:0,0:0:0:0:
271,192,102539,2,0,L|66:163,1,200,0|0,0:0|0:0,0:0:0:0:
243,59,104160,2,0,B|295:69|295:69|349:61,1,99.9999999999998,4|8,0:0|0:0,0:0:0:0:
423,120,104971,2,0,B|413:172|413:172|421:226,1,99.9999999999998,0|8,0:0|0:0,0:0:0:0:
437,317,105782,1,4,0:0:0:0:
342,285,106187,2,0,P|254:244|158:275,1,200,8|12,0:0|0:0,0:0:0:0:
84,339,107404,5,4,0:0:0:0:
31,253,107809,2,0,P|18:143|72:71,1,200,8|12,0:0|0:0,0:0:0:0:
156,28,109025,1,4,0:0:0:0:
447,100,110241,1,0,0:0:0:0:
379,174,110647,6,0,B|312:185|312:185|239:158|239:158|173:166,2,200,4|0|4,0:0|0:0|0:0,0:0:0:0:
476,197,112674,1,8,0:0:0:0:
410,272,113079,2,0,L|311:290,1,99.9999999999998,0|8,0:0|0:0,0:0:0:0:
259,375,113890,6,0,P|215:288|266:202,1,200,4|0,0:0|0:0,0:0:0:0:
352,164,115106,1,12,0:0:0:0:
417,87,115512,2,0,P|358:62|308:73,1,99.9999999999998,4|8,0:0|0:0,0:0:0:0:
234,111,116322,1,4,0:0:0:0:
134,100,116728,1,12,0:0:0:0:
34,89,117133,6,0,P|12:137|25:194,1,99.9999999999998,4|8,0:0|0:0,0:0:0:0:
105,233,117944,2,0,P|153:226|198:248,1,99.9999999999998,0|8,0:0|0:0,0:0:0:0:
273,313,118755,2,0,P|367:321|432:240,2,200,4|0|4,0:0|0:0|0:0,0:0:0:0:
198,248,120782,6,0,L|89:259,2,99.9999999999998,8|0|8,0:0|0:0|0:0,0:0:0:0:
256,166,121998,2,0,L|355:176,1,99.9999999999998,4|8,0:0|0:0,0:0:0:0:
432,239,122809,2,0,P|456:194|453:146,1,99.9999999999998,4|12,0:0|0:0,0:0:0:0:
406,57,123620,6,0,P|312:31|220:72,1,200,6|2,0:0|0:0,0:0:0:0:
153,144,124836,1,8,0:1:0:0:
205,229,125241,2,0,L|206:349,1,99.9999999999998,6|10,0:0|0:1,0:0:0:0:
306,328,126052,2,0,L|307:229,1,99.9999999999998,6|10,0:0|0:1,0:0:0:0:
359,144,126863,6,0,P|408:150|464:135,2,99.9999999999998,6|10|2,0:0|0:1|0:0,0:0:0:0:
269,99,128079,1,10,0:1:0:0:
179,54,128485,2,0,P|81:81|32:258,1,299.999999999999,6|8,0:0|0:1,0:0:0:0:
99,328,130106,6,0,L|209:314,1,99.9999999999998,2|10,0:0|0:1,0:0:0:0:
296,294,130917,1,2,0:0:0:0:
388,255,131322,1,2,0:0:0:0:
476,301,131728,1,6,0:0:0:0:
90,192,133350,5,6,0:0:0:0:
