osu file format v14

[General]
AudioFilename: kekkaisensenbbb.mp3
AudioLeadIn: 1500
PreviewTime: 65565
Countdown: 0
SampleSet: None
StackLeniency: 0.6
Mode: 0
LetterboxInBreaks: 0
WidescreenStoryboard: 1

[Editor]
DistanceSpacing: 1.5
BeatDivisor: 4
GridSize: 32
TimelineZoom: 2.1

[Metadata]
Title:Sugar Song to Bitter Step
TitleUnicode:シュガーソングとビターステップ
Artist:UNISON SQUARE GARDEN
ArtistUnicode:UNISON SQUARE GARDEN
Creator:Octoling
Version:Normal
Source:血界戦線
Tags:Blood Blockade Battlefront Kekkai Sensen Ending Leonardo Watch Femt Aligura
BeatmapID:1513690
BeatmapSetID:715368

[Difficulty]
HPDrainRate:3
CircleSize:3.3
OverallDifficulty:3
ApproachRate:5
SliderMultiplier:1.2
SliderTickRate:1

[Events]
//Background and Video events
Video,0,"optc.flv"
0,0,"bbb2.png",0,0
//Break Periods
//Storyboard Layer 0 (Background)
//Storyboard Layer 1 (Fail)
//Storyboard Layer 2 (Pass)
//Storyboard Layer 3 (Foreground)
//Storyboard Sound Samples

[TimingPoints]
111,454.545454545455,4,3,0,80,1,0
43747,-100,4,3,0,80,0,1
58292,-100,4,3,0,80,0,0
63633,-100,4,3,0,40,0,0
64088,-100,4,3,0,50,0,0
64542,-100,4,3,0,60,0,0
64997,-100,4,3,0,70,0,0
65451,-100,4,3,0,80,0,0
65565,-100,4,3,0,80,0,1
85565,-100,4,3,0,80,0,0

[Colours]
Combo1 : 4,22,106
Combo2 : 23,104,86

[HitObjects]
62,54,111,6,8,L|78:195,1,120,6|8,2:2|2:2,0:0:0:0:
90,261,792,1,0,2:2:0:0:
176,236,1020,2,8,P|285:216|325:242,1,120,8|0,2:2|0:0,0:0:0:0:
367,261,1701,1,0,0:0:0:0:
450,295,1929,6,0,L|446:185,1,60,0|0,0:0|2:2,0:0:0:0:
444,142,2383,1,8,2:2:0:0:
437,52,2611,1,0,2:2:0:0:
349,73,2838,2,0,L|255:89,2,60,8|0|6,2:2|2:2|2:2,0:0:0:0:
446,224,3747,6,8,P|400:250|316:254,1,120,8|8,2:2|2:2,0:0:0:0:
244,245,4429,1,0,0:0:0:0:
155,230,4656,2,8,L|24:216,2,120,0|8|0,0:0|2:2|0:0,0:0:0:0:
244,245,5792,1,0,2:2:0:0:
333,239,6020,6,0,L|349:160,1,60,8|0,2:2|2:2,0:0:0:0:
415,123,6474,2,0,L|426:181,1,60,0|0,0:0|2:2,0:0:0:0:
450,268,6929,6,8,P|397:322|305:313,1,120,6|10,2:2|2:2,0:0:0:0:
272,294,7611,1,0,2:2:0:0:
187,324,7838,2,8,P|130:308|92:262,1,120,8|10,2:2|2:2,0:0:0:0:
65,176,8520,1,0,2:2:0:0:
90,89,8747,6,8,L|224:69,1,120,8|2,2:2|2:2,0:0:0:0:
298,58,9429,2,0,L|357:67,2,60,0|8|0,2:2|2:2|2:2,0:0:0:0:
209,43,10111,1,2,2:2:0:0:
120,24,10338,1,0,2:2:0:0:
64,197,10792,6,8,P|62:239|77:281,1,60,0|10,2:2|2:2,0:0:0:0:
96,340,11247,1,0,2:2:0:0:
161,278,11474,2,8,P|247:277|271:257,1,120,2|0,2:2|0:0,0:0:0:0:
312,178,12156,1,8,2:2:0:0:
360,101,12383,2,8,P|471:99|492:127,1,120,2|8,2:2|2:2,0:0:0:0:
490,185,13065,6,0,L|499:272,2,60,0|0|0,2:2|0:0|2:2,0:0:0:0:
429,118,13747,2,8,P|374:99|314:130,1,120,2|10,2:2|2:2,0:0:0:0:
239,164,14429,1,2,2:2:0:0:
261,251,14656,6,8,L|113:245,2,120,8|8|8,2:2|2:2|2:2,0:0:0:0:
350,258,15792,1,0,2:2:0:0:
440,262,16020,2,8,P|410:326|327:349,1,120,8|0,2:2|0:0,0:0:0:0:
280,365,16701,2,0,L|182:355,1,60,0|8,2:2|2:2,0:0:0:0:
135,329,17156,1,0,2:2:0:0:
47,313,17383,2,8,P|26:251|42:169,1,120,2|8,2:2|2:2,0:0:0:0:
62,112,18065,1,0,2:2:0:0:
138,63,18292,6,8,B|202:85|201:31|292:78,1,120,8|8,2:2|2:2,0:0:0:0:
290,145,18974,1,0,0:0:0:0:
321,229,19201,2,0,P|307:294|318:329,2,60,0|0|8,0:0|2:2|2:2,0:0:0:0:
375,52,20111,6,8,L|236:64,1,120,0|8,0:0|2:2,0:0:0:0:
165,70,20792,1,0,0:0:0:0:
75,80,21020,2,8,P|63:141|87:219,1,120,0|2,0:0|2:2,0:0:0:0:
141,257,21701,1,0,2:2:0:0:
187,179,21929,6,2,P|269:161|322:200,1,120,10|2,2:2|2:2,0:0:0:0:
347,250,22611,1,0,2:2:0:0:
401,321,22838,6,2,P|469:238|476:198,1,120,10|2,2:2|2:2,0:0:0:0:
484,140,23520,1,0,2:2:0:0:
441,60,23747,2,2,P|368:47|346:64,2,60,8|0|10,2:2|2:2|2:2,0:0:0:0:
484,140,24429,1,0,2:2:0:0:
471,229,24656,2,0,L|372:223,1,60,8|0,2:2|2:2,0:0:0:0:
241,209,25338,5,0,2:2:0:0:
242,119,25565,2,8,P|304:143|330:197,1,120,8|8,2:2|2:2,0:0:0:0:
308,267,26247,1,0,2:2:0:0:
218,254,26474,6,0,L|158:245,1,60,8|0,2:2|0:0,0:0:0:0:
148,155,26929,2,0,L|82:165,1,60,8|0,2:2|2:2,0:0:0:0:
17,219,27383,2,8,P|33:292|53:309,2,60,2|8|2,2:2|2:2|2:2,0:0:0:0:
17,128,28065,1,0,0:0:0:0:
60,49,28292,2,8,P|141:77|186:52,1,120,10|0,2:2|2:2,0:0:0:0:
331,55,29201,6,8,B|264:169|379:166|291:307,1,240,0|6,2:2|2:2,0:0:0:0:
218,282,31020,2,8,P|287:365|387:299,1,240,0|6,2:2|2:2,0:0:0:0:
384,309,32383,6,0,L|401:202,1,60,2|0,2:2|0:0,0:0:0:0:
416,160,32838,1,10,2:2:0:0:
320,128,33065,1,0,2:2:0:0:
256,64,33292,1,10,2:2:0:0:
192,128,33520,1,0,2:2:0:0:
96,160,33747,2,8,L|0:166,2,60,10|0|0,2:2|2:2|2:2,0:0:0:0:
416,224,34656,5,10,2:2:0:0:
320,256,34883,1,0,2:2:0:0:
256,320,35111,1,10,2:2:0:0:
192,256,35338,1,0,2:2:0:0:
107,226,35565,2,8,L|12:219,2,60,10|0|0,2:2|2:2|2:2,0:0:0:0:
186,267,36247,5,0,2:2:0:0:
257,321,36474,2,2,P|321:302|337:241,1,120,2|2,2:2|2:2,0:0:0:0:
336,160,37383,2,2,P|310:107|254:95,1,120,2|2,2:2|2:2,0:0:0:0:
160,96,38292,2,2,P|103:108|78:160,1,120,6|2,2:2|2:2,0:0:0:0:
80,256,39201,2,2,P|105:308|161:320,1,120,8|8,2:2|2:2,0:0:0:0:
244,284,39883,5,0,2:2:0:0:
325,323,40111,2,8,P|448:316|288:214,1,480,8|10,2:2|2:2,0:0:0:0:
297,201,43747,6,8,L|399:217,2,60,8|0|8,2:2|2:2|2:2,0:0:0:0:
208,185,44429,1,0,2:2:0:0:
119,168,44656,2,8,P|129:85|197:28,1,120,8|0,2:2|0:0,0:0:0:0:
233,23,45338,6,0,P|267:123|328:136,1,120,0|0,2:2|2:2,0:0:0:0:
351,169,46020,1,8,2:2:0:0:
388,251,46247,1,0,2:2:0:0:
354,334,46474,2,8,L|217:325,1,120,8|0,2:2|0:0,0:0:0:0:
144,318,47156,5,0,2:2:0:0:
190,241,47383,2,8,L|249:245,2,60,10|0|10,2:2|2:2|2:2,0:0:0:0:
113,192,48065,2,0,L|53:196,2,60,0|10|0,2:2|2:2|2:2,0:0:0:0:
191,147,48747,2,0,L|250:151,1,60,10|0,2:2|2:2,0:0:0:0:
303,224,49201,6,0,P|336:177|336:161,1,60,8|0,2:2|2:2,0:0:0:0:
335,64,49656,2,0,P|384:97|399:96,1,60,8|0,2:2|2:2,0:0:0:0:
495,97,50111,2,0,P|464:145|463:161,1,60,8|0,2:2|2:2,0:0:0:0:
463,256,50565,2,0,P|416:225|399:224,1,60,0|0,0:0|2:2,0:0:0:0:
335,176,51020,5,10,2:2:0:0:
245,178,51247,2,0,L|235:237,2,60,0|8|0,2:2|2:2|2:2,0:0:0:0:
240,89,51929,2,8,P|189:47|113:90,1,120,8|0,2:2|0:0,0:0:0:0:
56,89,52611,2,0,P|98:152|86:235,1,120,0|0,2:2|2:2,0:0:0:0:
85,282,53292,5,10,2:2:0:0:
168,249,53520,1,0,2:2:0:0:
252,278,53747,2,8,L|261:370,2,60,10|0|0,2:2|2:2|0:0,0:0:0:0:
244,188,54429,1,0,2:2:0:0:
318,137,54656,6,8,P|400:145|431:221,1,120,10|8,2:2|2:2,0:0:0:0:
351,226,55338,1,0,0:0:0:0:
338,315,55565,2,8,L|217:298,1,120,0|8,0:0|2:2,0:0:0:0:
133,292,56247,1,0,2:2:0:0:
46,268,56474,6,8,L|33:347,2,60,0|0|8,0:0|0:0|2:2,0:0:0:0:
63,179,57156,2,0,L|137:190,1,60,0|0,0:0|0:0,0:0:0:0:
211,204,57611,2,0,P|276:200|243:114,1,180,0|14,2:2|2:2,0:0:0:0:
254,119,58747,5,14,2:2:0:0:
87,188,59201,1,14,2:2:0:0:
140,311,59542,5,8,2:2:0:0:
225,341,59770,1,8,2:2:0:0:
316,341,59997,2,0,P|381:274|384:262,1,90,8|0,2:2|2:2,0:0:0:0:
378,280,61247,6,0,L|382:218,1,60,8|6,2:2|2:2,0:0:0:0:
415,108,61929,6,8,L|500:114,2,60,0|0|0,2:2|2:2|2:2,0:0:0:0:
324,101,62611,2,0,L|264:96,2,60,0|0|0,2:2|0:0|2:2,0:0:0:0:
415,108,63292,1,0,2:2:0:0:
478,171,63520,1,0,2:2:0:0:
413,233,63747,6,2,P|353:235|295:250,1,120,2|2,2:2|2:2,0:0:0:0:
215,290,64429,1,0,0:0:0:0:
131,322,64656,2,2,P|138:233|162:172,1,120,2|2,2:2|2:2,0:0:0:0:
163,115,65338,1,0,0:0:0:0:
229,167,65565,6,8,L|244:255,2,60,8|0|8,2:2|2:2|2:2,0:0:0:0:
212,78,66247,1,0,2:2:0:0:
262,3,66474,2,8,P|308:60|368:85,1,120,8|0,2:2|0:0,0:0:0:0:
438,70,67156,6,0,P|443:146|402:210,1,120,0|0,2:2|2:2,0:0:0:0:
382,263,67838,1,8,2:2:0:0:
304,309,68065,2,0,L|317:392,2,60,0|8|0,2:2|2:2|2:2,0:0:0:0:
293,216,68747,1,0,0:0:0:0:
293,216,68974,5,0,2:2:0:0:
215,261,69201,1,10,2:2:0:0:
127,245,69429,1,0,2:2:0:0:
69,176,69656,1,10,2:2:0:0:
69,86,69883,1,0,2:2:0:0:
127,18,70111,1,10,2:2:0:0:
215,3,70338,1,0,2:2:0:0:
293,47,70565,1,10,2:2:0:0:
324,132,70792,1,0,2:2:0:0:
292,216,71020,6,8,L|274:296,2,60,14|0|14,2:2|2:2|2:2,0:0:0:0:
337,138,71701,1,0,2:2:0:0:
400,74,71929,2,8,L|477:63,2,60,8|0|0,2:2|2:2|0:0,0:0:0:0:
292,216,72838,6,8,L|370:228,2,60,8|0|8,2:2|2:2|2:2,0:0:0:0:
245,138,73520,1,0,2:2:0:0:
162,101,73747,2,8,P|109:156|119:219,1,120,8|0,2:2|0:0,0:0:0:0:
137,280,74429,6,8,P|221:274|280:319,1,120,0|0,2:2|2:2,0:0:0:0:
329,333,75111,1,10,2:2:0:0:
387,264,75338,2,0,L|398:193,1,60,0|10,2:2|2:2,0:0:0:0:
312,170,75792,2,0,L|299:85,1,60,0|0,2:2|0:0,0:0:0:0:
281,23,76247,5,2,2:2:0:0:
192,39,76474,2,8,P|118:69|97:154,1,120,6|10,2:2|2:2,0:0:0:0:
78,189,77156,1,0,2:2:0:0:
165,166,77383,2,8,P|232:170|257:252,1,120,0|10,0:0|2:2,0:0:0:0:
249,299,78065,5,0,0:0:0:0:
168,339,78292,2,8,L|107:352,2,60,0|0|10,0:0|2:2|2:2,0:0:0:0:
249,299,78974,2,0,P|295:231|357:214,1,120,0|0,0:0|2:2,0:0:0:0:
417,221,79656,2,8,P|397:159|313:128,1,120,0|14,2:2|2:2,0:0:0:0:
173,138,80565,5,14,2:2:0:0:
298,262,81020,2,8,L|295:122,1,120,10|0,2:2|0:0,0:0:0:0:
315,54,81701,1,0,0:0:0:0:
403,37,81929,6,0,L|411:110,1,60,0|0,0:0|2:2,0:0:0:0:
326,131,82383,2,0,L|319:190,1,60,8|0,2:2|2:2,0:0:0:0:
401,227,82838,2,0,L|409:300,1,60,0|0,0:0|2:2,0:0:0:0:
333,337,83292,2,0,L|260:329,1,60,8|0,2:2|2:2,0:0:0:0:
184,315,83747,6,8,P|190:242|153:188,1,120,2|10,2:2|2:2,0:0:0:0:
87,162,84429,1,0,2:2:0:0:
134,85,84656,2,8,P|193:71|246:127,1,120,10|0,2:2|0:0,0:0:0:0:
256,192,85565,12,2,86929,2:2:0:0:
