osu file format v14

[General]
AudioFilename: audio.mp3
AudioLeadIn: 0
PreviewTime: 41822
Countdown: 0
SampleSet: None
StackLeniency: 0.7
Mode: 3
LetterboxInBreaks: 0
SpecialStyle: 0
WidescreenStoryboard: 1

[Editor]
DistanceSpacing: 1.3
BeatDivisor: 4
GridSize: 4
TimelineZoom: 0.468

[Metadata]
Title:Sugar Song to Bitter Step
TitleUnicode:シュガーソングとビターステップ
Artist:UNISON SQUARE GARDEN
ArtistUnicode:UNISON SQUARE GARDEN
Creator:Exilis
Version:Advanced
Source:血界戦線
Tags:Blood Blockade Battlefront Kekkai Sensen Ending 4K
BeatmapID:1155442
BeatmapSetID:545365

[Difficulty]
HPDrainRate:7.5
CircleSize:4
OverallDifficulty:7.2
ApproachRate:5
SliderMultiplier:1
SliderTickRate:1

[Events]
//Background and Video events
Video,0,"videoED.flv"
0,0,"BG 1920-1080.jpg",0,0
//Break Periods
//Storyboard Layer 0 (Background)
//Storyboard Layer 1 (Fail)
//Storyboard Layer 2 (Pass)
//Storyboard Layer 3 (Foreground)
//Storyboard Sound Samples

[TimingPoints]
118,454.545454545455,4,3,0,60,1,0
30118,-62.5,4,3,0,60,0,0
30572,-200,4,3,0,60,0,0
30913,-100,4,3,0,60,0,0
31027,-100,4,3,0,60,0,0
31936,-76.9230769230769,4,3,0,60,0,0
32390,-250,4,3,0,60,0,0
32845,-100,4,3,0,35,0,0
36481,-100,4,3,0,60,0,0
41936,-62.5,4,3,0,60,0,0
42390,-142.857142857143,4,3,0,60,0,0
42618,-100,4,3,0,60,0,0
42845,-86.9565217391304,4,3,0,60,0,0
43299,-76.9230769230769,4,3,0,60,0,0
43754,-100,4,3,0,60,0,1
58299,-100,4,3,0,60,0,0
60345,-62.5,4,3,0,60,0,0
61027,-142.857142857143,4,3,0,60,0,0
61254,-100,4,3,0,60,0,0
65572,-100,4,3,0,60,0,1
85572,-100,4,3,0,60,0,0

[HitObjects]
64,192,118,5,4,0:1:0:0:
448,192,118,1,4,0:2:0:0:
320,192,345,1,0,0:0:0:0:
192,192,572,1,0,1:0:0:0:
448,192,572,1,0,0:0:0:0:
64,192,799,1,0,0:0:0:0:
192,192,1027,1,0,0:0:0:0:
320,192,1254,1,0,0:0:0:0:
192,192,1481,1,0,0:0:0:0:
64,192,1481,1,0,1:0:0:0:
448,192,1708,1,0,0:0:0:0:
320,192,1936,1,0,0:0:0:0:
192,192,2163,1,0,0:0:0:0:
448,192,2390,1,0,1:0:0:0:
320,192,2390,1,0,0:0:0:0:
64,192,2618,1,0,0:0:0:0:
448,192,2845,1,0,0:0:0:0:
192,192,3072,1,0,0:0:0:0:
448,192,3299,1,0,0:0:0:0:
64,192,3299,1,0,1:0:0:0:
320,192,3527,1,0,0:0:0:0:
64,192,3754,1,0,0:0:0:0:
192,192,3981,1,0,0:0:0:0:
320,192,4208,1,0,1:0:0:0:
448,192,4208,1,0,0:0:0:0:
64,192,4436,1,0,0:0:0:0:
192,192,4663,1,0,0:0:0:0:
320,192,4890,1,0,0:0:0:0:
64,192,5118,1,0,0:0:0:0:
192,192,5118,1,0,1:0:0:0:
448,192,5345,1,0,0:0:0:0:
320,192,5572,1,0,0:0:0:0:
192,192,5799,1,0,0:0:0:0:
448,192,6027,1,0,1:0:0:0:
320,192,6027,1,0,0:0:0:0:
64,192,6254,1,0,0:0:0:0:
192,192,6481,1,0,0:0:0:0:
320,192,6708,1,0,0:0:0:0:
64,192,6936,1,0,0:0:0:0:
192,192,6936,1,0,1:0:0:0:
320,192,7163,1,0,2:0:0:0:
192,192,7277,1,0,2:0:0:0:
64,192,7390,1,0,0:0:0:0:
320,192,7618,1,0,0:0:0:0:
64,192,7845,1,0,1:0:0:0:
448,192,7845,1,0,0:0:0:0:
192,192,8072,1,0,2:0:0:0:
320,192,8186,1,0,2:0:0:0:
448,192,8299,1,0,0:0:0:0:
64,192,8527,1,0,0:0:0:0:
448,192,8754,1,0,0:0:0:0:
192,192,8754,1,0,1:0:0:0:
320,192,8981,1,0,0:0:0:0:
64,192,9208,1,0,0:0:0:0:
192,192,9436,1,0,0:0:0:0:
448,192,9663,1,0,1:0:0:0:
320,192,9663,1,0,0:0:0:0:
64,192,9890,1,0,0:0:0:0:
192,192,10118,1,0,0:0:0:0:
320,192,10345,1,0,0:0:0:0:
192,192,10572,1,0,0:0:0:0:
64,192,10572,1,0,1:0:0:0:
320,192,10799,1,0,0:0:0:0:
64,192,11027,1,0,0:0:0:0:
448,192,11254,1,0,0:0:0:0:
320,192,11481,1,0,1:0:0:0:
192,192,11481,1,0,0:0:0:0:
64,192,11708,1,0,0:0:0:0:
448,192,11936,1,0,0:0:0:0:
192,192,12163,1,0,0:0:0:0:
320,192,12390,1,0,0:0:0:0:
64,192,12390,1,0,1:0:0:0:
448,192,12618,1,0,0:0:0:0:
192,192,12845,1,0,0:0:0:0:
64,192,12845,1,0,1:0:0:0:
320,192,13072,1,0,1:0:0:0:
448,192,13072,1,0,0:0:0:0:
64,192,13299,1,0,1:0:0:0:
192,192,13299,1,0,0:0:0:0:
448,192,13413,1,0,0:0:0:0:
320,192,13413,1,0,1:0:0:0:
64,192,13527,1,8,0:0:0:0:
192,192,13640,1,8,0:0:0:0:
448,192,13754,128,0,14095:1:0:0:0:
320,192,13754,1,8,0:0:0:0:
192,192,14095,1,8,0:0:0:0:
320,192,14208,1,8,0:0:0:0:
448,192,14322,1,8,0:0:0:0:
64,192,14436,1,8,0:0:0:0:
192,192,14663,1,4,0:1:0:0:
448,192,14663,1,0,0:0:0:0:
320,192,14777,1,0,0:0:0:0:
192,192,14890,1,0,0:0:0:0:
64,192,15004,1,0,0:0:0:0:
448,192,15118,1,0,1:0:0:0:
320,192,15118,1,0,0:0:0:0:
192,192,15345,1,0,0:0:0:0:
64,192,15572,1,0,0:0:0:0:
192,192,15686,1,0,0:0:0:0:
320,192,15799,1,0,0:0:0:0:
448,192,15913,1,0,0:0:0:0:
64,192,16027,1,0,0:0:0:0:
192,192,16027,1,0,1:0:0:0:
320,192,16254,1,0,0:0:0:0:
64,192,16481,1,0,0:0:0:0:
192,192,16595,1,0,0:0:0:0:
448,192,16708,1,0,0:0:0:0:
320,192,16822,1,0,0:0:0:0:
448,192,16936,1,0,1:0:0:0:
192,192,16936,1,0,0:0:0:0:
64,192,17163,1,0,0:0:0:0:
448,192,17390,1,0,0:0:0:0:
320,192,17504,1,0,0:0:0:0:
64,192,17618,1,0,0:0:0:0:
192,192,17731,1,0,0:0:0:0:
320,192,17845,1,0,0:0:0:0:
64,192,17845,1,0,1:0:0:0:
448,192,18072,1,0,0:0:0:0:
320,192,18299,1,0,0:0:0:0:
448,192,18413,1,0,0:0:0:0:
192,192,18527,1,0,0:0:0:0:
64,192,18640,1,0,0:0:0:0:
448,192,18754,1,0,1:0:0:0:
192,192,18754,1,0,0:0:0:0:
320,192,18981,1,0,0:0:0:0:
192,192,19208,1,0,0:0:0:0:
64,192,19322,1,0,0:0:0:0:
320,192,19436,1,0,0:0:0:0:
448,192,19549,1,0,0:0:0:0:
320,192,19663,1,0,0:0:0:0:
64,192,19663,1,0,1:0:0:0:
448,192,19890,1,0,0:0:0:0:
64,192,20118,1,0,0:0:0:0:
192,192,20231,1,0,0:0:0:0:
320,192,20345,1,0,0:0:0:0:
448,192,20458,1,0,0:0:0:0:
192,192,20572,1,0,1:0:0:0:
320,192,20572,1,0,0:0:0:0:
64,192,20799,1,0,0:0:0:0:
448,192,21027,1,0,0:0:0:0:
320,192,21140,1,0,0:0:0:0:
192,192,21254,1,0,0:0:0:0:
64,192,21368,1,0,0:0:0:0:
320,192,21481,1,0,0:0:0:0:
192,192,21481,1,0,1:0:0:0:
448,192,21708,1,0,0:0:0:0:
64,192,21936,1,0,0:0:0:0:
192,192,22049,1,0,0:0:0:0:
448,192,22163,1,0,0:0:0:0:
320,192,22277,1,0,0:0:0:0:
64,192,22390,1,0,1:0:0:0:
192,192,22390,1,0,0:0:0:0:
320,192,22618,1,0,0:0:0:0:
448,192,22845,1,0,0:0:0:0:
320,192,22958,1,0,0:0:0:0:
64,192,23072,1,0,0:0:0:0:
192,192,23186,1,0,0:0:0:0:
320,192,23299,1,0,0:0:0:0:
448,192,23299,1,0,1:0:0:0:
192,192,23527,1,0,0:0:0:0:
320,192,23754,1,0,0:0:0:0:
448,192,23868,1,0,0:0:0:0:
192,192,23981,1,0,0:0:0:0:
64,192,24095,1,0,0:0:0:0:
448,192,24208,1,0,1:0:0:0:
320,192,24208,1,0,0:0:0:0:
64,192,24436,1,0,0:0:0:0:
192,192,24663,1,0,0:0:0:0:
64,192,24777,1,0,0:0:0:0:
320,192,24890,1,0,0:0:0:0:
448,192,25004,1,0,0:0:0:0:
192,192,25118,1,0,0:0:0:0:
64,192,25118,1,0,1:0:0:0:
448,192,25345,1,0,0:0:0:0:
64,192,25572,1,0,0:0:0:0:
192,192,25686,1,0,0:0:0:0:
320,192,25799,1,0,0:0:0:0:
448,192,25913,1,0,0:0:0:0:
320,192,26027,1,0,1:0:0:0:
64,192,26027,1,0,0:0:0:0:
192,192,26254,1,0,0:0:0:0:
448,192,26481,1,0,0:0:0:0:
320,192,26595,1,0,0:0:0:0:
192,192,26708,1,0,0:0:0:0:
64,192,26822,1,0,0:0:0:0:
448,192,26936,1,0,0:0:0:0:
192,192,26936,1,0,1:0:0:0:
320,192,27163,1,0,0:0:0:0:
192,192,27390,1,0,0:0:0:0:
64,192,27390,1,0,1:0:0:0:
320,192,27504,1,0,0:0:0:0:
64,192,27618,1,0,1:0:0:0:
192,192,27618,1,0,0:0:0:0:
320,192,27845,1,0,1:0:0:0:
448,192,27845,1,0,0:0:0:0:
192,192,27958,1,0,0:0:0:0:
64,192,27958,1,0,1:0:0:0:
320,192,28072,1,8,0:0:0:0:
192,192,28186,1,8,0:0:0:0:
64,192,28299,128,0,28981:1:0:0:0:
320,192,28299,128,0,28640:0:0:0:0:
192,192,28754,1,8,0:0:0:0:
448,192,28868,1,8,0:0:0:0:
320,192,28981,1,8,0:0:0:0:
64,192,29208,1,0,0:0:0:0:
192,192,29208,1,4,0:1:0:0:
448,192,29208,128,4,29436:0:2:0:0:
320,192,29436,1,2,0:0:0:0:
64,192,29436,128,0,29663:0:0:0:0:
192,192,29663,1,2,2:0:0:0:
448,192,29777,128,0,30118:0:0:0:0:
192,192,30118,1,2,0:0:0:0:
320,192,30118,1,0,0:0:0:0:
320,192,31027,1,4,0:1:0:0:
192,192,31027,128,4,31254:0:2:0:0:
448,192,31027,1,0,0:0:0:0:
64,192,31254,1,2,0:0:0:0:
320,192,31254,128,0,31481:0:0:0:0:
448,192,31481,1,2,2:0:0:0:
64,192,31595,128,0,31936:0:0:0:0:
448,192,31936,1,2,0:0:0:0:
192,192,31936,1,0,0:0:0:0:
448,192,32390,1,2,0:2:0:0:
320,192,32845,1,0,1:0:0:0:
448,192,32845,1,0,0:0:0:0:
320,192,33072,1,0,1:0:0:0:
192,192,33299,1,0,1:0:0:0:
320,192,33299,1,0,0:0:0:0:
192,192,33527,1,0,1:0:0:0:
64,192,33754,1,0,1:0:0:0:
192,192,33754,1,0,0:0:0:0:
448,192,33754,128,2,34208:0:2:0:0:
320,192,33981,1,0,1:0:0:0:
64,192,34208,128,2,34663:0:2:0:0:
192,192,34208,1,0,1:0:0:0:
320,192,34208,1,0,0:0:0:0:
192,192,34663,1,0,1:0:0:0:
448,192,34663,1,0,0:0:0:0:
320,192,34890,1,0,1:0:0:0:
64,192,35118,1,0,1:0:0:0:
320,192,35118,1,0,0:0:0:0:
64,192,35345,1,0,1:0:0:0:
448,192,35572,128,2,36027:0:2:0:0:
320,192,35572,1,0,1:0:0:0:
192,192,35572,1,0,0:0:0:0:
320,192,35799,1,0,1:0:0:0:
64,192,36027,128,2,36481:0:2:0:0:
192,192,36027,1,0,1:0:0:0:
320,192,36027,1,0,0:0:0:0:
448,192,36481,128,4,37390:0:1:0:0:
320,192,36481,1,2,0:2:0:0:
192,192,36481,1,0,0:0:0:0:
192,192,36708,1,0,0:0:0:0:
64,192,36936,1,2,0:2:0:0:
320,192,36936,1,0,0:0:0:0:
192,192,37163,1,0,0:0:0:0:
192,192,37390,1,0,0:0:0:0:
64,192,37390,1,2,0:2:0:0:
320,192,37618,1,0,0:0:0:0:
448,192,37845,1,0,0:0:0:0:
64,192,37845,1,2,0:2:0:0:
192,192,38072,1,0,0:0:0:0:
64,192,38299,128,4,39208:0:1:0:0:
448,192,38299,1,0,0:0:0:0:
320,192,38299,1,2,0:2:0:0:
320,192,38527,1,0,0:0:0:0:
448,192,38754,1,0,0:0:0:0:
192,192,38754,1,2,0:2:0:0:
320,192,38981,1,0,0:0:0:0:
320,192,39208,1,0,0:0:0:0:
192,192,39208,1,2,0:2:0:0:
448,192,39436,1,0,0:0:0:0:
64,192,39663,1,2,0:2:0:0:
192,192,39663,1,8,0:0:0:0:
320,192,39777,1,8,0:0:0:0:
448,192,39890,1,0,0:0:0:0:
448,192,40118,1,0,1:0:0:0:
320,192,40118,1,8,0:0:0:0:
192,192,40231,1,8,0:0:0:0:
64,192,40345,1,0,0:0:0:0:
192,192,40572,1,0,1:0:0:0:
448,192,40572,1,0,0:0:0:0:
320,192,40686,1,0,0:0:0:0:
192,192,40799,128,0,41027:0:0:0:0:
448,192,41027,128,0,41481:1:0:0:0:
64,192,41027,1,8,0:0:0:0:
192,192,41140,1,8,0:0:0:0:
320,192,41254,1,8,0:0:0:0:
192,192,41481,1,8,0:0:0:0:
64,192,41481,128,0,41936:0:0:0:0:
448,192,41595,1,8,0:0:0:0:
320,192,41708,1,8,0:0:0:0:
192,192,41822,1,8,0:0:0:0:
64,192,42618,1,8,0:0:0:0:
192,192,42731,1,8,0:0:0:0:
320,192,42845,1,8,0:0:0:0:
448,192,42845,128,0,43299:0:0:0:0:
64,192,43299,128,8,43754:0:0:0:0:
192,192,43299,1,0,0:0:0:0:
320,192,43754,1,0,0:0:0:0:
448,192,43754,1,4,0:1:0:0:
192,192,43981,1,0,0:0:0:0:
64,192,44208,1,0,1:0:0:0:
192,192,44208,1,0,0:0:0:0:
320,192,44436,1,0,0:0:0:0:
448,192,44663,1,0,0:0:0:0:
320,192,44777,1,0,0:0:0:0:
192,192,44890,1,0,0:0:0:0:
320,192,45118,1,0,0:0:0:0:
64,192,45118,1,0,1:0:0:0:
192,192,45345,1,0,0:0:0:0:
320,192,45572,1,0,0:0:0:0:
64,192,45799,1,0,0:0:0:0:
448,192,46027,1,0,1:0:0:0:
192,192,46027,1,0,0:0:0:0:
320,192,46254,1,0,0:0:0:0:
64,192,46481,1,0,0:0:0:0:
192,192,46595,1,0,0:0:0:0:
320,192,46708,1,0,0:0:0:0:
192,192,46936,1,0,0:0:0:0:
448,192,46936,1,0,1:0:0:0:
64,192,47163,1,0,0:0:0:0:
320,192,47390,1,0,0:0:0:0:
192,192,47618,1,0,0:0:0:0:
64,192,47845,1,0,1:0:0:0:
320,192,47845,1,0,0:0:0:0:
448,192,48072,1,0,0:0:0:0:
192,192,48299,1,0,0:0:0:0:
64,192,48413,1,0,0:0:0:0:
320,192,48527,1,0,0:0:0:0:
448,192,48754,1,0,0:0:0:0:
64,192,48754,1,0,1:0:0:0:
320,192,48981,1,0,0:0:0:0:
64,192,49208,1,0,0:0:0:0:
192,192,49208,1,0,0:0:0:0:
448,192,49208,128,0,49549:1:0:0:0:
192,192,49663,1,0,0:0:0:0:
64,192,49663,1,0,0:0:0:0:
320,192,49663,128,0,50004:1:0:0:0:
64,192,50118,1,0,0:0:0:0:
448,192,50118,1,0,0:0:0:0:
192,192,50118,128,0,50458:1:0:0:0:
320,192,50572,1,0,0:0:0:0:
448,192,50572,1,0,0:0:0:0:
64,192,50572,128,0,50913:1:0:0:0:
448,192,51027,1,0,0:0:0:0:
192,192,51027,1,4,0:1:0:0:
320,192,51254,1,0,0:0:0:0:
320,192,51481,1,0,0:0:0:0:
64,192,51481,1,0,1:0:0:0:
192,192,51708,1,0,0:0:0:0:
448,192,51936,1,0,0:0:0:0:
320,192,52049,1,0,0:0:0:0:
192,192,52163,1,0,0:0:0:0:
448,192,52390,1,0,0:0:0:0:
320,192,52390,1,0,1:0:0:0:
64,192,52618,1,0,0:0:0:0:
192,192,52845,1,0,0:0:0:0:
320,192,53072,1,0,0:0:0:0:
64,192,53299,1,0,1:0:0:0:
192,192,53299,1,0,0:0:0:0:
448,192,53527,1,0,0:0:0:0:
320,192,53754,1,0,0:0:0:0:
448,192,53868,1,0,0:0:0:0:
192,192,53981,1,0,0:0:0:0:
320,192,54208,1,0,0:0:0:0:
64,192,54208,1,0,1:0:0:0:
448,192,54436,1,0,0:0:0:0:
192,192,54663,1,0,0:0:0:0:
320,192,54890,1,0,0:0:0:0:
448,192,55118,1,0,1:0:0:0:
192,192,55118,1,0,0:0:0:0:
64,192,55345,1,0,0:0:0:0:
320,192,55572,1,0,0:0:0:0:
192,192,55686,1,0,0:0:0:0:
64,192,55799,1,0,0:0:0:0:
192,192,56027,1,0,0:0:0:0:
448,192,56027,1,0,1:0:0:0:
320,192,56254,1,0,0:0:0:0:
64,192,56481,1,0,0:0:0:0:
192,192,56708,1,0,0:0:0:0:
64,192,56936,1,0,1:0:0:0:
320,192,56936,1,0,0:0:0:0:
448,192,57163,1,0,0:0:0:0:
192,192,57390,1,0,0:0:0:0:
320,192,57504,1,0,0:0:0:0:
448,192,57618,1,0,0:0:0:0:
192,192,57845,1,0,0:0:0:0:
64,192,57845,1,0,1:0:0:0:
320,192,57958,1,0,0:0:0:0:
448,192,58072,1,0,0:0:0:0:
320,192,58186,1,0,0:0:0:0:
64,192,58299,1,0,1:0:0:0:
448,192,58299,1,0,0:0:0:0:
192,192,58299,128,0,58754:1:0:0:0:
320,192,58754,1,0,0:0:0:0:
448,192,58754,1,0,1:0:0:0:
64,192,58754,128,0,59208:1:0:0:0:
192,192,59208,1,0,1:0:0:0:
320,192,59208,1,0,0:0:0:0:
448,192,59208,128,0,59549:1:0:0:0:
320,192,59436,1,0,1:0:0:0:
64,192,59549,128,0,59777:0:0:0:0:
192,192,59549,1,0,1:0:0:0:
192,192,59777,128,0,60004:0:0:0:0:
320,192,59777,1,0,1:0:0:0:
320,192,60004,128,0,60345:0:0:0:0:
448,192,60004,1,0,1:0:0:0:
64,192,61254,1,8,0:0:0:0:
192,192,61368,1,8,0:0:0:0:
320,192,61481,1,8,0:0:0:0:
448,192,61481,128,0,61936:0:0:0:0:
192,192,61936,1,2,0:0:0:0:
64,192,61936,128,0,62845:0:0:0:0:
320,192,62163,1,0,0:0:0:0:
192,192,62390,1,2,0:0:0:0:
320,192,62390,1,0,0:0:0:0:
192,192,62618,1,0,0:0:0:0:
320,192,62845,128,0,63072:2:0:0:0:
448,192,62845,1,2,0:0:0:0:
192,192,63072,128,0,63299:2:0:0:0:
448,192,63299,128,0,63527:2:0:0:0:
64,192,63527,128,0,63754:2:0:0:0:
192,192,63754,128,4,64208:0:2:0:0:
320,192,63754,1,4,0:1:0:0:
448,192,63754,1,0,0:0:0:0:
320,192,64208,128,4,64663:0:2:0:0:
64,192,64208,1,0,0:0:0:0:
64,192,64663,128,4,65118:0:2:0:0:
448,192,64663,1,0,0:0:0:0:
448,192,65118,128,4,65572:0:2:0:0:
192,192,65118,1,0,0:0:0:0:
64,192,65572,1,4,0:1:0:0:
192,192,65572,1,0,0:0:0:0:
320,192,65799,1,0,0:0:0:0:
448,192,66027,5,0,0:0:0:0:
192,192,66027,1,0,1:0:0:0:
64,192,66254,1,0,0:0:0:0:
320,192,66481,1,0,0:0:0:0:
192,192,66595,1,0,0:0:0:0:
64,192,66708,1,0,0:0:0:0:
448,192,66936,1,0,1:0:0:0:
320,192,66936,1,0,0:0:0:0:
64,192,67163,1,0,0:0:0:0:
192,192,67390,1,0,0:0:0:0:
448,192,67618,1,0,0:0:0:0:
320,192,67845,1,0,0:0:0:0:
64,192,67845,1,0,1:0:0:0:
448,192,68072,1,0,0:0:0:0:
192,192,68299,1,0,0:0:0:0:
320,192,68413,1,0,0:0:0:0:
448,192,68527,1,0,0:0:0:0:
64,192,68754,1,0,1:0:0:0:
192,192,68754,1,0,0:0:0:0:
320,192,68981,1,0,0:0:0:0:
448,192,69208,1,0,0:0:0:0:
64,192,69208,1,0,0:0:0:0:
320,192,69436,1,0,0:0:0:0:
192,192,69663,1,0,0:0:0:0:
64,192,69663,1,0,1:0:0:0:
448,192,69890,1,0,0:0:0:0:
320,192,70118,1,0,0:0:0:0:
448,192,70231,1,0,0:0:0:0:
192,192,70345,1,0,0:0:0:0:
64,192,70572,1,0,1:0:0:0:
448,192,70572,1,0,0:0:0:0:
192,192,70799,1,0,0:0:0:0:
320,192,71027,1,0,0:0:0:0:
64,192,71027,1,0,0:0:0:0:
448,192,71027,128,4,71368:0:2:0:0:
320,192,71481,1,0,0:0:0:0:
64,192,71481,1,0,0:0:0:0:
192,192,71481,128,4,71822:0:2:0:0:
64,192,71936,1,0,0:0:0:0:
448,192,71936,1,0,0:0:0:0:
320,192,71936,128,4,72277:0:2:0:0:
192,192,72390,1,0,0:0:0:0:
448,192,72390,1,0,0:0:0:0:
64,192,72390,128,4,72731:0:2:0:0:
192,192,72845,1,0,0:0:0:0:
448,192,72845,1,4,0:1:0:0:
320,192,73072,1,0,0:0:0:0:
64,192,73299,1,0,1:0:0:0:
448,192,73299,1,0,0:0:0:0:
192,192,73527,1,0,0:0:0:0:
320,192,73754,1,0,0:0:0:0:
192,192,73868,1,0,0:0:0:0:
64,192,73981,1,0,0:0:0:0:
320,192,74208,1,0,0:0:0:0:
192,192,74208,1,0,1:0:0:0:
64,192,74436,1,0,0:0:0:0:
448,192,74663,1,0,0:0:0:0:
320,192,74890,1,0,0:0:0:0:
64,192,75118,1,0,1:0:0:0:
192,192,75118,1,0,0:0:0:0:
448,192,75345,1,0,0:0:0:0:
320,192,75572,1,0,0:0:0:0:
448,192,75686,1,0,0:0:0:0:
64,192,75799,1,0,0:0:0:0:
192,192,76027,1,0,0:0:0:0:
320,192,76027,1,0,1:0:0:0:
64,192,76254,1,0,0:0:0:0:
448,192,76481,1,0,0:0:0:0:
192,192,76708,1,0,0:0:0:0:
320,192,76936,1,0,1:0:0:0:
64,192,76936,1,0,0:0:0:0:
448,192,77163,1,0,0:0:0:0:
192,192,77390,1,0,0:0:0:0:
64,192,77504,1,0,0:0:0:0:
448,192,77618,1,0,0:0:0:0:
192,192,77845,1,0,0:0:0:0:
64,192,77845,1,0,1:0:0:0:
448,192,78072,1,0,0:0:0:0:
320,192,78299,1,0,0:0:0:0:
64,192,78527,1,0,0:0:0:0:
192,192,78754,1,0,1:0:0:0:
448,192,78754,1,0,0:0:0:0:
64,192,78981,1,0,0:0:0:0:
448,192,79208,1,0,0:0:0:0:
320,192,79322,1,0,0:0:0:0:
192,192,79436,1,0,0:0:0:0:
192,192,79663,1,0,0:0:0:0:
64,192,79663,1,0,1:0:0:0:
448,192,79777,1,8,3:0:0:0:
320,192,79890,1,8,3:0:0:0:
192,192,80004,1,8,3:0:0:0:
64,192,80118,128,0,80572:0:0:0:0:
320,192,80118,1,0,0:0:0:0:
448,192,80118,1,0,1:0:0:0:
192,192,80572,128,0,81027:0:0:0:0:
448,192,80572,1,0,1:0:0:0:
320,192,81027,128,0,81368:0:0:0:0:
64,192,81027,1,0,1:0:0:0:
192,192,81368,128,0,81595:0:0:0:0:
448,192,81368,1,0,1:0:0:0:
64,192,81595,128,0,81822:0:0:0:0:
320,192,81595,1,0,1:0:0:0:
320,192,81822,128,0,82390:0:0:0:0:
448,192,81822,1,0,1:0:0:0:
64,192,82390,1,0,0:0:0:0:
192,192,82504,1,0,0:0:0:0:
320,192,82618,1,0,0:0:0:0:
448,192,82731,1,0,0:0:0:0:
64,192,82845,1,0,0:0:0:0:
192,192,82958,1,0,0:0:0:0:
320,192,83072,1,0,0:0:0:0:
448,192,83186,1,0,0:0:0:0:
64,192,83299,1,0,0:0:0:0:
192,192,83413,1,0,0:0:0:0:
320,192,83527,1,0,0:0:0:0:
448,192,83527,1,8,0:0:0:0:
320,192,83754,1,2,0:0:0:0:
448,192,83754,1,8,0:0:0:0:
64,192,83754,128,0,84890:0:0:0:0:
320,192,83981,1,0,0:0:0:0:
192,192,84208,1,2,0:0:0:0:
448,192,84208,1,0,0:0:0:0:
320,192,84436,1,0,0:0:0:0:
192,192,84663,1,2,0:0:0:0:
320,192,84663,1,0,0:0:0:0:
192,192,84890,1,0,0:0:0:0:
320,192,85004,128,0,85231:0:0:0:0:
448,192,85004,1,0,1:0:0:0:
192,192,85231,128,0,85458:0:0:0:0:
448,192,85231,1,0,1:0:0:0:
64,192,85458,128,4,85799:0:1:0:0:
448,192,85458,1,0,1:0:0:0:
