osu file format v14

[General]
AudioFilename: audio.mp3
AudioLeadIn: 0
PreviewTime: 41729
Countdown: 0
SampleSet: None
StackLeniency: 0.7
Mode: 1
LetterboxInBreaks: 0
WidescreenStoryboard: 1

[Editor]
DistanceSpacing: 1.1
BeatDivisor: 4
GridSize: 8
TimelineZoom: 4.199998

[Metadata]
Title:Sugar Song to Bitter Step
TitleUnicode:シュガーソングとビターステップ
Artist:UNISON SQUARE GARDEN
ArtistUnicode:UNISON SQUARE GARDEN
Creator:015
Version:Taiko Muzukashii
Source:血界戦線
Tags:Blood Blockade Battlefront Kekkai Sensen Ending
BeatmapID:1667762
BeatmapSetID:794022

[Difficulty]
HPDrainRate:6
CircleSize:4
OverallDifficulty:7
ApproachRate:7
SliderMultiplier:1.5
SliderTickRate:1

[Events]
//Background and Video events
0,0,"699398.jpg",0,0
//Break Periods
//Storyboard Layer 0 (Background)
//Storyboard Layer 1 (Fail)
//Storyboard Layer 2 (Pass)
//Storyboard Layer 3 (Foreground)
//Storyboard Sound Samples

[TimingPoints]
139,454.545454545455,4,1,0,70,1,0
43775,-100,4,1,0,70,0,1
61502,-100,4,1,0,70,0,0

[HitObjects]
128,112,139,5,8,0:0:0:0:
304,152,593,1,8,0:0:0:0:
192,264,1048,1,8,0:0:0:0:
328,272,1275,1,0,0:0:0:0:
328,272,1389,1,0,0:0:0:0:
328,272,1502,1,0,0:0:0:0:
384,288,1729,1,8,0:0:0:0:
120,224,1957,1,0,0:0:0:0:
384,288,2184,1,8,0:0:0:0:
120,224,2411,1,0,0:0:0:0:
384,288,2639,1,8,0:0:0:0:
120,224,2866,1,0,0:0:0:0:
120,224,3093,1,0,0:0:0:0:
120,224,3207,1,0,0:0:0:0:
120,224,3320,1,8,0:0:0:0:
120,224,3548,1,0,0:0:0:0:
120,224,3775,1,0,0:0:0:0:
120,224,4229,1,0,0:0:0:0:
120,224,4684,1,0,0:0:0:0:
120,224,4911,1,8,0:0:0:0:
120,224,5139,1,0,0:0:0:0:
120,224,5252,1,0,0:0:0:0:
120,224,5366,1,8,0:0:0:0:
120,224,5593,1,0,0:0:0:0:
120,224,5820,1,8,0:0:0:0:
120,224,6048,1,0,0:0:0:0:
120,224,6275,1,8,0:0:0:0:
120,224,6389,1,0,0:0:0:0:
120,224,6502,1,8,0:0:0:0:
120,224,6729,1,0,0:0:0:0:
120,224,6957,1,0,0:0:0:0:
120,224,7184,1,0,0:0:0:0:
120,224,7411,1,8,0:0:0:0:
72,232,7866,1,0,0:0:0:0:
72,232,8093,1,0,0:0:0:0:
72,232,8320,1,8,0:0:0:0:
72,232,8775,1,0,0:0:0:0:
72,232,9002,1,8,0:0:0:0:
72,232,9229,1,0,0:0:0:0:
72,232,9457,1,8,0:0:0:0:
72,232,9684,1,0,0:0:0:0:
72,232,9911,1,8,0:0:0:0:
72,232,10139,1,0,0:0:0:0:
72,232,10366,1,8,0:0:0:0:
72,232,10479,1,0,0:0:0:0:
72,232,10593,1,0,0:0:0:0:
72,232,10820,1,8,0:0:0:0:
256,160,11048,1,0,0:0:0:0:
256,160,11275,1,8,0:0:0:0:
256,160,11502,1,0,0:0:0:0:
256,160,11729,1,8,0:0:0:0:
256,160,11843,1,8,0:0:0:0:
256,160,11957,1,0,0:0:0:0:
416,280,12184,1,0,0:0:0:0:
416,280,12411,1,8,0:0:0:0:
416,176,12639,1,0,0:0:0:0:
88,96,12866,1,8,0:0:0:0:
88,176,12979,1,8,0:0:0:0:
88,176,13093,1,0,0:0:0:0:
232,96,13320,1,8,0:0:0:0:
232,96,13434,1,8,0:0:0:0:
232,96,13548,1,0,0:0:0:0:
344,192,13775,1,12,0:0:0:0:
240,224,14002,1,0,0:0:0:0:
229,310,14116,1,0,0:0:0:0:
181,323,14229,1,0,0:0:0:0:
137,298,14343,1,0,0:0:0:0:
101,259,14457,1,0,0:0:0:0:
168,128,14684,1,8,0:0:0:0:
336,128,14911,1,0,0:0:0:0:
336,128,15139,1,0,0:0:0:0:
336,128,15366,1,0,0:0:0:0:
336,128,15593,1,8,0:0:0:0:
336,128,15820,1,0,0:0:0:0:
336,128,16048,1,0,0:0:0:0:
336,128,16161,1,8,0:0:0:0:
336,128,16389,1,8,0:0:0:0:
336,128,16502,1,0,0:0:0:0:
336,128,16729,1,8,0:0:0:0:
336,128,16957,1,0,0:0:0:0:
336,128,17184,1,8,0:0:0:0:
336,128,17411,1,8,0:0:0:0:
336,128,17525,1,8,0:0:0:0:
336,128,17639,1,0,0:0:0:0:
336,128,17866,1,8,0:0:0:0:
336,128,18093,1,0,0:0:0:0:
336,128,18320,1,8,0:0:0:0:
336,128,18548,1,0,0:0:0:0:
336,128,18775,1,8,0:0:0:0:
336,128,19002,1,0,0:0:0:0:
336,128,19229,1,8,0:0:0:0:
336,128,19457,1,0,0:0:0:0:
336,128,19684,1,8,0:0:0:0:
336,128,19798,1,0,0:0:0:0:
336,128,19911,1,0,0:0:0:0:
336,128,20139,1,8,0:0:0:0:
336,128,20366,1,0,0:0:0:0:
368,296,20593,1,0,0:0:0:0:
368,296,20707,1,0,0:0:0:0:
368,296,20820,1,0,0:0:0:0:
368,296,21048,1,8,0:0:0:0:
96,128,21502,1,0,0:0:0:0:
96,128,21616,1,0,0:0:0:0:
96,128,21729,1,0,0:0:0:0:
96,128,21957,1,8,0:0:0:0:
128,256,22411,1,0,0:0:0:0:
128,256,22525,1,0,0:0:0:0:
128,256,22639,1,0,0:0:0:0:
128,256,22866,1,8,0:0:0:0:
408,184,23320,1,0,0:0:0:0:
320,120,23775,1,4,0:0:0:0:
320,120,24002,1,8,0:0:0:0:
320,120,24229,1,0,0:0:0:0:
320,120,24457,1,0,0:0:0:0:
320,120,24684,1,8,0:0:0:0:
320,120,24911,1,8,0:0:0:0:
136,80,25366,1,0,0:0:0:0:
144,152,25593,1,8,0:0:0:0:
144,152,25820,1,0,0:0:0:0:
208,248,26048,1,0,0:0:0:0:
208,248,26161,1,0,0:0:0:0:
208,248,26275,1,0,0:0:0:0:
312,256,26502,1,8,0:0:0:0:
312,256,26729,1,0,0:0:0:0:
312,256,26957,1,0,0:0:0:0:
312,256,27184,1,8,0:0:0:0:
312,256,27411,1,0,0:0:0:0:
384,136,27639,1,8,0:0:0:0:
272,128,27979,1,8,0:0:0:0:
104,144,28320,1,8,0:0:0:0:
104,216,28548,2,0,L|272:176,1,150
376,112,29229,1,4,0:0:0:0:
336,216,29457,1,0,0:0:0:0:
184,296,29684,1,8,0:0:0:0:
184,296,29798,1,8,0:0:0:0:
416,296,30139,1,4,0:0:0:0:
176,104,30593,1,0,0:0:0:0:
176,104,30820,1,0,0:0:0:0:
48,208,31048,1,4,0:0:0:0:
48,208,31275,1,0,0:0:0:0:
224,200,31502,1,8,0:0:0:0:
224,200,31616,1,8,0:0:0:0:
224,200,31957,1,4,0:0:0:0:
120,272,32411,1,0,0:0:0:0:
120,272,32639,1,0,0:0:0:0:
120,272,32866,1,4,0:0:0:0:
120,272,33093,1,12,0:0:0:0:
120,272,33320,1,4,0:0:0:0:
120,272,33548,1,12,0:0:0:0:
120,272,33775,1,4,0:0:0:0:
120,272,34002,1,12,0:0:0:0:
120,272,34229,1,4,0:0:0:0:
120,272,34457,1,12,0:0:0:0:
120,272,34684,1,4,0:0:0:0:
120,272,34911,1,8,0:0:0:0:
120,272,35139,1,4,0:0:0:0:
120,272,35366,1,0,0:0:0:0:
120,272,35593,1,0,0:0:0:0:
120,272,35707,1,0,0:0:0:0:
120,272,35820,1,0,0:0:0:0:
120,272,35934,1,0,0:0:0:0:
120,272,36048,1,8,0:0:0:0:
120,272,36275,1,0,0:0:0:0:
120,272,36502,1,8,0:0:0:0:
120,272,36957,1,8,0:0:0:0:
120,272,37411,1,8,0:0:0:0:
120,272,37866,1,8,0:0:0:0:
120,272,38320,1,8,0:0:0:0:
120,272,38775,1,8,0:0:0:0:
120,272,39229,1,4,0:0:0:0:
120,272,39684,1,8,0:0:0:0:
120,272,39911,1,8,0:0:0:0:
120,272,40139,1,0,0:0:0:0:
120,272,40593,1,8,0:0:0:0:
120,272,41048,1,8,0:0:0:0:
120,272,41502,1,8,0:0:0:0:
120,272,41616,1,0,0:0:0:0:
120,272,41729,1,0,0:0:0:0:
120,272,41957,1,8,0:0:0:0:
120,272,42184,1,8,0:0:0:0:
120,272,42411,1,8,0:0:0:0:
120,272,42639,1,8,0:0:0:0:
120,272,42866,1,4,0:0:0:0:
120,272,43320,1,4,0:0:0:0:
368,112,43548,1,0,0:0:0:0:
72,80,43775,1,0,0:0:0:0:
72,80,43889,1,0,0:0:0:0:
72,80,44002,1,8,0:0:0:0:
88,216,44229,1,0,0:0:0:0:
88,216,44457,1,8,0:0:0:0:
88,216,44684,1,0,0:0:0:0:
88,216,44798,1,8,0:0:0:0:
88,216,45025,1,8,0:0:0:0:
88,216,45139,1,0,0:0:0:0:
288,248,45366,1,8,0:0:0:0:
288,248,45593,1,0,0:0:0:0:
288,248,45820,1,8,0:0:0:0:
288,248,46048,1,0,0:0:0:0:
288,248,46275,1,0,0:0:0:0:
288,248,46389,1,0,0:0:0:0:
288,248,46502,1,8,0:0:0:0:
288,248,46729,1,0,0:0:0:0:
288,248,46843,1,0,0:0:0:0:
288,248,46957,1,0,0:0:0:0:
288,248,47184,1,8,0:0:0:0:
288,248,47411,1,0,0:0:0:0:
288,248,47639,1,8,0:0:0:0:
288,248,47866,1,0,0:0:0:0:
288,248,48093,1,8,0:0:0:0:
288,248,48320,1,0,0:0:0:0:
288,248,48548,1,0,0:0:0:0:
288,248,48775,1,0,0:0:0:0:
288,248,49002,1,0,0:0:0:0:
288,248,49229,1,4,0:0:0:0:
288,248,49457,1,8,0:0:0:0:
288,248,49684,1,4,0:0:0:0:
288,248,49911,1,8,0:0:0:0:
288,248,50139,1,0,0:0:0:0:
288,248,50366,1,0,0:0:0:0:
288,248,50479,1,0,0:0:0:0:
288,248,50593,1,8,0:0:0:0:
328,128,50820,1,0,0:0:0:0:
160,96,51048,1,0,0:0:0:0:
160,96,51275,1,8,0:0:0:0:
160,96,51502,1,0,0:0:0:0:
160,96,51729,1,0,0:0:0:0:
160,96,51957,1,0,0:0:0:0:
160,96,52070,1,0,0:0:0:0:
160,96,52184,1,0,0:0:0:0:
160,96,52298,1,0,0:0:0:0:
160,96,52411,1,8,0:0:0:0:
160,96,52639,1,8,0:0:0:0:
160,96,52866,1,0,0:0:0:0:
368,80,53093,1,8,0:0:0:0:
368,80,53320,1,0,0:0:0:0:
368,80,53548,1,0,0:0:0:0:
368,80,53775,1,0,0:0:0:0:
368,80,54002,1,0,0:0:0:0:
368,80,54116,1,0,0:0:0:0:
368,80,54229,1,8,0:0:0:0:
72,256,54457,1,0,0:0:0:0:
72,256,54684,1,4,0:0:0:0:
72,256,54911,1,8,0:0:0:0:
72,256,55139,1,0,0:0:0:0:
72,256,55366,1,8,0:0:0:0:
72,256,55593,1,0,0:0:0:0:
72,256,56048,1,0,0:0:0:0:
72,256,56161,1,0,0:0:0:0:
72,256,56275,1,0,0:0:0:0:
72,256,56502,1,4,0:0:0:0:
72,256,56729,1,8,0:0:0:0:
72,256,56957,1,0,0:0:0:0:
72,256,57070,1,0,0:0:0:0:
72,256,57184,1,0,0:0:0:0:
72,256,57411,1,0,0:0:0:0:
72,256,57639,1,8,0:0:0:0:
72,256,57866,1,0,0:0:0:0:
72,256,58093,1,0,0:0:0:0:
72,256,58320,1,4,0:0:0:0:
72,256,58775,1,4,0:0:0:0:
72,256,59229,1,4,0:0:0:0:
72,256,59570,1,12,0:0:0:0:
72,256,59797,1,12,0:0:0:0:
72,256,60025,1,12,0:0:0:0:
192,144,60365,1,0,0:0:0:0:
192,144,60479,1,0,0:0:0:0:
192,144,60593,1,8,0:0:0:0:
192,144,60820,1,0,0:0:0:0:
192,144,60934,1,8,0:0:0:0:
192,144,61275,1,0,0:0:0:0:
192,144,61389,1,0,0:0:0:0:
192,144,61502,1,12,0:0:0:0:
376,256,61957,1,0,0:0:0:0:
376,256,62411,1,0,0:0:0:0:
80,144,62866,1,0,0:0:0:0:
80,144,63320,1,0,0:0:0:0:
80,144,63775,1,4,0:0:0:0:
80,144,64229,1,4,0:0:0:0:
80,144,64684,1,4,0:0:0:0:
275,150,65139,1,4,0:0:0:0:
352,280,65593,1,0,0:0:0:0:
352,280,65707,1,0,0:0:0:0:
352,280,65820,1,8,0:0:0:0:
352,280,66048,1,0,0:0:0:0:
352,280,66275,1,8,0:0:0:0:
352,280,66502,1,0,0:0:0:0:
352,280,66616,1,0,0:0:0:0:
352,280,66729,1,8,0:0:0:0:
352,280,66957,1,0,0:0:0:0:
352,280,67184,1,8,0:0:0:0:
352,280,67411,1,0,0:0:0:0:
352,280,67639,1,8,0:0:0:0:
352,280,67866,1,0,0:0:0:0:
352,280,68093,1,8,0:0:0:0:
352,280,68207,1,0,0:0:0:0:
352,280,68320,1,8,0:0:0:0:
352,280,68434,1,0,0:0:0:0:
352,280,68548,1,0,0:0:0:0:
352,280,68661,1,0,0:0:0:0:
352,288,68775,1,8,0:0:0:0:
352,288,69002,1,8,0:0:0:0:
96,144,69229,1,0,0:0:0:0:
96,144,69457,1,8,0:0:0:0:
96,144,69684,1,0,0:0:0:0:
96,144,69911,1,0,0:0:0:0:
96,144,70139,1,0,0:0:0:0:
96,144,70366,1,0,0:0:0:0:
96,144,70593,1,0,0:0:0:0:
96,144,70820,1,0,0:0:0:0:
96,144,71048,1,4,0:0:0:0:
96,144,71275,1,8,0:0:0:0:
96,144,71502,1,4,0:0:0:0:
96,144,71729,1,8,0:0:0:0:
96,144,71957,1,0,0:0:0:0:
96,144,72184,1,0,0:0:0:0:
96,144,72298,1,0,0:0:0:0:
96,144,72411,1,8,0:0:0:0:
336,136,72866,1,0,0:0:0:0:
336,136,73093,1,0,0:0:0:0:
336,136,73320,1,0,0:0:0:0:
336,136,73434,1,0,0:0:0:0:
336,136,73548,1,8,0:0:0:0:
336,136,73775,1,0,0:0:0:0:
336,136,73889,1,0,0:0:0:0:
336,136,74002,1,0,0:0:0:0:
336,136,74229,1,8,0:0:0:0:
336,136,74457,1,0,0:0:0:0:
336,136,74684,1,0,0:0:0:0:
336,136,74911,1,8,0:0:0:0:
336,136,75139,1,0,0:0:0:0:
336,136,75366,1,8,0:0:0:0:
336,136,75593,1,0,0:0:0:0:
336,136,75820,1,0,0:0:0:0:
336,136,75934,1,0,0:0:0:0:
336,136,76048,1,8,0:0:0:0:
336,136,76275,1,0,0:0:0:0:
336,136,76389,1,0,0:0:0:0:
336,136,76502,1,0,0:0:0:0:
336,136,76616,1,0,0:0:0:0:
336,136,76729,1,8,0:0:0:0:
336,136,76957,1,0,0:0:0:0:
336,136,77411,1,0,0:0:0:0:
120,208,77639,1,0,0:0:0:0:
104,208,77752,1,0,0:0:0:0:
120,208,77866,1,8,0:0:0:0:
120,208,78093,1,0,0:0:0:0:
120,208,78320,1,4,0:0:0:0:
120,208,78548,1,8,0:0:0:0:
120,208,78775,1,8,0:0:0:0:
120,208,78889,1,0,0:0:0:0:
120,208,79229,1,4,0:0:0:0:
312,264,79457,1,8,0:0:0:0:
312,264,79684,1,8,0:0:0:0:
312,264,79911,1,8,0:0:0:0:
168,96,80139,1,12,0:0:0:0:
384,136,80593,1,4,0:0:0:0:
120,264,81048,1,12,0:0:0:0:
288,280,81389,1,8,0:0:0:0:
288,280,81616,1,8,0:0:0:0:
288,280,81843,1,8,0:0:0:0:
256,112,82184,1,8,0:0:0:0:
256,112,82298,1,8,0:0:0:0:
256,112,82411,1,8,0:0:0:0:
256,112,82639,1,8,0:0:0:0:
256,112,82752,1,8,0:0:0:0:
256,112,82866,1,0,0:0:0:0:
256,192,83093,1,0,0:0:0:0:
256,192,83207,1,8,0:0:0:0:
256,192,83320,1,0,0:0:0:0:
168,240,83548,1,8,0:0:0:0:
344,248,83775,1,4,0:0:0:0:
392,104,84229,1,12,0:0:0:0:
120,128,84684,1,4,0:0:0:0:
272,200,85025,1,8,0:0:0:0:
200,280,85252,1,8,0:0:0:0:
96,288,85479,1,8,0:0:0:0:
248,88,85706,1,0,0:0:0:0:
248,88,85820,1,8,0:0:0:0:
248,88,85934,1,8,0:0:0:0:
248,88,86048,1,0,0:0:0:0:
248,88,86275,1,0,0:0:0:0:
248,88,86389,1,8,0:0:0:0:
248,88,86502,1,0,0:0:0:0:
248,88,86729,1,8,0:0:0:0:
264,168,86957,1,0,0:0:0:0:
