osu file format v14

[General]
AudioFilename: usq.mp3
AudioLeadIn: 1000
PreviewTime: 50659
Countdown: 0
SampleSet: Soft
StackLeniency: 0.5
Mode: 0
LetterboxInBreaks: 0
WidescreenStoryboard: 1

[Editor]
Bookmarks: 31191,36297,80978,85925
DistanceSpacing: 0.9
BeatDivisor: 4
GridSize: 32
TimelineZoom: 1.800001

[Metadata]
Title:Sakura no Ato (all quartets lead to the?) (TV Size)
TitleUnicode:桜のあと (all quartets lead to the?) (TV Size)
Artist:UNISON SQUARE GARDEN
ArtistUnicode:UNISON SQUARE GARDEN
Creator:Nevo
Version:Sakura
Source:夜桜四重奏 ~ハナノウタ~
Tags:yozakura quartet hana no uta opening tv size agatsu nikakis ayyri glaceon eiri- Onlybiscuit usg anime japanese
BeatmapID:1868484
BeatmapSetID:565004

[Difficulty]
HPDrainRate:6
CircleSize:3.8
OverallDifficulty:9
ApproachRate:9.3
SliderMultiplier:1.7
SliderTickRate:1

[Events]
//Background and Video events
0,0,"bg.jpg",0,0
Video,0,"vid.avi"
//Break Periods
//Storyboard Layer 0 (Background)
//Storyboard Layer 1 (Fail)
//Storyboard Layer 2 (Pass)
//Storyboard Layer 3 (Foreground)
//Storyboard Sound Samples

[TimingPoints]
650,315.789473684211,4,2,1,80,1,0
8071,315.789473684211,4,2,1,80,1,1
9334,-144.927536231884,4,2,1,80,0,1
10151,315.789473684211,4,2,1,80,1,0
10766,319.148936170213,4,2,1,65,1,0
19861,-125,4,2,1,65,0,0
20978,-100,4,2,1,65,0,0
31191,-100,4,2,1,80,0,1
35739,-100,4,2,1,80,0,0
35818,-100,4,2,1,80,0,0
35898,-100,4,2,1,80,0,0
35977,-100,4,2,1,80,0,0
36058,-100,4,2,1,80,0,0
36137,-100,4,2,1,80,0,0
36297,-100,4,2,1,80,0,0
41484,-100,4,2,1,80,0,0
41563,-100,4,2,1,80,0,0
41643,-100,4,2,1,80,0,0
41723,-100,4,2,1,80,0,0
41803,-100,4,2,1,80,0,0
41883,-100,4,2,1,80,0,0
50898,-100,4,2,1,5,0,0
50978,-83.3333333333333,4,2,1,80,0,0
51218,-100,4,2,1,5,0,0
51297,-83.3333333333333,4,2,1,80,0,0
51537,-100,4,2,1,5,0,0
51617,-76.9230769230769,4,2,1,80,0,1
72042,-76.9230769230769,4,2,1,80,0,0
80659,-133.333333333333,4,2,1,80,0,0
80978,-76.9230769230769,4,2,1,80,0,1
85925,-76.9230769230769,4,2,1,80,0,0
88159,-153.846153846153,4,2,1,80,0,0
88957,-153.846153846153,4,2,1,5,0,0

[Colours]
Combo1 : 128,128,192
Combo2 : 255,128,255
Combo3 : 0,128,255
Combo4 : 255,128,128

[HitObjects]
103,314,650,6,0,P|173:272|261:301,1,170,2|0,1:2|0:0,0:0:0:0:
404,239,1123,2,0,L|295:228,1,85,2|0,1:2|0:0,0:0:0:0:
467,160,1439,2,0,L|358:149,1,85,2|0,0:0|0:0,0:0:0:0:
220,117,1755,2,0,L|329:106,1,85,2|0,1:2|0:0,0:0:0:0:
157,38,2071,2,0,L|266:27,1,85,2|0,0:0|0:0,0:0:0:0:
171,199,2386,6,0,P|128:153|125:106,1,85,2|0,1:2|0:0,0:0:0:0:
283,206,2702,1,2,1:2:0:0:
122,295,2860,1,8,0:0:0:0:
220,117,3018,1,2,0:0:0:0:
230,365,3176,6,0,L|224:247,1,85,2|2,1:2|0:0,0:0:0:0:
366,149,3492,1,2,0:0:0:0:
358,349,3650,2,0,L|364:231,1,85,2|0,1:2|0:0,0:0:0:0:
497,381,3965,2,0,L|491:263,1,85,2|0,0:0|0:0,0:0:0:0:
492,130,4281,5,10,0:0:0:0:
283,206,4439,1,0,1:0:0:0:
361,64,4597,1,10,0:0:0:0:
361,64,4676,1,8,0:0:0:0:
361,64,4755,1,0,1:0:0:0:
391,275,4913,1,10,0:0:0:0:
191,182,5071,1,8,0:0:0:0:
152,163,5149,1,8,0:0:0:0:
110,158,5228,1,8,0:0:0:0:
69,166,5307,1,8,3:0:0:0:
32,187,5386,1,8,3:0:0:0:
36,218,5464,1,8,3:0:0:0:
40,249,5543,1,4,0:3:0:0:
45,281,5622,1,4,0:3:0:0:
49,312,5702,6,0,B|89:294|138:311|124:325|165:338|214:318,1,170,6|0,1:2|1:0,0:0:0:0:
285,163,6176,2,0,L|253:276,1,85,10|0,0:0|1:0,0:0:0:0:
429,355,6492,2,0,L|397:242,1,85,10|0,0:0|1:0,0:0:0:0:
319,83,6807,5,10,0:0:0:0:
505,173,6965,1,0,1:0:0:0:
261,244,7123,1,10,0:0:0:0:
261,244,7202,1,8,0:0:0:0:
261,244,7281,1,0,1:0:0:0:
406,130,7439,1,10,0:0:0:0:
174,167,7597,1,0,1:0:0:0:
245,1,7755,5,10,0:0:0:0:
269,24,7833,1,8,0:0:0:0:
289,54,7912,1,8,0:0:0:0:
303,87,7991,1,8,0:0:0:0:
310,121,8070,1,10,0:0:0:0:
310,154,8149,1,8,0:0:0:0:
303,191,8228,6,0,P|345:178|434:202,1,127.5,6|0,1:2|1:0,0:0:0:0:
479,261,8544,1,10,0:0:0:0:
421,53,8702,1,2,1:2:0:0:
322,355,9018,1,2,1:2:0:0:
165,231,9334,6,0,B|137:169|166:125|166:125|142:82|92:133|29:87|44:-21|118:-19|166:29|100:70,1,362,6|0,1:2|1:0,0:0:0:0:
245,177,10466,1,8,0:0:0:0:
428,21,10766,6,0,P|431:76|414:123,1,85,2|0,1:2|0:0,0:0:0:0:
337,203,11085,2,0,L|445:192,1,85,0|2,1:0|0:0,0:0:0:0:
331,117,11404,2,0,L|223:106,1,85,10|2,0:0|0:0,0:0:0:0:
115,116,11723,1,2,1:2:0:0:
163,255,11883,1,10,0:0:0:0:
163,255,11962,1,8,0:0:0:0:
163,255,12042,6,0,P|182:205|179:147,1,85,0|8,1:0|0:0,0:0:0:0:
94,34,12361,2,0,P|113:84|110:142,1,85,0|2,1:0|0:0,0:0:0:0:
0,209,12680,2,0,L|95:200,1,85,10|0,0:0|0:0,0:0:0:0:
217,336,13000,2,0,L|122:327,1,85,2|8,1:2|0:0,0:0:0:0:
72,292,13239,1,8,0:0:0:0:
72,292,13319,6,0,P|150:276|192:209,1,127.5,2|0,1:2|0:0,0:0:0:0:
180,242,13638,2,0,L|264:250,1,85,0|2,1:0|0:0,0:0:0:0:
399,146,13957,1,10,0:0:0:0:
295,129,14117,1,2,0:0:0:0:
424,241,14276,1,2,1:2:0:0:
334,300,14436,1,2,0:0:0:0:
497,174,14595,5,8,0:0:0:0:
219,217,14755,1,2,1:2:0:0:
364,55,14914,1,10,0:0:0:0:
428,343,15074,1,2,1:2:0:0:
211,191,15234,1,8,0:0:0:0:
249,174,15313,1,8,0:0:0:0:
292,171,15393,1,10,0:0:0:0:
332,182,15473,1,8,0:0:0:0:
367,206,15553,1,8,0:0:0:0:
289,364,15712,6,0,L|280:257,1,85,6|0,1:2|0:0,0:0:0:0:
174,105,16031,1,2,1:2:0:0:
378,99,16191,1,10,0:0:0:0:
194,233,16351,1,2,0:0:0:0:
251,27,16510,6,0,B|282:73|282:73|278:192,1,170,2|10,1:2|0:0,0:0:0:0:
207,309,16989,2,0,P|262:248|367:255,1,170,2|2,1:2|1:2,0:0:0:0:
452,355,17468,2,0,L|444:254,1,85,10|2,0:0|0:0,0:0:0:0:
352,159,17787,2,0,L|344:260,1,85,2|0,1:2|1:0,0:0:0:0:
227,351,18106,1,8,0:0:0:0:
194,251,18266,1,2,0:0:0:0:
326,342,18425,6,0,L|212:330,1,85,0|2,1:2|0:0,0:0:0:0:
109,259,18744,2,0,L|223:247,1,85,10|2,0:0|0:0,0:0:0:0:
46,343,19063,1,0,1:0:0:0:
68,182,19223,1,2,1:2:0:0:
185,375,19383,1,10,0:0:0:0:
173,206,19542,1,2,1:2:0:0:
183,194,19861,6,0,B|189:102,2,68,2|2|2,0:0|0:0|0:0,0:0:0:0:
122,302,20340,1,2,0:0:0:0:
76,218,20500,1,2,1:2:0:0:
211,280,20659,2,0,P|250:259|326:270,1,102,10|0,0:0|0:0,0:0:0:0:
355,320,20978,6,0,L|349:221,1,85,6|0,1:2|0:0,0:0:0:0:
432,98,21297,2,0,L|426:197,1,85,8|2,0:0|0:0,0:0:0:0:
270,195,21617,1,0,1:0:0:0:
337,151,21776,1,2,1:2:0:0:
207,140,21936,1,10,0:0:0:0:
240,279,22095,6,0,L|253:77,1,170,2|0,1:2|1:0,0:0:0:0:
117,33,22574,2,0,L|129:140,1,85,8|2,0:0|0:0,0:0:0:0:
313,49,22893,2,0,P|260:20|217:26,1,85,2|0,1:2|1:0,0:0:0:0:
148,205,23212,2,0,P|199:173|215:133,1,85,10|0,0:0|0:0,0:0:0:0:
9,198,23531,6,0,P|10:258|37:292,1,85,2|0,1:2|0:0,0:0:0:0:
128,371,23851,2,0,L|12:356,1,85,8|2,0:0|0:0,0:0:0:0:
184,290,24170,1,2,1:2:0:0:
248,384,24329,1,2,1:2:0:0:
263,235,24489,1,10,0:0:0:0:
125,213,24648,1,2,0:0:0:0:
319,318,24808,5,8,0:0:0:0:
278,96,24968,1,2,1:2:0:0:
184,290,25127,1,10,0:0:0:0:
175,32,25287,1,2,1:2:0:0:
263,235,25446,1,8,0:0:0:0:
301,252,25525,1,8,0:0:0:0:
344,255,25605,1,10,0:0:0:0:
384,244,25685,1,8,0:0:0:0:
419,220,25765,1,8,0:0:0:0:
324,62,25925,6,0,L|334:176,1,85,6|0,1:2|0:0,0:0:0:0:
422,318,26244,1,2,1:2:0:0:
248,246,26404,1,10,0:0:0:0:
426,135,26563,1,2,1:2:0:0:
426,135,26643,1,0,1:0:0:0:
426,135,26723,2,0,L|416:249,1,85,2|0,1:2|1:0,0:0:0:0:
254,357,27042,1,10,0:0:0:0:
422,318,27202,6,0,L|313:310,1,85,2|0,1:2|0:0,0:0:0:0:
154,285,27521,1,2,1:2:0:0:
248,246,27680,1,10,0:0:0:0:
60,242,27840,1,2,0:0:0:0:
146,384,28000,1,2,1:2:0:0:
154,285,28159,1,0,1:0:0:0:
49,346,28319,1,8,0:0:0:0:
241,351,28478,1,2,0:0:0:0:
143,200,28638,6,0,L|159:325,1,85,0|2,1:0|0:0,0:0:0:0:
229,150,28957,1,10,0:0:0:0:
330,251,29117,2,0,P|282:256|217:223,1,85,2|0,0:0|1:0,0:0:0:0:
143,97,29436,1,2,1:2:0:0:
340,102,29595,1,10,0:0:0:0:
143,200,29755,1,2,1:2:0:0:
214,44,29914,5,8,0:0:0:0:
229,150,30074,1,2,1:2:0:0:
331,21,30234,1,10,3:0:0:0:
331,21,30313,1,8,3:0:0:0:
331,21,30393,1,10,3:0:0:0:
327,165,30553,1,14,3:0:0:0:
448,0,30713,1,14,3:0:0:0:
431,199,30872,2,0,L|413:114,1,85,10|0,0:0|0:0,0:0:0:0:
214,44,31191,6,0,L|196:129,1,85,6|0,1:2|0:0,0:0:0:0:
144,327,31510,5,10,0:0:0:0:
87,124,31670,1,0,1:0:0:0:
282,233,31829,5,10,0:0:0:0:
41,319,31989,1,0,1:0:0:0:
189,133,32148,5,10,0:0:0:0:
246,336,32308,1,2,1:2:0:0:
76,230,32468,5,8,0:0:0:0:
317,144,32628,1,2,1:2:0:0:
144,327,32787,5,8,0:0:0:0:
87,124,32947,1,2,1:2:0:0:
259,243,33106,6,0,L|155:238,1,85,10|2,0:0|1:2,0:0:0:0:
317,144,33425,2,0,L|421:139,1,85,10|0,0:0|1:0,0:0:0:0:
385,320,33744,6,0,P|364:258|376:211,1,85,8|0,0:0|1:0,0:0:0:0:
459,74,34063,5,10,0:0:0:0:
238,142,34223,1,0,1:0:0:0:
481,178,34383,5,10,0:0:0:0:
218,138,34542,1,0,1:0:0:0:
468,66,34702,5,10,0:0:0:0:
197,135,34861,1,6,1:2:0:0:
178,141,35180,5,2,1:2:0:0:
477,292,35340,1,8,0:0:0:0:
347,234,35500,1,0,1:0:0:0:
347,234,35579,1,8,0:0:0:0:
347,234,35659,2,0,L|359:296,1,42.5,8|0,0:0|0:0,0:0:0:0:
414,183,35819,2,0,L|426:245,1,42.5,8|0,0:0|0:0,0:0:0:0:
481,132,35978,2,0,L|493:194,1,42.5,8|0,0:0|0:0,0:0:0:0:
101,129,36297,5,10,0:0:0:0:
280,195,36457,1,10,0:0:0:0:
17,255,36617,1,10,0:0:0:0:
183,165,36776,1,4,3:0:0:0:
183,165,36856,1,4,3:0:0:0:
183,165,36936,1,4,3:0:0:0:
118,372,37095,5,2,1:2:0:0:
41,47,37414,1,6,1:2:0:0:
26,31,37734,5,2,1:2:0:0:
220,74,37893,1,10,0:0:0:0:
99,144,38053,1,4,3:0:0:0:
99,144,38133,1,4,3:0:0:0:
99,144,38212,1,4,3:0:0:0:
289,9,38372,5,2,1:2:0:0:
273,322,38691,1,6,1:2:0:0:
266,339,39010,5,2,1:2:0:0:
207,183,39170,1,8,0:0:0:0:
342,241,39329,2,0,L|235:237,1,85,2|0,1:2|0:0,0:0:0:0:
68,182,39648,1,2,1:2:0:0:
172,98,39808,1,8,0:0:0:0:
101,282,39968,6,0,L|96:178,1,85,2|0,1:2|0:0,0:0:0:0:
248,53,40287,1,2,1:2:0:0:
34,98,40446,1,10,0:0:0:0:
277,175,40606,1,2,0:0:0:0:
137,30,40766,1,2,1:2:0:0:
138,257,40925,1,0,1:0:0:0:
123,15,41085,1,8,0:0:0:0:
244,307,41404,6,0,L|230:235,1,42.5,8|0,0:0|0:0,0:0:0:0:
329,323,41563,2,0,L|315:251,1,42.5,8|0,0:0|0:0,0:0:0:0:
414,339,41723,2,0,L|400:267,1,42.5,8|0,0:0|0:0,0:0:0:0:
382,198,41883,1,4,3:0:0:0:
382,198,41962,1,4,3:0:0:0:
382,198,42042,1,4,3:0:0:0:
147,307,42202,5,2,1:2:0:0:
241,32,42521,1,6,1:2:0:0:
249,20,42840,5,0,1:0:0:0:
349,202,43000,1,10,0:0:0:0:
355,73,43159,1,2,1:2:0:0:
211,216,43319,1,6,3:0:0:0:
211,216,43398,1,4,3:0:0:0:
211,216,43478,1,4,3:0:0:0:
105,114,43638,2,0,L|216:106,1,85,8|2,0:0|0:0,0:0:0:0:
430,195,43957,6,0,P|354:157|271:189,1,170,6|10,1:2|0:0,0:0:0:0:
328,334,44436,2,0,P|349:289|337:229,1,85,2|0,1:2|0:0,0:0:0:0:
184,334,44755,2,0,P|163:289|175:229,1,85,2|8,1:2|0:0,0:0:0:0:
255,86,45074,1,2,0:0:0:0:
82,189,45234,6,0,P|158:227|241:195,1,170,2|8,1:2|0:0,0:0:0:0:
184,50,45712,2,0,P|163:95|175:155,1,85,2|0,1:2|0:0,0:0:0:0:
328,50,46031,2,0,P|349:95|337:155,1,85,2|8,1:2|0:0,0:0:0:0:
254,325,46351,1,2,0:0:0:0:
385,235,46510,6,0,L|278:220,1,85,2|0,1:2|0:0,0:0:0:0:
114,207,46829,1,10,0:0:0:0:
154,348,46989,2,0,P|182:294|181:246,1,85,2|0,1:2|0:0,0:0:0:0:
62,142,47308,2,0,P|94:193|136:216,1,85,2|8,1:2|0:0,0:0:0:0:
286,165,47627,2,0,P|225:167|184:192,1,85,2|0,0:0|1:0,0:0:0:0:
57,289,47946,1,2,1:2:0:0:
260,266,48106,1,8,0:0:0:0:
101,122,48266,6,0,L|118:239,1,85,2|0,1:2|0:0,0:0:0:0:
303,55,48585,2,0,L|286:172,1,85,2|8,1:2|0:0,0:0:0:0:
215,22,48904,1,2,0:0:0:0:
390,119,49063,5,8,0:0:0:0:
109,231,49223,1,0,1:0:0:0:
303,55,49383,1,8,0:0:0:0:
341,327,49542,5,4,1:2:0:0:
67,148,49861,1,4,1:2:0:0:
359,0,50180,1,4,1:2:0:0:
369,11,50659,6,0,P|394:70|396:153,1,127.5,2|0,0:0|0:0,0:0:0:0:
254,135,50978,2,0,P|237:119|298:121,1,152.999995330811,2|0,0:0|0:0,0:0:0:0:
280,225,51297,2,0,B|225:238|186:204|186:204|149:199|124:228,1,152.999995330811,2|0,0:0|0:0,0:0:0:0:
40,322,51617,6,0,L|51:175,1,110.499994941712,6|0,1:2|0:0,0:0:0:0:
245,24,51936,2,0,L|256:171,1,110.499994941712,8|0,0:0|0:0,0:0:0:0:
156,320,52255,1,2,1:2:0:0:
389,255,52414,1,2,1:2:0:0:
136,158,52574,1,10,0:0:0:0:
303,309,52734,6,0,B|305:200|305:200|292:233|263:250,1,165.749992412568,6|0,1:2|0:0,0:0:0:0:
226,177,53053,1,2,1:2:0:0:
392,145,53212,2,0,L|389:255,1,110.499994941712,10|2,0:0|0:0,0:0:0:0:
121,204,53531,1,2,1:2:0:0:
312,106,53691,1,2,1:2:0:0:
144,8,53851,2,0,L|155:119,1,110.499994941712,10|0,0:0|0:0,0:0:0:0:
190,351,54170,5,6,1:2:0:0:
321,130,54329,1,2,1:2:0:0:
389,333,54489,1,10,0:0:0:0:
108,228,54648,2,0,P|158:206|213:204,1,110.499994941712,6|0,1:2|0:0,0:0:0:0:
468,298,54968,5,2,1:2:0:0:
190,351,55127,1,10,0:0:0:0:
426,153,55287,2,0,P|375:131|320:129,1,110.499994941712,6|0,1:2|0:0,0:0:0:0:
96,252,55606,5,2,1:2:0:0:
356,277,55766,1,10,0:0:0:0:
121,75,55925,2,0,P|171:53|226:51,1,110.499994941712,6|0,1:2|0:0,0:0:0:0:
453,118,56244,5,0,1:0:0:0:
209,259,56404,2,0,L|193:142,1,110.499994941712,8|2,0:0|1:2,0:0:0:0:
121,75,56643,1,0,1:0:0:0:
121,75,56723,6,0,L|105:192,1,110.499994941712,2|0,1:2|1:0,0:0:0:0:
363,27,57042,2,0,L|377:136,1,110.499994941712,10|0,0:0|0:0,0:0:0:0:
209,259,57361,2,0,P|252:216|305:202,1,110.499994941712,2|0,1:2|1:0,0:0:0:0:
396,352,57680,2,0,P|343:339|303:303,1,110.499994941712,10|0,0:0|0:0,0:0:0:0:
226,96,58000,5,2,1:2:0:0:
390,220,58159,1,0,1:0:0:0:
138,216,58319,1,10,0:0:0:0:
282,16,58478,6,0,B|320:64|320:64|315:185,1,165.749992412568,6|0,1:2|0:0,0:0:0:0:
240,243,58797,2,0,P|306:205|420:247,1,165.749992412568,6|0,1:2|0:0,0:0:0:0:
439,313,59117,2,0,L|426:139,1,165.749992412568,6|0,1:2|0:0,0:0:0:0:
473,66,59436,1,0,1:0:0:0:
332,200,59595,2,0,P|286:212|190:184,1,110.499994941712,8|0,0:0|0:0,0:0:0:0:
115,77,59914,1,2,1:2:0:0:
273,109,60074,1,0,1:0:0:0:
135,281,60234,2,0,L|121:156,1,110.499994941712,8|2,0:0|0:0,0:0:0:0:
310,26,60553,5,2,1:2:0:0:
254,228,60712,1,2,1:2:0:0:
115,77,60872,1,10,0:0:0:0:
400,40,61031,1,2,0:0:0:0:
104,197,61191,1,6,3:0:0:0:
375,257,61351,1,10,0:0:0:0:
375,257,61430,1,8,0:0:0:0:
375,257,61510,1,10,0:0:0:0:
251,52,61670,1,8,0:0:0:0:
251,52,61750,1,8,0:0:0:0:
251,52,61829,6,0,L|266:172,1,110.499994941712,6|2,1:2|1:2,0:0:0:0:
233,354,62148,1,10,0:0:0:0:
484,270,62308,2,0,L|335:251,1,110.499994941712,2|0,0:0|1:0,0:0:0:0:
110,214,62627,1,2,1:2:0:0:
368,156,62787,1,10,0:0:0:0:
146,343,62946,6,0,P|121:280|127:223,1,110.499994941712,6|0,1:2|0:0,0:0:0:0:
259,87,63266,1,2,1:2:0:0:
31,170,63425,1,8,0:0:0:0:
296,259,63585,1,2,0:0:0:0:
122,18,63744,1,2,1:2:0:0:
122,238,63904,1,2,1:2:0:0:
401,180,64063,2,0,B|311:154|311:154|217:161,1,165.749992412568,10|0,0:0|0:0,0:0:0:0:
162,132,64383,5,6,1:2:0:0:
382,80,64542,1,2,1:2:0:0:
279,312,64702,1,10,0:0:0:0:
240,43,64861,1,6,1:2:0:0:
255,35,65180,5,2,1:2:0:0:
68,299,65340,1,10,0:0:0:0:
107,66,65500,1,6,1:2:0:0:
98,59,65819,5,2,1:2:0:0:
302,131,65978,1,10,0:0:0:0:
39,249,66138,1,6,1:2:0:0:
30,263,66457,5,0,1:0:0:0:
349,238,66617,1,8,0:0:0:0:
360,255,66936,6,0,L|372:135,1,110.499994941712,4|0,1:2|0:0,0:0:0:0:
226,34,67255,5,10,0:0:0:0:
454,112,67414,1,0,1:0:0:0:
218,151,67574,5,10,0:0:0:0:
398,30,67734,1,0,1:0:0:0:
152,75,67893,5,8,0:0:0:0:
372,136,68053,1,2,1:2:0:0:
198,246,68212,5,10,0:0:0:0:
312,63,68372,1,2,1:2:0:0:
303,298,68531,5,10,0:0:0:0:
233,118,68691,1,2,1:2:0:0:
214,356,68851,5,10,0:0:0:0:
299,192,69010,1,2,1:2:0:0:
79,279,69170,2,0,L|221:267,1,110.499994941712,14|0,0:0|0:0,0:0:0:0:
408,203,69489,6,0,L|258:187,1,110.499994941712,6|2,1:2|0:0,0:0:0:0:
35,128,69808,1,10,0:0:0:0:
167,0,69968,2,0,P|217:68|224:116,1,110.499994941712,2|0,0:0|1:0,0:0:0:0:
122,257,70287,1,2,1:2:0:0:
123,95,70446,1,10,0:0:0:0:
228,264,70606,1,2,0:0:0:0:
48,176,70766,5,0,1:0:0:0:
299,172,70925,1,2,1:2:0:0:
70,317,71085,1,10,0:0:0:0:
221,99,71244,1,2,1:2:0:0:
221,99,71324,1,8,0:0:0:0:
221,99,71404,1,8,0:0:0:0:
270,351,71563,1,8,3:0:0:0:
134,178,71723,1,6,3:0:0:0:
457,95,72042,5,10,0:0:0:0:
467,108,72680,5,10,0:0:0:0:
284,312,72920,1,10,0:0:0:0:
198,51,73159,1,10,0:0:0:0:
305,157,73319,5,10,0:0:0:0:
314,172,73957,5,10,0:0:0:0:
163,338,74197,1,10,0:0:0:0:
93,125,74436,1,10,0:0:0:0:
180,212,74595,6,0,L|189:90,1,110.499994941712,6|0,1:2|0:0,0:0:0:0:
436,156,74914,1,10,0:0:0:0:
281,167,75074,1,2,1:2:0:0:
281,167,75154,1,8,0:0:0:0:
281,167,75234,1,10,0:0:0:0:
337,86,75393,1,10,3:0:0:0:
453,254,75553,1,6,3:0:0:0:
409,32,75712,1,6,3:0:0:0:
336,312,75872,5,10,0:0:0:0:
347,330,76191,1,0,1:0:0:0:
108,111,76510,5,10,0:0:0:0:
366,180,76750,1,10,0:0:0:0:
107,355,76989,1,10,0:0:0:0:
179,223,77148,5,10,0:0:0:0:
188,211,77468,1,0,1:0:0:0:
49,31,77787,5,10,0:0:0:0:
132,293,78026,1,10,0:0:0:0:
281,146,78266,1,10,0:0:0:0:
59,167,78425,6,0,L|185:152,1,110.499994941712,6|0,1:2|0:0,0:0:0:0:
386,131,78744,1,10,0:0:0:0:
267,36,78904,2,0,L|282:162,1,110.499994941712,2|0,1:2|0:0,0:0:0:0:
417,305,79223,1,2,1:2:0:0:
190,237,79383,1,10,0:0:0:0:
432,166,79542,1,2,1:2:0:0:
238,350,79702,5,10,0:0:0:0:
333,83,79941,1,8,0:0:0:0:
430,313,80180,1,10,0:0:0:0:
312,233,80340,1,8,0:0:0:0:
312,233,80420,1,8,3:0:0:0:
312,233,80500,1,4,3:0:0:0:
312,233,80579,1,4,3:0:0:0:
312,233,80659,2,0,P|328:275|335:352,1,95.6250036478044,8|0,0:0|0:0,0:0:0:0:
270,378,80978,6,0,L|147:369,1,110.499994941712,6|0,1:2|0:0,0:0:0:0:
0,290,81297,1,8,0:0:0:0:
145,129,81457,2,0,P|171:182|169:240,1,110.499994941712,10|0,0:0|1:0,0:0:0:0:
308,16,81776,2,0,P|282:69|284:127,1,110.499994941712,10|0,0:0|1:0,0:0:0:0:
380,282,82095,6,0,L|390:154,1,110.499994941712,10|0,0:0|1:0,0:0:0:0:
179,342,82414,2,0,L|169:214,1,110.499994941712,10|0,0:0|1:0,0:0:0:0:
154,51,82734,1,10,0:0:0:0:
271,136,82893,1,0,1:0:0:0:
83,151,83053,1,10,0:0:0:0:
83,151,83133,1,8,0:0:0:0:
83,151,83212,2,0,L|23:141,1,55.2499974708558,8|8,0:0|0:0,0:0:0:0:
148,94,83372,2,0,L|213:90,1,55.2499974708558,10|8,0:0|0:0,0:0:0:0:
377,80,83531,5,6,1:2:0:0:
170,225,83691,1,2,0:0:0:0:
287,42,83851,1,2,1:2:0:0:
400,244,84010,1,2,0:0:0:0:
226,133,84170,1,0,1:0:0:0:
280,339,84329,2,0,L|297:222,1,110.499994941712,2|0,0:0|1:0,0:0:0:0:
384,95,84648,1,2,0:0:0:0:
193,218,84808,5,0,1:0:0:0:
409,211,84968,1,2,0:0:0:0:
172,241,85127,1,10,0:0:0:0:
276,41,85287,5,6,1:2:0:0:
412,328,85606,1,6,1:2:0:0:
91,282,85925,1,6,1:2:0:0:
90,267,86404,5,2,0:0:0:0:
86,250,86723,1,2,0:0:0:0:
80,233,87042,1,2,0:0:0:0:
71,215,87361,1,10,3:0:0:0:
153,89,87521,1,8,0:0:0:0:
153,89,87601,1,8,0:0:0:0:
153,89,87680,1,8,0:0:0:0:
264,265,87840,1,6,1:2:0:0:
259,66,88159,6,0,P|366:34|304:126,1,276.249987354279,6|0,1:2|0:0,0:0:0:0:
