osu file format v14

[General]
AudioFilename: usq.mp3
AudioLeadIn: 1000
PreviewTime: 50659
Countdown: 0
SampleSet: Soft
StackLeniency: 0.5
Mode: 0
LetterboxInBreaks: 0
WidescreenStoryboard: 1

[Editor]
Bookmarks: 31191,36297,80978,85925
DistanceSpacing: 1
BeatDivisor: 4
GridSize: 32
TimelineZoom: 1.800001

[Metadata]
Title:Sakura no Ato (all quartets lead to the?) (TV Size)
TitleUnicode:桜のあと (all quartets lead to the?) (TV Size)
Artist:UNISON SQUARE GARDEN
ArtistUnicode:UNISON SQUARE GARDEN
Creator:Nevo
Version:Onlybiscuit's Advanced
Source:夜桜四重奏 ~ハナノウタ~
Tags:yozakura quartet hana no uta opening tv size agatsu nikakis ayyri glaceon eiri- Onlybiscuit usg anime japanese
BeatmapID:1892643
BeatmapSetID:565004

[Difficulty]
HPDrainRate:4.5
CircleSize:3
OverallDifficulty:6
ApproachRate:6
SliderMultiplier:1.1
SliderTickRate:1

[Events]
//Background and Video events
0,0,"bg.jpg",0,0
Video,0,"vid.avi"
//Break Periods
//Storyboard Layer 0 (Background)
//Storyboard Layer 1 (Fail)
//Storyboard Layer 2 (Pass)
//Storyboard Layer 3 (Foreground)
//Storyboard Sound Samples

[TimingPoints]
650,315.789473684211,4,2,1,80,1,0
650,-100,4,2,1,80,0,0
5702,-100,4,2,1,80,0,0
8071,315.789473684211,4,2,1,80,1,0
9334,-100,4,2,1,80,0,0
10151,315.789473684211,4,2,1,80,1,0
10766,319.148936170213,4,2,1,65,1,0
10766,-100,4,2,1,65,0,0
15074,-100,4,2,1,65,0,0
19861,-100,4,2,1,65,0,0
20978,-100,4,2,1,65,0,0
25925,-100,4,2,1,65,0,0
30553,-100,4,2,1,65,0,0
31111,-100,4,2,1,65,0,0
31191,-100,4,2,1,80,0,0
31829,-100,4,2,1,80,0,0
36218,-100,4,2,1,80,0,0
36297,-100,4,2,1,80,0,0
37335,-100,4,2,1,80,0,0
37414,-100,4,2,1,80,0,0
41324,-100,4,2,1,80,0,0
41404,-100,4,2,1,80,0,0
43957,-100,4,2,1,80,0,0
51617,-100,4,2,1,80,0,1
64303,-100,4,2,1,80,0,1
64383,-100,4,2,1,80,0,1
66856,-100,4,2,1,80,0,1
66936,-100,4,2,1,80,0,1
69409,-100,4,2,1,80,0,1
69489,-100,4,2,1,80,0,1
71962,-100,4,2,1,80,0,1
72042,-100,4,2,1,80,0,0
72840,-100,4,2,1,80,0,0
72920,-100,4,2,1,80,0,0
73079,-100,4,2,1,80,0,0
73159,-100,4,2,1,80,0,0
73239,-100,4,2,1,80,0,0
73319,-100,4,2,1,80,0,0
74117,-100,4,2,1,80,0,0
74196,-100,4,2,1,80,0,0
74356,-100,4,2,1,80,0,0
74436,-100,4,2,1,80,0,0
74516,-100,4,2,1,80,0,0
74595,-100,4,2,1,80,0,0
80898,-100,4,2,1,80,0,0
80978,-100,4,2,1,80,0,0
87281,-100,4,2,1,80,0,0
87361,-100,4,2,1,80,0,0
88797,-100,4,2,1,80,0,0
88957,-153.846153846153,4,2,1,5,0,0

[Colours]
Combo1 : 128,128,192
Combo2 : 255,128,255
Combo3 : 0,128,255
Combo4 : 255,128,128

[HitObjects]
149,98,650,6,0,P|185:51|244:45,1,110,2|0,1:2|0:0,0:0:0:0:
276,76,1123,2,0,P|301:91|342:102,1,55,2|0,1:2|0:0,0:0:0:0:
370,66,1439,2,0,P|395:51|436:40,1,55,2|0,0:0|0:0,0:0:0:0:
474,48,1755,1,2,1:2:0:0:
440,152,2071,1,2,0:0:0:0:
489,249,2386,2,0,B|429:251|445:283|376:289,1,110,2|2,1:2|1:2,0:0:0:0:
335,254,2860,1,8,0:0:0:0:
230,288,3176,6,0,P|209:303|172:312,1,55,2|2,1:2|0:0,0:0:0:0:
82,261,3650,2,0,P|74:193|60:143,2,110,2|2|10,1:2|0:0|0:0,0:0:0:0:
147,349,4597,2,0,P|175:367|210:374,1,55,10|0,0:0|1:0,0:0:0:0:
248,356,4913,2,0,P|270:340|406:387,1,165,10|8,0:0|0:0,0:0:0:0:
493,319,5702,6,0,P|498:259|507:201,1,110,6|0,1:2|1:0,0:0:0:0:
487,156,6176,2,0,L|426:133,1,55,10|0,0:0|1:0,0:0:0:0:
386,162,6492,1,8,0:0:0:0:
280,132,6807,2,0,L|219:109,1,55,10|0,0:0|1:0,0:0:0:0:
192,154,7123,2,0,L|140:173,1,55,10|0,0:0|1:0,0:0:0:0:
80,174,7439,2,0,P|67:202|57:234,1,55,10|0,0:0|1:0,0:0:0:0:
99,263,7755,2,0,P|111:291|122:323,1,55,10|8,0:0|0:0,0:0:0:0:
225,343,8228,6,0,P|283:310|339:315,1,110,6|10,1:2|0:0,0:0:0:0:
380,312,8702,2,0,L|407:257,1,55,2|0,1:2|0:0,0:0:0:0:
372,216,9018,2,0,L|345:161,1,55,2|0,1:2|0:0,0:0:0:0:
372,116,9334,1,6,1:2:0:0:
471,38,10308,5,0,1:0:0:0:
471,38,10466,2,0,L|486:97,1,55,8|0,0:0|0:0,0:0:0:0:
481,140,10766,2,0,P|427:175|370:158,1,110,2|0,1:2|1:0,0:0:0:0:
345,129,11244,1,2,0:0:0:0:
345,129,11404,2,0,P|291:94|234:111,1,110,10|2,0:0|1:2,0:0:0:0:
212,143,11883,6,0,L|228:198,1,55,10|0,0:0|1:0,0:0:0:0:
226,250,12202,2,0,L|210:305,1,55,8|0,0:0|1:0,0:0:0:0:
161,327,12521,1,2,0:0:0:0:
161,327,12680,2,0,L|97:346,1,55,10|0,0:0|0:0,0:0:0:0:
54,327,13000,2,0,L|38:274,1,55,2|8,1:2|0:0,0:0:0:0:
23,221,13319,6,0,B|78:225|66:252|124:261,1,110,2|0,1:2|1:0,0:0:0:0:
157,217,13797,1,2,0:0:0:0:
157,217,13957,2,0,P|189:205|223:201,1,55,10|2,0:0|0:0,0:0:0:0:
257,228,14276,1,2,1:2:0:0:
310,131,14595,6,0,P|342:143|376:147,1,55,2|8,0:0|0:0,0:0:0:0:
394,191,14914,2,0,P|426:179|460:175,1,55,10|2,0:0|1:2,0:0:0:0:
487,212,15234,2,0,P|499:243|507:280,2,55,8|10|8,0:0|0:0|0:0,0:0:0:0:
506,160,15712,6,0,P|477:98|423:87,1,110,6|2,1:2|1:2,0:0:0:0:
389,105,16191,2,0,P|364:118|333:125,1,55,10|2,0:0|0:0,0:0:0:0:
288,100,16510,2,0,P|263:87|232:80,1,55,2|0,1:2|0:0,0:0:0:0:
178,75,16829,1,10,0:0:0:0:
178,75,16989,6,0,P|187:127|196:199,1,110,2|2,1:2|1:2,0:0:0:0:
148,214,17468,2,0,P|129:243|120:279,1,55,10|2,0:0|0:0,0:0:0:0:
97,311,17787,2,0,P|73:324|47:333,2,55,2|0|8,1:2|1:0|0:0,0:0:0:0:
157,323,18266,1,2,0:0:0:0:
157,323,18425,6,0,P|180:336|206:345,1,55,0|2,1:2|0:0,0:0:0:0:
254,317,18744,2,0,P|277:303|303:294,1,55,10|2,0:0|0:0,0:0:0:0:
354,315,19063,2,0,P|377:328|403:337,1,55,0|2,1:0|1:2,0:0:0:0:
446,301,19383,1,10,0:0:0:0:
446,301,19542,1,2,1:2:0:0:
235,46,20500,5,2,1:2:0:0:
235,46,20659,2,0,L|248:102,1,55,10|0,0:0|0:0,0:0:0:0:
263,152,20978,2,0,P|214:141|147:137,1,110,6|8,1:2|0:0,0:0:0:0:
101,121,21457,1,2,0:0:0:0:
101,121,21617,2,0,L|79:58,1,55,0|2,1:0|1:2,0:0:0:0:
34,42,21936,1,10,0:0:0:0:
34,42,22095,6,0,P|26:103|22:186,1,110,2|0,1:2|1:0,0:0:0:0:
59,192,22574,2,0,P|68:216|81:257,1,55,8|2,0:0|0:0,0:0:0:0:
42,287,22893,2,0,P|33:311|20:352,1,55,2|0,1:2|1:0,0:0:0:0:
69,369,23212,1,10,0:0:0:0:
139,284,23531,6,0,P|189:257|256:251,1,110,2|8,1:2|0:0,0:0:0:0:
279,289,24010,1,2,0:0:0:0:
279,289,24170,2,0,P|290:313|301:347,1,55,2|2,1:2|1:2,0:0:0:0:
354,345,24489,2,0,P|362:318|374:293,1,55,10|2,0:0|0:0,0:0:0:0:
419,262,24808,6,0,P|410:235|398:210,1,55,8|2,0:0|1:2,0:0:0:0:
353,179,25127,2,0,P|361:152|373:127,1,55,10|2,0:0|1:2,0:0:0:0:
412,90,25446,2,0,P|439:76|473:69,2,55,8|10|8,0:0|0:0|0:0,0:0:0:0:
360,71,25925,6,0,P|313:36|251:35,1,110,6|2,1:2|1:2,0:0:0:0:
221,67,26404,2,0,P|201:81|164:92,1,55,10|2,0:0|1:2,0:0:0:0:
122,66,26723,2,0,P|102:52|65:41,1,55,2|0,1:2|1:0,0:0:0:0:
24,68,27042,1,10,0:0:0:0:
24,68,27202,6,0,P|41:122|49:185,1,110,2|2,1:2|1:2,0:0:0:0:
53,229,27680,2,0,P|75:242|106:254,1,55,10|2,0:0|0:0,0:0:0:0:
141,213,28000,2,0,P|163:199|194:188,1,55,2|0,1:2|1:0,0:0:0:0:
232,224,28319,1,8,0:0:0:0:
332,227,28638,6,0,P|346:203|356:176,1,55,0|2,1:0|0:0,0:0:0:0:
319,135,28957,2,0,P|305:111|295:85,1,55,10|2,0:0|0:0,0:0:0:0:
325,39,29276,2,0,P|352:24|383:22,1,55,0|2,1:0|1:2,0:0:0:0:
400,70,29595,2,0,P|423:83|450:87,1,55,10|2,0:0|1:2,0:0:0:0:
504,99,29914,6,0,P|497:128|487:155,1,55,8|2,0:0|1:2,0:0:0:0:
447,189,30234,2,0,P|454:218|464:245,1,55,10|10,3:0|3:0,0:0:0:0:
476,295,30553,2,0,P|469:324|459:351,1,55,14|14,3:0|3:0,0:0:0:0:
408,366,30872,2,0,L|342:347,1,55,10|0,0:0|0:0,0:0:0:0:
310,318,31191,5,6,1:2:0:0:
208,358,31510,2,0,L|155:342,1,55,10|0,0:0|1:0,0:0:0:0:
102,325,31829,2,0,L|82:270,1,55,10|0,0:0|1:0,0:0:0:0:
119,231,32148,2,0,L|137:179,1,55,10|2,0:0|1:2,0:0:0:0:
100,138,32468,6,0,L|75:75,1,55,8|2,0:0|1:2,0:0:0:0:
112,42,32787,2,0,L|169:22,1,55,8|2,0:0|1:2,0:0:0:0:
205,59,33106,2,0,L|256:77,1,55,10|2,0:0|1:2,0:0:0:0:
300,43,33425,2,0,L|351:24,1,55,10|0,0:0|1:0,0:0:0:0:
400,51,33744,5,8,0:0:0:0:
425,158,34063,2,0,L|370:143,1,55,10|0,0:0|1:0,0:0:0:0:
323,170,34383,2,0,L|269:184,1,55,10|0,0:0|1:0,0:0:0:0:
221,158,34702,1,10,0:0:0:0:
221,158,34861,6,0,P|162:172|127:220,1,110,6|2,1:2|1:2,0:0:0:0:
143,262,35340,1,8,0:0:0:0:
211,348,35659,2,0,L|276:335,1,55,8|8,0:0|0:0,0:0:0:0:
306,301,35978,1,8,0:0:0:0:
413,322,36297,2,0,P|430:345|446:386,2,55,10|10|10,0:0|0:0|0:0,0:0:0:0:
300,201,37095,1,2,1:2:0:0:
390,139,37414,1,6,1:2:0:0:
299,74,37734,5,2,1:2:0:0:
299,74,37893,2,0,P|288:43|280:10,2,55,10|4|4,0:0|3:0|3:0,0:0:0:0:
257,109,38372,1,2,1:2:0:0:
173,37,38691,1,6,1:2:0:0:
113,129,39010,5,2,1:2:0:0:
109,184,39170,1,8,0:0:0:0:
109,184,39329,2,0,P|101:242|98:309,1,110,2|2,1:2|1:2,0:0:0:0:
128,339,39808,1,8,0:0:0:0:
128,339,39968,6,0,B|185:335|173:376|250:378,1,110,2|2,1:2|1:2,0:0:0:0:
278,352,40446,2,0,P|296:318|304:293,1,55,10|2,0:0|0:0,0:0:0:0:
264,260,40766,2,0,P|246:226|238:201,1,55,2|0,1:2|1:0,0:0:0:0:
272,165,41085,1,8,0:0:0:0:
200,81,41404,6,0,P|184:55|174:21,2,55,8|8|8,0:0|0:0|0:0,0:0:0:0:
353,19,42202,1,2,1:2:0:0:
423,103,42521,1,6,1:2:0:0:
496,21,42840,1,0,1:0:0:0:
496,21,43000,2,0,P|507:50|513:83,1,55,10|2,0:0|1:2,0:0:0:0:
462,98,43319,2,0,P|451:127|445:160,1,55,6|4,3:0|3:0,0:0:0:0:
457,204,43638,2,0,P|468:233|474:266,1,55,8|2,0:0|0:0,0:0:0:0:
457,309,43957,6,0,P|408:269|347:260,1,110,6|10,1:2|0:0,0:0:0:0:
331,304,44436,2,0,P|282:344|221:353,1,110,2|2,1:2|1:2,0:0:0:0:
185,372,44914,2,0,P|174:343|172:317,1,55,8|2,0:0|0:0,0:0:0:0:
204,274,45234,6,0,P|214:248|217:221,1,55,2|0,1:2|0:0,0:0:0:0:
172,189,45553,1,8,0:0:0:0:
172,189,45712,2,0,P|161:163|158:136,1,55,2|0,1:2|0:0,0:0:0:0:
204,104,46031,2,0,P|214:78|217:51,1,55,2|8,1:2|0:0,0:0:0:0:
172,17,46351,1,2,0:0:0:0:
172,17,46510,6,0,B|110:21|132:58|63:74,1,110,2|10,1:2|0:0,0:0:0:0:
23,65,46989,2,0,P|48:124|54:179,1,110,2|2,1:2|1:2,0:0:0:0:
23,215,47468,2,0,P|16:248|13:276,1,55,8|2,0:0|0:0,0:0:0:0:
21,323,47787,6,0,P|50:340|79:346,1,55,0|2,1:0|1:2,0:0:0:0:
113,310,48106,1,8,0:0:0:0:
113,310,48266,2,0,P|173:291|221:325,1,110,2|2,1:2|1:2,0:0:0:0:
250,350,48744,2,0,L|275:296,1,55,8|2,0:0|0:0,0:0:0:0:
321,273,49063,5,8,0:0:0:0:
269,175,49383,1,8,0:0:0:0:
269,175,49542,1,4,1:2:0:0:
362,117,49861,1,4,1:2:0:0:
268,59,50180,1,4,1:2:0:0:
465,316,51617,6,0,B|407:302|420:341|339:309,1,110,6|8,1:2|0:0,0:0:0:0:
266,253,52255,2,0,L|246:186,1,55,2|2,1:2|1:2,0:0:0:0:
272,149,52574,1,10,0:0:0:0:
272,149,52734,2,0,P|214:113|152:120,1,110,6|2,1:2|1:2,0:0:0:0:
138,154,53212,2,0,P|115:168|77:182,1,55,10|2,0:0|0:0,0:0:0:0:
46,143,53531,2,0,P|36:123|26:84,1,55,2|2,1:2|1:2,0:0:0:0:
56,44,53851,1,10,0:0:0:0:
143,110,54170,6,0,P|166:124|191:134,1,55,6|2,1:2|1:2,0:0:0:0:
238,104,54489,1,10,0:0:0:0:
238,104,54648,2,0,P|301:83|352:98,1,110,6|2,1:2|1:2,0:0:0:0:
387,124,55127,1,10,0:0:0:0:
387,124,55287,6,0,P|373:186|369:243,1,110,6|2,1:2|1:2,0:0:0:0:
356,285,55766,1,10,0:0:0:0:
356,285,55925,2,0,P|301:269|243:262,1,110,6|0,1:2|1:0,0:0:0:0:
204,295,56404,2,0,P|180:307|144:315,1,55,8|2,0:0|1:2,0:0:0:0:
101,294,56723,6,0,P|79:267|64:235,1,55,2|0,1:2|1:0,0:0:0:0:
98,202,57042,1,10,0:0:0:0:
32,114,57361,2,0,P|87:90|149:104,1,110,2|10,1:2|0:0,0:0:0:0:
215,171,58000,2,0,P|239:186|273:197,1,55,2|0,1:2|1:0,0:0:0:0:
318,186,58319,1,10,0:0:0:0:
318,186,58478,2,0,P|343:176|367:161,1,55,6|0,1:2|0:0,0:0:0:0:
408,125,58797,2,0,L|430:58,1,55,6|0,1:2|0:0,0:0:0:0:
385,34,59117,6,0,B|328:36|340:68|270:76,1,110,6|0,1:2|1:0,0:0:0:0:
235,48,59595,1,8,0:0:0:0:
179,142,59914,2,0,P|189:172|194:201,1,55,2|0,1:2|1:0,0:0:0:0:
172,246,60234,2,0,P|162:276|157:305,1,55,8|2,0:0|0:0,0:0:0:0:
190,343,60553,6,0,P|222:357|259:364,1,55,2|2,1:2|1:2,0:0:0:0:
293,342,60872,2,0,P|325:328|362:321,1,55,10|2,0:0|0:0,0:0:0:0:
390,354,61191,2,0,P|422:368|459:375,1,55,6|10,3:0|0:0,0:0:0:0:
481,334,61510,2,0,P|493:306|499:278,1,55,10|8,0:0|0:0,0:0:0:0:
453,250,61829,6,0,P|441:224|435:198,1,55,6|2,1:2|1:2,0:0:0:0:
470,155,62148,1,10,0:0:0:0:
470,155,62308,2,0,P|486:125|489:93,1,55,2|0,0:0|1:0,0:0:0:0:
467,53,62627,2,0,P|440:40|412:35,1,55,2|10,1:2|0:0,0:0:0:0:
362,51,62946,6,0,P|349:112|342:168,1,110,6|2,1:2|1:2,0:0:0:0:
302,197,63425,2,0,P|292:235|290:266,1,55,8|2,0:0|0:0,0:0:0:0:
286,305,63744,2,0,P|254:322|224:327,1,55,2|2,1:2|1:2,0:0:0:0:
190,295,64063,1,10,0:0:0:0:
102,362,64383,6,0,P|98:332|91:302,1,55,6|2,1:2|1:2,0:0:0:0:
50,272,64702,1,10,0:0:0:0:
50,272,64861,2,0,P|68:200|73:150,1,110,6|2,1:2|1:2,0:0:0:0:
38,120,65340,1,10,0:0:0:0:
38,120,65500,6,0,P|96:99|156:117,1,110,6|2,1:2|1:2,0:0:0:0:
176,151,65978,1,10,0:0:0:0:
176,151,66138,2,0,P|234:172|294:154,1,110,6|0,1:2|1:0,0:0:0:0:
316,121,66617,1,8,0:0:0:0:
401,51,66936,6,0,L|420:117,1,55,4|0,1:2|0:0,0:0:0:0:
456,141,67255,2,0,L|437:207,1,55,10|0,0:0|1:0,0:0:0:0:
388,211,67574,2,0,L|407:277,1,55,10|0,0:0|1:0,0:0:0:0:
445,298,67893,2,0,L|426:364,1,55,8|2,0:0|1:2,0:0:0:0:
380,375,68212,6,0,L|319:359,1,55,10|2,0:0|1:2,0:0:0:0:
302,311,68531,2,0,L|248:324,1,55,10|2,0:0|1:2,0:0:0:0:
203,356,68851,2,0,L|142:340,1,55,10|2,0:0|1:2,0:0:0:0:
107,307,69170,1,14,0:0:0:0:
10,254,69489,6,0,P|66:208|113:205,1,110,6|10,1:2|0:0,0:0:0:0:
149,231,69968,2,0,P|161:255|170:281,2,55,2|0|2,0:0|1:0|1:2,0:0:0:0:
172,181,70446,1,10,0:0:0:0:
172,181,70606,6,0,P|182:152|189:120,1,55,2|0,0:0|1:0,0:0:0:0:
144,94,70925,1,2,1:2:0:0:
144,94,71085,2,0,P|134:65|127:33,1,55,10|2,0:0|1:2,0:0:0:0:
180,23,71404,2,0,P|209:23|240:32,1,55,8|8,0:0|3:0,0:0:0:0:
267,73,71723,1,6,3:0:0:0:
359,13,72042,1,10,0:0:0:0:
368,232,72680,6,0,P|411:238|459:221,2,82.5,10|10|10,0:0|0:0|0:0,0:0:0:0:
324,197,73319,1,10,0:0:0:0:
165,349,73957,6,0,P|122:355|74:338,2,82.5,10|10|10,0:0|0:0|0:0,0:0:0:0:
211,318,74595,2,0,P|222:286|227:249,1,55,6|0,1:2|0:0,0:0:0:0:
180,234,74914,2,0,P|169:202|164:165,1,55,10|2,0:0|1:2,0:0:0:0:
213,153,75234,2,0,P|224:121|229:84,1,55,10|10,0:0|3:0,0:0:0:0:
188,61,75553,2,0,P|160:47|123:42,1,55,6|6,3:0|3:0,0:0:0:0:
90,72,75872,5,10,0:0:0:0:
43,171,76191,1,0,1:0:0:0:
73,276,76510,2,0,P|112:300|169:309,2,82.5,10|10|10,0:0|0:0|0:0,0:0:0:0:
19,261,77148,1,10,0:0:0:0:
115,207,77468,2,0,P|127:184|134:154,1,55,0|0,1:0|0:0,0:0:0:0:
123,101,77787,2,0,P|84:79|42:67,2,82.5,10|10|10,0:0|0:0|0:0,0:0:0:0:
156,144,78425,6,0,B|221:138|201:172|271:170,1,110,6|10,1:2|0:0,0:0:0:0:
299,130,78904,2,0,P|354:110|405:138,1,110,2|2,1:2|1:2,0:0:0:0:
438,167,79383,2,0,P|429:195|422:232,1,55,10|2,0:0|1:2,0:0:0:0:
386,260,79702,2,0,P|403:309|438:332,2,82.5,10|8|10,0:0|0:0|0:0,0:0:0:0:
340,228,80340,2,0,L|271:212,1,55,8|4,0:0|3:0,0:0:0:0:
244,251,80659,2,0,L|190:263,1,55,8|0,0:0|0:0,0:0:0:0:
143,291,80978,6,0,P|137:234|123:161,1,110,6|8,1:2|0:0,0:0:0:0:
90,141,81457,2,0,P|93:108|100:81,1,55,10|0,0:0|1:0,0:0:0:0:
142,53,81776,2,0,P|174:41|208:36,1,55,10|0,0:0|1:0,0:0:0:0:
237,71,82095,6,0,P|269:83|303:88,1,55,10|0,0:0|1:0,0:0:0:0:
338,60,82414,2,0,P|370:48|404:43,1,55,10|0,0:0|1:0,0:0:0:0:
433,79,82734,2,0,P|429:111|423:139,1,55,10|0,0:0|1:0,0:0:0:0:
404,184,83053,2,0,P|423:196|466:209,2,55,10|8|10,0:0|0:0|0:0,0:0:0:0:
351,168,83531,6,0,P|324:172|284:186,1,55,6|2,1:2|0:0,0:0:0:0:
265,225,83851,1,2,1:2:0:0:
265,225,84010,2,0,P|238:221|198:207,1,55,2|0,0:0|1:0,0:0:0:0:
170,176,84329,2,0,P|143:180|103:194,1,55,2|0,0:0|1:0,0:0:0:0:
83,231,84648,1,2,0:0:0:0:
83,231,84808,6,0,P|93:257|105:290,1,55,0|2,1:0|0:0,0:0:0:0:
147,314,85127,1,10,0:0:0:0:
147,314,85287,2,0,P|157:288|169:255,1,55,6|0,1:2|0:0,0:0:0:0:
220,271,85606,2,0,P|229:296|239:322,1,55,6|0,1:2|0:0,0:0:0:0:
282,356,85925,5,6,1:2:0:0:
383,225,86404,1,2,0:0:0:0:
296,157,86723,1,2,0:0:0:0:
386,94,87042,1,2,0:0:0:0:
284,52,87361,1,10,3:0:0:0:
284,52,87521,2,0,L|209:35,2,55,8|8|6,0:0|0:0|1:2,0:0:0:0:
376,110,88159,1,6,1:2:0:0:
