osu file format v14

[General]
AudioFilename: usq.mp3
AudioLeadIn: 1000
PreviewTime: 50659
Countdown: 0
SampleSet: Soft
StackLeniency: 0.6
Mode: 0
LetterboxInBreaks: 0
WidescreenStoryboard: 1

[Editor]
DistanceSpacing: 0.9
BeatDivisor: 4
GridSize: 32
TimelineZoom: 1.800001

[Metadata]
Title:Sakura no Ato (all quartets lead to the?) (TV Size)
TitleUnicode:桜のあと (all quartets lead to the?) (TV Size)
Artist:UNISON SQUARE GARDEN
ArtistUnicode:UNISON SQUARE GARDEN
Creator:Nevo
Version:Glaceon's Insane
Source:夜桜四重奏 ~ハナノウタ~
Tags:yozakura quartet hana no uta opening tv size agatsu nikakis ayyri glaceon eiri- Onlybiscuit usg anime japanese
BeatmapID:1872246
BeatmapSetID:565004

[Difficulty]
HPDrainRate:6
CircleSize:4
OverallDifficulty:8.2
ApproachRate:9
SliderMultiplier:2
SliderTickRate:1

[Events]
//Background and Video events
0,0,"bg.jpg",0,0
Video,0,"vid.avi"
//Break Periods
//Storyboard Layer 0 (Background)
//Storyboard Layer 1 (Fail)
//Storyboard Layer 2 (Pass)
//Storyboard Layer 3 (Foreground)
//Storyboard Sound Samples

[TimingPoints]
650,315.789473684211,4,2,1,80,1,0
650,-153.846153846154,4,2,1,80,0,0
5702,-133.333333333333,4,2,1,80,0,0
8071,315.789473684211,4,2,1,80,1,0
8071,-133.333333333333,4,2,1,80,0,0
10151,315.789473684211,4,2,1,80,1,0
10466,-133.333333333333,4,2,1,80,0,0
10703,-133.333333333333,4,2,1,80,0,0
10766,319.148936170213,4,2,1,65,1,0
10766,-133.333333333333,4,2,1,65,0,0
20898,-133.333333333333,4,2,1,65,0,0
20978,-133.333333333333,4,2,1,65,0,0
31111,-133.333333333333,4,2,1,65,0,0
31191,-133.333333333333,4,2,1,80,0,0
31510,-133.333333333333,4,2,1,80,0,1
35978,-153.846153846154,4,2,1,80,0,1
36218,-133.333333333333,4,2,1,80,0,1
36297,-133.333333333333,4,2,1,80,0,0
37335,-133.333333333333,4,2,1,80,0,0
37415,-133.333333333333,4,2,1,80,0,0
38611,-133.333333333333,4,2,1,80,0,0
38691,-133.333333333333,4,2,1,80,0,0
42441,-133.333333333333,4,2,1,80,0,0
42521,-133.333333333333,4,2,1,80,0,0
51617,-100,4,2,1,80,0,1
54090,-100,4,2,1,80,0,1
54170,-100,4,2,1,80,0,1
58718,-100,4,2,1,80,0,1
58797,-100,4,2,1,80,0,1
59037,-100,4,2,1,80,0,1
59116,-100,4,2,1,80,0,1
59356,-100,4,2,1,80,0,1
59435,-100,4,2,1,80,0,1
61510,-100,4,2,1,80,0,0
61829,-100,4,2,1,80,0,1
64303,-100,4,2,1,80,0,1
64383,-100,4,2,1,80,0,1
66856,-100,4,2,1,80,0,1
66936,-100,4,2,1,80,0,1
69409,-100,4,2,1,80,0,1
69489,-100,4,2,1,80,0,1
71962,-100,4,2,1,80,0,1
72042,-100,4,2,1,80,0,0
74595,-100,4,2,1,80,0,1
75872,-100,4,2,1,80,0,0
78425,-100,4,2,1,80,0,1
80898,-100,4,2,1,80,0,1
80978,-117.647058823529,4,2,1,80,0,0
88159,-166.666666666667,4,2,1,80,0,1
88239,-100,4,2,1,80,0,0
88957,-153.846153846153,4,2,1,5,0,0

[Colours]
Combo1 : 128,128,192
Combo2 : 255,128,255
Combo3 : 0,128,255
Combo4 : 255,128,128

[HitObjects]
140,76,650,6,0,P|122:113|168:185,1,129.999994049073,2|0,1:2|0:0,0:0:0:0:
282,238,1123,2,0,L|275:153,1,64.9999970245363,2|0,1:2|0:0,0:0:0:0:
370,141,1439,2,0,L|364:205,1,64.9999970245363,2|0,0:0|0:0,0:0:0:0:
372,337,1755,2,0,P|335:330|286:353,1,64.9999970245363,2|0,1:2|0:0,0:0:0:0:
206,360,2071,2,0,P|227:336|237:305,1,64.9999970245363,2|0,0:0|0:0,0:0:0:0:
245,118,2386,6,0,P|254:148|276:172,1,64.9999970245363,2|0,1:2|0:0,0:0:0:0:
451,184,2702,1,2,1:2:0:0:
324,108,2860,1,8,0:0:0:0:
410,109,3018,1,2,0:0:0:0:
388,246,3176,6,0,L|382:321,2,64.9999970245363,2|2|2,1:2|0:0|0:0,0:0:0:0:
324,108,3650,2,0,L|318:43,1,64.9999970245363,2|0,1:2|0:0,0:0:0:0:
237,104,3965,2,0,L|231:168,1,64.9999970245363,2|0,0:0|0:0,0:0:0:0:
214,311,4281,5,10,0:0:0:0:
139,155,4439,1,0,1:0:0:0:
302,245,4597,1,10,0:0:0:0:
302,245,4676,1,8,0:0:0:0:
302,245,4755,1,0,1:0:0:0:
108,286,4913,1,10,0:0:0:0:
315,166,5071,1,8,0:0:0:0:
352,180,5149,1,8,0:0:0:0:
377,211,5228,1,8,0:0:0:0:
383,251,5307,1,8,3:0:0:0:
368,289,5386,1,8,3:0:0:0:
337,282,5464,1,8,3:0:0:0:
306,292,5543,1,4,0:3:0:0:
285,317,5622,1,4,0:3:0:0:
278,348,5702,6,0,P|233:306|147:324,1,150.000005722046,6|0,1:2|1:0,0:0:0:0:
50,200,6176,2,0,L|56:298,1,75.0000028610231,10|0,0:0|1:0,0:0:0:0:
192,199,6492,2,0,L|196:124,1,75.0000028610231,10|0,0:0|1:0,0:0:0:0:
203,0,6807,1,10,0:0:0:0:
108,123,6965,1,0,1:0:0:0:
270,69,7123,1,10,0:0:0:0:
270,69,7202,1,8,0:0:0:0:
270,69,7281,1,0,1:0:0:0:
111,20,7439,6,0,L|36:23,1,75.0000028610231,10|0,0:0|1:0,0:0:0:0:
69,185,7755,1,10,0:0:0:0:
82,150,7833,1,8,0:0:0:0:
108,123,7912,1,8,0:0:0:0:
142,109,7991,1,8,0:0:0:0:
179,109,8071,6,0,L|184:172,1,37.5000014305115,10|8,0:0|0:0,0:0:0:0:
189,304,8228,1,6,1:2:0:0:
268,166,8386,1,0,0:0:0:0:
92,282,8544,1,10,0:0:0:0:
281,289,8702,6,0,B|315:267|357:285|357:285|398:306|449:280,2,150.000005722046,2|2|6,1:2|1:2|1:2,0:0:0:0:
256,192,9413,12,0,10308,0:0:0:0:
58,128,10466,6,0,P|108:147|158:123,1,112.500004291535,8|0,0:0|0:0,0:0:0:0:
180,94,10766,6,0,L|289:91,1,75.0000028610231,2|0,1:2|0:0,0:0:0:0:
326,196,11085,2,0,L|217:193,1,75.0000028610231,0|2,1:0|0:0,0:0:0:0:
324,41,11404,2,0,P|343:77|339:129,1,75.0000028610231,10|2,0:0|0:0,0:0:0:0:
317,219,11723,1,2,1:2:0:0:
442,158,11883,1,10,0:0:0:0:
442,158,11962,1,8,0:0:0:0:
442,158,12042,6,0,L|450:61,2,75.0000028610231,0|8|0,1:0|0:0|1:0,0:0:0:0:
429,261,12521,1,2,0:0:0:0:
354,150,12680,2,0,P|298:143|261:167,1,75.0000028610231,10|0,0:0|0:0,0:0:0:0:
211,305,13000,2,0,P|245:260|242:215,1,75.0000028610231,2|8,1:2|0:0,0:0:0:0:
228,208,13239,1,8,0:0:0:0:
228,208,13319,6,0,L|119:202,1,75.0000028610231,2|0,1:2|0:0,0:0:0:0:
56,289,13638,2,0,L|165:283,1,75.0000028610231,0|2,1:0|0:0,0:0:0:0:
153,203,13957,1,10,0:0:0:0:
211,305,14117,1,2,0:0:0:0:
220,124,14276,1,2,1:2:0:0:
307,168,14436,1,2,0:0:0:0:
130,122,14595,5,8,0:0:0:0:
348,89,14755,1,2,1:2:0:0:
84,38,14914,5,10,0:0:0:0:
272,55,15074,1,2,1:2:0:0:
54,183,15234,5,8,0:0:0:0:
83,206,15313,1,8,0:0:0:0:
118,217,15393,1,10,0:0:0:0:
155,215,15473,1,8,0:0:0:0:
189,200,15553,1,8,0:0:0:0:
413,58,15712,6,0,P|359:74|340:167,1,150.000005722046,6|2,1:2|1:2,0:0:0:0:
397,282,16191,1,10,0:0:0:0:
412,139,16351,1,2,0:0:0:0:
300,244,16510,2,0,L|209:249,1,75.0000028610231,2|0,1:2|1:0,0:0:0:0:
114,257,16829,1,10,0:0:0:0:
215,125,16989,6,0,P|254:171|214:253,1,150.000005722046,2|2,1:2|1:2,0:0:0:0:
81,136,17468,1,10,0:0:0:0:
182,189,17627,1,2,0:0:0:0:
17,300,17787,2,0,L|22:225,1,75.0000028610231,2|0,1:2|1:0,0:0:0:0:
167,318,18106,1,8,0:0:0:0:
105,231,18266,1,2,0:0:0:0:
299,252,18425,6,0,L|205:246,1,75.0000028610231,0|2,1:2|0:0,0:0:0:0:
93,351,18744,2,0,L|187:345,1,75.0000028610231,10|2,0:0|0:0,0:0:0:0:
334,314,19063,2,0,P|306:284|299:241,1,75.0000028610231,0|2,1:0|1:2,0:0:0:0:
316,106,19383,1,10,0:0:0:0:
379,181,19542,5,2,1:2:0:0:
69,52,20500,1,2,1:2:0:0:
96,169,20659,2,0,P|149:129|211:149,1,112.500004291535,10|0,0:0|0:0,0:0:0:0:
228,161,20978,6,0,L|235:57,1,75.0000028610231,6|0,1:2|0:0,0:0:0:0:
321,11,21297,2,0,L|326:85,1,75.0000028610231,8|2,0:0|0:0,0:0:0:0:
337,209,21617,2,0,P|372:180|424:182,1,75.0000028610231,0|2,1:0|1:2,0:0:0:0:
485,202,21936,1,10,0:0:0:0:
458,364,22095,6,0,P|470:322|384:255,1,150.000005722046,2|0,1:2|1:0,0:0:0:0:
318,372,22574,2,0,P|367:353|384:316,1,75.0000028610231,8|2,0:0|0:0,0:0:0:0:
337,209,22893,1,2,1:2:0:0:
308,289,23053,1,0,1:0:0:0:
182,199,23212,2,0,L|273:203,1,75.0000028610231,10|0,0:0|0:0,0:0:0:0:
119,258,23531,6,0,P|92:201|145:124,1,150.000005722046,2|8,1:2|0:0,0:0:0:0:
267,124,24010,1,2,0:0:0:0:
139,9,24170,1,2,1:2:0:0:
182,199,24329,1,2,1:2:0:0:
230,16,24489,1,10,0:0:0:0:
131,130,24648,1,2,0:0:0:0:
310,47,24808,5,8,0:0:0:0:
60,68,24968,1,2,1:2:0:0:
352,120,25127,5,10,0:0:0:0:
139,9,25287,1,2,1:2:0:0:
381,20,25446,5,8,0:0:0:0:
346,5,25525,1,8,0:0:0:0:
309,2,25605,1,10,0:0:0:0:
272,9,25685,1,8,0:0:0:0:
239,27,25765,1,8,0:0:0:0:
92,189,25925,6,0,P|156:197|199:120,1,150.000005722046,6|2,1:2|1:2,0:0:0:0:
310,24,26404,2,0,P|309:63|331:99,1,75.0000028610231,10|2,0:0|1:2,0:0:0:0:
325,93,26643,1,0,1:0:0:0:
325,93,26723,1,2,1:2:0:0:
439,143,26883,1,0,1:0:0:0:
387,41,27042,1,10,0:0:0:0:
331,184,27202,6,0,L|325:340,1,150.000005722046,2|2,1:2|1:2,0:0:0:0:
150,356,27680,1,10,0:0:0:0:
231,298,27840,1,2,0:0:0:0:
136,175,28000,1,2,1:2:0:0:
142,266,28159,1,0,1:0:0:0:
300,175,28319,2,0,L|203:177,1,75.0000028610231,8|2,0:0|0:0,0:0:0:0:
153,21,28638,6,0,P|171:59|168:108,1,75.0000028610231,0|2,1:0|0:0,0:0:0:0:
62,78,28957,1,10,0:0:0:0:
35,234,29117,2,0,P|37:196|54:163,1,75.0000028610231,2|0,0:0|1:0,0:0:0:0:
123,251,29436,1,2,1:2:0:0:
23,327,29595,1,10,0:0:0:0:
54,163,29755,1,2,1:2:0:0:
110,347,29914,5,8,0:0:0:0:
152,156,30074,1,2,1:2:0:0:
0,235,30234,1,10,3:0:0:0:
0,235,30313,1,8,3:0:0:0:
0,235,30393,1,10,3:0:0:0:
193,220,30553,1,14,3:0:0:0:
141,73,30712,1,14,3:0:0:0:
110,347,30872,2,0,L|125:207,1,112.500004291535,10|0,0:0|0:0,0:0:0:0:
128,195,31191,6,0,P|168:221|221:208,1,75.0000028610231,6|0,1:2|0:0,0:0:0:0:
255,111,31510,2,0,P|218:114|189:136,1,75.0000028610231,10|0,0:0|1:0,0:0:0:0:
273,246,31829,5,10,0:0:0:0:
343,109,31989,1,0,1:0:0:0:
335,334,32148,5,10,0:0:0:0:
307,174,32308,1,2,1:2:0:0:
184,358,32468,6,0,L|289:352,1,75.0000028610231,8|2,0:0|1:2,0:0:0:0:
394,261,32787,2,0,L|289:255,1,75.0000028610231,8|2,0:0|1:2,0:0:0:0:
189,249,33106,5,10,0:0:0:0:
335,334,33266,1,2,1:2:0:0:
126,301,33425,5,10,0:0:0:0:
319,256,33585,1,0,1:0:0:0:
210,180,33744,6,0,P|189:218|195:268,1,75.0000028610231,8|0,0:0|1:0,0:0:0:0:
357,160,34063,2,0,P|354:122|335:91,1,75.0000028610231,10|0,0:0|1:0,0:0:0:0:
179,54,34383,5,10,0:0:0:0:
282,152,34542,1,0,1:0:0:0:
96,109,34702,5,10,0:0:0:0:
269,40,34861,1,6,1:2:0:0:
299,253,35180,5,2,1:2:0:0:
105,283,35339,1,8,0:0:0:0:
205,149,35500,1,0,1:0:0:0:
205,149,35579,1,8,0:0:0:0:
205,149,35659,1,8,0:0:0:0:
227,318,35819,1,8,0:0:0:0:
125,175,35978,2,0,P|120:128|149:83,1,97.4999955368044,8|0,0:0|0:0,0:0:0:0:
187,69,36297,5,10,0:0:0:0:
231,230,36457,1,10,0:0:0:0:
282,98,36617,1,10,0:0:0:0:
317,187,36776,1,4,3:0:0:0:
317,187,36856,1,4,3:0:0:0:
317,187,36936,1,4,3:0:0:0:
401,46,37095,2,0,L|407:175,1,112.500004291535,2|0,1:2|0:0,0:0:0:0:
408,203,37414,6,0,P|454:217|475:317,1,150.000005722046,6|2,1:2|1:2,0:0:0:0:
368,357,37893,1,10,0:0:0:0:
410,284,38053,1,4,3:0:0:0:
410,284,38133,1,4,3:0:0:0:
410,284,38212,1,4,3:0:0:0:
286,333,38372,2,0,L|155:337,1,112.500004291535,2|0,1:2|0:0,0:0:0:0:
129,337,38691,6,0,P|143:293|127:234,1,75.0000028610231,6|0,1:2|0:0,0:0:0:0:
79,177,39010,1,2,1:2:0:0:
64,293,39170,1,8,0:0:0:0:
237,192,39329,2,0,L|142:186,1,75.0000028610231,2|0,1:2|0:0,0:0:0:0:
0,170,39648,1,2,1:2:0:0:
133,116,39808,1,8,0:0:0:0:
9,25,39968,6,0,L|168:29,1,150.000005722046,2|2,1:2|1:2,0:0:0:0:
253,189,40446,1,10,0:0:0:0:
270,91,40606,1,2,0:0:0:0:
162,226,40766,1,2,1:2:0:0:
326,248,40925,1,0,1:0:0:0:
191,114,41085,1,8,0:0:0:0:
341,134,41244,1,0,0:0:0:0:
159,29,41404,5,8,0:0:0:0:
345,16,41563,1,8,0:0:0:0:
191,114,41723,1,8,0:0:0:0:
255,8,41883,1,4,3:0:0:0:
255,8,41962,1,4,3:0:0:0:
255,8,42042,1,4,3:0:0:0:
257,170,42202,2,0,P|213:201|130:174,1,112.500004291535,2|0,1:2|0:0,0:0:0:0:
118,173,42521,6,0,L|131:345,1,150.000005722046,6|0,1:2|1:0,0:0:0:0:
300,343,43000,1,10,0:0:0:0:
217,294,43159,1,2,1:2:0:0:
357,239,43319,1,6,3:0:0:0:
357,239,43398,1,4,3:0:0:0:
357,239,43478,1,4,3:0:0:0:
189,156,43638,2,0,L|298:153,1,75.0000028610231,8|2,0:0|0:0,0:0:0:0:
358,21,43957,6,0,P|332:58|389:154,1,150.000005722046,6|10,1:2|0:0,0:0:0:0:
488,91,44436,2,0,P|446:74|398:86,1,75.0000028610231,2|0,1:2|0:0,0:0:0:0:
357,239,44755,2,0,P|394:240|427:225,1,75.0000028610231,2|8,1:2|0:0,0:0:0:0:
292,188,45074,1,2,0:0:0:0:
286,362,45234,6,0,L|291:260,1,75.0000028610231,2|0,1:2|0:0,0:0:0:0:
219,152,45553,1,8,0:0:0:0:
121,295,45712,2,0,L|195:291,1,75.0000028610231,2|0,1:2|0:0,0:0:0:0:
360,365,46031,2,0,L|285:361,1,75.0000028610231,2|8,1:2|0:0,0:0:0:0:
158,214,46351,1,2,0:0:0:0:
339,168,46510,6,0,P|348:231|263:288,1,150.000005722046,2|10,1:2|0:0,0:0:0:0:
240,104,46989,2,0,L|244:213,1,75.0000028610231,2|0,1:2|0:0,0:0:0:0:
327,6,47308,2,0,L|323:115,1,75.0000028610231,2|8,1:2|0:0,0:0:0:0:
414,198,47627,6,0,L|411:123,1,75.0000028610231,2|0,0:0|1:0,0:0:0:0:
497,218,47946,1,2,1:2:0:0:
389,283,48106,1,8,0:0:0:0:
491,379,48266,2,0,L|494:304,1,75.0000028610231,2|0,1:2|0:0,0:0:0:0:
339,212,48585,2,0,L|342:287,1,75.0000028610231,2|8,1:2|0:0,0:0:0:0:
497,218,48904,1,2,0:0:0:0:
397,352,49063,5,8,0:0:0:0:
411,123,49223,1,0,1:0:0:0:
299,359,49383,1,8,0:0:0:0:
493,304,49542,5,4,1:2:0:0:
465,293,49861,5,4,1:2:0:0:
437,282,50180,5,4,1:2:0:0:
161,72,51617,6,0,P|121:124|187:227,1,200,6|8,1:2|0:0,0:0:0:0:
210,142,52095,1,0,0:0:0:0:
368,216,52255,2,0,L|243:223,1,100,2|2,1:2|1:2,0:0:0:0:
392,316,52574,1,10,0:0:0:0:
171,384,52734,6,0,P|184:324|314:330,1,200,6|2,1:2|1:2,0:0:0:0:
474,359,53212,1,10,0:0:0:0:
368,216,53372,1,2,0:0:0:0:
347,381,53531,1,2,1:2:0:0:
468,162,53691,1,2,1:2:0:0:
286,235,53851,2,0,L|455:247,1,150,10|0,0:0|0:0,0:0:0:0:
486,251,54170,5,6,1:2:0:0:
309,155,54329,1,2,1:2:0:0:
401,321,54489,1,10,0:0:0:0:
424,67,54648,2,0,L|416:189,1,100,6|0,1:2|0:0,0:0:0:0:
319,314,54968,5,2,1:2:0:0:
486,251,55127,1,10,0:0:0:0:
309,155,55287,2,0,L|191:157,1,100,6|0,1:2|0:0,0:0:0:0:
129,343,55606,5,2,1:2:0:0:
261,236,55766,1,10,0:0:0:0:
123,135,55925,2,0,L|129:264,1,100,6|0,1:2|0:0,0:0:0:0:
237,69,56244,5,0,1:0:0:0:
350,256,56404,2,0,L|354:156,1,100,8|2,0:0|1:2,0:0:0:0:
357,106,56643,1,0,1:0:0:0:
357,106,56723,6,0,P|410:131|472:122,1,100,2|0,1:2|1:0,0:0:0:0:
512,288,57042,2,0,P|462:288|418:311,1,100,10|0,0:0|0:0,0:0:0:0:
222,189,57361,2,0,L|353:198,1,100,2|0,1:2|1:0,0:0:0:0:
258,332,57680,2,0,L|127:341,1,100,10|0,0:0|0:0,0:0:0:0:
44,195,58000,5,2,1:2:0:0:
162,255,58159,1,0,1:0:0:0:
17,327,58319,1,10,0:0:0:0:
113,137,58478,6,0,P|133:88|243:84,1,150,6|0,1:2|0:0,0:0:0:0:
190,141,58797,6,0,P|230:200|302:200,1,150,6|0,1:2|0:0,0:0:0:0:
348,135,59117,6,0,P|384:196|353:261,1,150,6|0,1:2|0:0,0:0:0:0:
278,286,59436,5,0,1:0:0:0:
118,236,59595,2,0,L|112:135,1,100,8|0,0:0|0:0,0:0:0:0:
272,33,59914,2,0,L|266:132,1,100,2|0,1:2|1:0,0:0:0:0:
168,335,60234,2,0,P|226:288|280:291,1,100,8|2,0:0|0:0,0:0:0:0:
410,295,60553,5,2,1:2:0:0:
239,367,60712,1,2,1:2:0:0:
337,171,60872,2,0,L|330:293,1,100,10|2,0:0|0:0,0:0:0:0:
239,159,61191,1,6,3:0:0:0:
401,101,61351,1,10,0:0:0:0:
427,100,61430,1,8,0:0:0:0:
453,106,61510,1,10,0:0:0:0:
435,348,61670,1,8,0:0:0:0:
419,322,61749,1,8,0:0:0:0:
410,295,61829,6,0,L|517:305,1,100,6|2,1:2|1:2,0:0:0:0:
385,189,62148,1,10,0:0:0:0:
500,91,62308,2,0,L|400:100,1,100,2|0,0:0|1:0,0:0:0:0:
264,119,62627,1,2,1:2:0:0:
468,172,62787,1,10,0:0:0:0:
265,267,62946,6,0,P|211:272|152:145,1,200,6|2,1:2|1:2,0:0:0:0:
229,15,63425,1,8,0:0:0:0:
228,188,63585,1,2,0:0:0:0:
398,55,63744,2,0,L|286:47,1,100,2|2,1:2|1:2,0:0:0:0:
78,198,64063,2,0,L|232:186,1,150,10|0,0:0|0:0,0:0:0:0:
278,183,64383,5,6,1:2:0:0:
202,315,64542,1,2,1:2:0:0:
159,92,64702,1,10,0:0:0:0:
377,190,64861,2,0,L|245:180,1,100,6|0,1:2|0:0,0:0:0:0:
78,95,65180,5,2,1:2:0:0:
235,116,65340,1,10,0:0:0:0:
54,290,65500,2,0,L|68:165,1,100,6|0,1:2|0:0,0:0:0:0:
88,13,65819,5,2,1:2:0:0:
141,213,65978,1,10,0:0:0:0:
284,31,66138,2,0,L|179:38,1,100,6|0,1:2|0:0,0:0:0:0:
0,49,66457,1,0,1:0:0:0:
141,213,66617,2,0,L|315:224,1,150,8|0,0:0|0:0,0:0:0:0:
340,227,66936,6,0,P|318:178|326:118,1,100,4|0,1:2|0:0,0:0:0:0:
477,216,67255,2,0,P|478:265|457:310,1,100,10|0,0:0|1:0,0:0:0:0:
320,132,67574,2,0,L|447:123,1,100,10|0,0:0|1:0,0:0:0:0:
365,318,67893,2,0,L|238:309,1,100,8|2,0:0|1:2,0:0:0:0:
94,184,68212,5,10,0:0:0:0:
258,208,68372,1,2,1:2:0:0:
95,298,68531,1,10,0:0:0:0:
148,121,68691,1,2,1:2:0:0:
179,347,68851,1,10,0:0:0:0:
294,132,69010,1,2,1:2:0:0:
94,184,69170,2,0,P|68:103|115:45,1,150,14|0,0:0|0:0,0:0:0:0:
149,41,69489,6,0,L|270:47,1,100,6|2,1:2|0:0,0:0:0:0:
396,57,69808,1,10,0:0:0:0:
298,231,69968,2,0,L|293:131,1,100,2|0,0:0|1:0,0:0:0:0:
471,236,70287,1,2,1:2:0:0:
378,139,70446,1,10,0:0:0:0:
305,324,70606,2,0,L|439:316,1,100,2|0,0:0|1:0,0:0:0:0:
480,126,70925,5,2,1:2:0:0:
377,235,71085,1,10,0:0:0:0:
422,57,71244,1,2,1:2:0:0:
422,57,71324,1,8,0:0:0:0:
422,57,71404,1,8,0:0:0:0:
471,236,71563,1,8,3:0:0:0:
378,139,71723,2,0,P|322:105|235:144,1,150,6|0,3:0|0:0,0:0:0:0:
218,171,72042,5,10,0:0:0:0:
333,329,72680,6,0,B|370:307|412:322|412:322|456:336|511:301,2,150,10|10|10,0:0|0:0|0:0,0:0:0:0:
224,370,73319,1,10,0:0:0:0:
219,116,73957,6,0,B|182:94|140:109|140:109|96:123|41:88,2,150,10|10|10,0:0|0:0|0:0,0:0:0:0:
391,171,74595,2,0,P|332:182|296:221,1,100,6|0,1:2|0:0,0:0:0:0:
248,311,74914,1,10,0:0:0:0:
376,251,75074,1,2,1:2:0:0:
376,251,75154,1,8,0:0:0:0:
376,251,75234,1,10,0:0:0:0:
332,339,75393,1,10,3:0:0:0:
224,228,75553,1,6,3:0:0:0:
174,367,75712,1,6,3:0:0:0:
303,208,75872,5,10,0:0:0:0:
94,269,76191,1,0,1:0:0:0:
256,83,76510,6,0,B|293:61|335:76|335:76|379:90|434:55,2,150,10|10|10,0:0|0:0|0:0,0:0:0:0:
179,169,77148,1,10,0:0:0:0:
332,289,77468,1,0,1:0:0:0:
223,252,77787,6,0,B|186:274|144:259|144:259|100:245|45:280,1,150,10|10,0:0|0:0,0:0:0:0:
32,284,78106,1,10,0:0:0:0:
179,169,78266,1,10,0:0:0:0:
85,63,78425,6,0,P|61:107|87:182,1,100,6|0,1:2|0:0,0:0:0:0:
201,48,78744,1,10,0:0:0:0:
278,178,78904,2,0,L|161:167,1,100,2|0,1:2|0:0,0:0:0:0:
138,3,79223,1,2,1:2:0:0:
276,91,79383,1,10,0:0:0:0:
178,168,79542,1,2,1:2:0:0:
235,9,79702,6,0,L|394:12,2,150,10|8|10,0:0|0:0|0:0,0:0:0:0:
119,108,80340,1,8,0:0:0:0:
98,138,80419,1,8,3:0:0:0:
92,175,80499,1,4,3:0:0:0:
103,210,80579,1,4,3:0:0:0:
128,238,80659,2,0,P|181:218|268:276,1,150,8|0,0:0|0:0,0:0:0:0:
291,288,80978,6,0,L|299:191,1,85.0000016212464,6|0,1:2|0:0,0:0:0:0:
312,76,81297,1,8,0:0:0:0:
449,138,81457,2,0,L|360:145,1,85.0000016212464,10|0,0:0|1:0,0:0:0:0:
234,35,81776,2,0,L|321:42,1,85.0000016212464,10|0,0:0|1:0,0:0:0:0:
221,170,82095,6,0,P|182:129|175:98,1,85.0000016212464,10|0,0:0|1:0,0:0:0:0:
173,0,82414,1,10,0:0:0:0:
173,0,82494,1,8,0:0:0:0:
173,0,82574,1,0,1:0:0:0:
74,70,82734,2,0,L|64:177,1,85.0000016212464,10|0,0:0|1:0,0:0:0:0:
54,276,83053,1,10,0:0:0:0:
75,258,83132,1,8,0:0:0:0:
101,248,83212,1,8,0:0:0:0:
129,247,83292,1,8,0:0:0:0:
156,255,83372,1,10,0:0:0:0:
179,272,83452,1,8,0:0:0:0:
193,296,83531,6,0,L|300:290,1,85.0000016212464,6|2,1:2|0:0,0:0:0:0:
386,286,83851,1,2,1:2:0:0:
337,140,84010,2,0,L|329:257,1,85.0000016212464,2|0,0:0|1:0,0:0:0:0:
475,290,84329,2,0,L|469:202,1,85.0000016212464,2|0,0:0|1:0,0:0:0:0:
462,39,84648,6,0,P|425:70|376:76,1,85.0000016212464,2|0,0:0|1:0,0:0:0:0:
245,60,84968,1,2,0:0:0:0:
391,0,85127,1,10,0:0:0:0:
311,139,85287,1,6,1:2:0:0:
152,22,85606,1,6,1:2:0:0:
199,276,85925,6,0,P|244:210|207:133,1,170.000003242493,6|0,1:2|0:0,0:0:0:0:
134,217,86404,2,0,P|111:258|111:297,1,85.0000016212464,2|0,0:0|0:0,0:0:0:0:
31,118,86723,2,0,P|53:159|53:198,1,85.0000016212464,2|0,0:0|0:0,0:0:0:0:
151,55,87042,2,0,P|128:96|128:135,1,85.0000016212464,2|0,0:0|0:0,0:0:0:0:
56,19,87361,5,10,3:0:0:0:
217,121,87521,1,8,0:0:0:0:
217,121,87601,1,8,0:0:0:0:
217,121,87680,1,8,0:0:0:0:
53,182,87840,1,6,1:2:0:0:
55,208,88159,6,0,P|115:178|105:320,1,299.999990844727,6|0,1:2|0:0,0:0:0:0:
