osu file format v14

[General]
AudioFilename: usq.mp3
AudioLeadIn: 1000
PreviewTime: 50659
Countdown: 0
SampleSet: Soft
StackLeniency: 0.5
Mode: 0
LetterboxInBreaks: 0
WidescreenStoryboard: 1

[Editor]
Bookmarks: 31191,36297,80978,85925
DistanceSpacing: 0.7
BeatDivisor: 4
GridSize: 32
TimelineZoom: 1.800001

[Metadata]
Title:Sakura no Ato (all quartets lead to the?) (TV Size)
TitleUnicode:桜のあと (all quartets lead to the?) (TV Size)
Artist:UNISON SQUARE GARDEN
ArtistUnicode:UNISON SQUARE GARDEN
Creator:Nevo
Version:Agatsu's Insane
Source:夜桜四重奏 ~ハナノウタ~
Tags:yozakura quartet hana no uta opening tv size agatsu nikakis ayyri glaceon eiri- Onlybiscuit usg anime japanese
BeatmapID:1869543
BeatmapSetID:565004

[Difficulty]
HPDrainRate:5
CircleSize:4
OverallDifficulty:8.3
ApproachRate:9
SliderMultiplier:1.7
SliderTickRate:1

[Events]
//Background and Video events
0,0,"bg.jpg",0,0
Video,0,"vid.avi"
//Break Periods
//Storyboard Layer 0 (Background)
//Storyboard Layer 1 (Fail)
//Storyboard Layer 2 (Pass)
//Storyboard Layer 3 (Foreground)
//Storyboard Sound Samples

[TimingPoints]
650,315.789473684211,4,2,1,80,1,0
650,-111.111111111111,4,2,1,80,0,0
5702,-100,4,2,1,80,0,0
8071,315.789473684211,4,2,1,80,1,0
9334,-166.666666666667,4,2,1,80,0,0
10151,315.789473684211,4,2,1,80,1,0
10766,319.148936170213,4,2,1,65,1,0
10766,-125,4,2,1,65,0,0
15074,-100,4,2,1,65,0,0
19861,-125,4,2,1,65,0,0
20978,-111.111111111111,4,2,1,65,0,0
25925,-100,4,2,1,65,0,0
30553,-125,4,2,1,65,0,0
31111,-125,4,2,1,65,0,0
31191,-100,4,2,1,80,0,0
31829,-100,4,2,1,80,0,0
36218,-100,4,2,1,80,0,0
36297,-111.111111111111,4,2,1,80,0,0
37335,-111.111111111111,4,2,1,80,0,0
37414,-111.111111111111,4,2,1,80,0,0
41324,-111.111111111111,4,2,1,80,0,0
41404,-111.111111111111,4,2,1,80,0,0
43957,-100,4,2,1,80,0,0
50659,-153.846153846154,4,2,1,80,0,0
50898,-153.846153846154,4,2,1,5,0,0
50978,-153.846153846154,4,2,1,80,0,0
51218,-153.846153846154,4,2,1,5,0,0
51297,-153.846153846154,4,2,1,80,0,0
51537,-153.846153846154,4,2,1,5,0,0
51617,-90.909090909091,4,2,1,80,0,1
64303,-90.909090909091,4,2,1,80,0,1
64383,-90.909090909091,4,2,1,80,0,1
66856,-90.909090909091,4,2,1,80,0,1
66936,-90.909090909091,4,2,1,80,0,1
69409,-90.909090909091,4,2,1,80,0,1
69489,-90.909090909091,4,2,1,80,0,1
71962,-90.909090909091,4,2,1,80,0,1
72042,-100,4,2,1,80,0,0
72840,-100,4,2,1,80,0,0
72920,-100,4,2,1,80,0,0
73079,-100,4,2,1,80,0,0
73159,-100,4,2,1,80,0,0
73239,-100,4,2,1,80,0,0
73319,-100,4,2,1,80,0,0
74117,-100,4,2,1,80,0,0
74196,-100,4,2,1,80,0,0
74356,-100,4,2,1,80,0,0
74436,-100,4,2,1,80,0,0
74516,-100,4,2,1,80,0,0
74595,-100,4,2,1,80,0,0
80898,-100,4,2,1,80,0,0
80978,-100,4,2,1,80,0,0
87281,-100,4,2,1,80,0,0
87361,-100,4,2,1,80,0,0
88797,-100,4,2,1,80,0,0
88957,-153.846153846153,4,2,1,5,0,0

[Colours]
Combo1 : 128,128,192
Combo2 : 255,128,255
Combo3 : 0,128,255
Combo4 : 255,128,128

[HitObjects]
83,67,650,6,0,B|60:118|60:118|98:221,1,152.999995330811,2|0,1:2|0:0,0:0:0:0:
215,271,1123,2,0,L|181:185,1,76.4999976654053,2|0,1:2|0:0,0:0:0:0:
20,264,1439,2,0,P|52:287|98:301,1,76.4999976654053,2|0,0:0|0:0,0:0:0:0:
87,114,1755,6,0,P|51:126|20:149,1,76.4999976654053,2|0,1:2|0:0,0:0:0:0:
186,199,2071,2,0,L|209:113,1,76.4999976654053,2|0,0:0|0:0,0:0:0:0:
69,39,2386,2,0,L|86:113,1,76.4999976654053,2|0,1:2|0:0,0:0:0:0:
111,262,2702,2,0,P|143:285|189:299,1,76.4999976654053,2|8,1:2|0:0,0:0:0:0:
284,171,3018,1,2,0:0:0:0:
175,56,3176,6,0,B|152:107|152:107|190:210,1,152.999995330811,2|2,1:2|0:0,0:0:0:0:
358,186,3650,2,0,L|279:170,1,76.4999976654053,2|0,1:2|0:0,0:0:0:0:
177,297,3965,2,0,L|256:281,1,76.4999976654053,2|0,0:0|0:0,0:0:0:0:
423,253,4281,6,0,P|442:215|451:170,1,76.4999976654053,10|0,0:0|1:0,0:0:0:0:
312,104,4597,1,10,0:0:0:0:
312,104,4676,1,8,0:0:0:0:
312,104,4755,1,0,1:0:0:0:
358,186,4913,1,10,0:0:0:0:
227,155,5071,2,0,L|163:145,3,38.2499988327027,8|8|8|8,0:0|0:0|0:0|3:0,0:0:0:0:
82,226,5386,2,0,L|146:216,3,38.2499988327027,8|8|4|4,3:0|3:0|0:3|0:3,0:0:0:0:
93,63,5702,6,0,B|73:118|73:118|124:230,1,170,6|0,1:2|1:0,0:0:0:0:
231,369,6176,2,0,L|255:269,1,85,10|0,0:0|1:0,0:0:0:0:
297,104,6492,1,10,0:0:0:0:
353,214,6650,1,0,1:0:0:0:
387,52,6807,6,0,P|348:17|296:-3,1,85,10|0,0:0|1:0,0:0:0:0:
193,128,7123,1,10,0:0:0:0:
193,128,7202,1,8,0:0:0:0:
193,128,7281,1,0,1:0:0:0:
316,186,7439,2,0,L|292:86,1,85,10|0,0:0|1:0,0:0:0:0:
238,263,7755,2,0,L|228:311,5,42.5,10|8|8|8|10|8,0:0|0:0|0:0|0:0|0:0|0:0,0:0:0:0:
315,336,8228,6,0,B|276:321|223:332|244:347|187:371|146:350,1,170,6|10,1:2|0:0,0:0:0:0:
0,272,8702,2,0,P|45:256|107:247,1,85,2|0,1:2|0:0,0:0:0:0:
254,182,9018,2,0,P|209:166|147:157,1,85,2|0,1:2|0:0,0:0:0:0:
60,364,9334,5,6,1:2:0:0:
256,192,9413,12,0,10308,0:0:0:0:
426,48,10466,5,8,0:0:0:0:
426,48,10766,2,0,B|408:96|408:96|446:193,1,136,2|0,1:2|1:0,0:0:0:0:
394,305,11244,1,2,0:0:0:0:
394,305,11404,2,0,L|364:227,1,68,10|2,0:0|0:0,0:0:0:0:
241,335,11723,1,2,1:2:0:0:
241,335,11883,6,0,P|273:357|313:373,1,68,10|0,0:0|1:0,0:0:0:0:
413,210,12202,2,0,B|395:258|395:258|433:355,1,136,8|2,0:2|0:0,0:0:0:0:
292,200,12680,2,0,L|221:186,1,68,10|0,0:0|0:0,0:0:0:0:
34,151,13000,1,2,1:2:0:0:
138,52,13159,1,8,0:0:0:0:
138,52,13239,1,8,0:0:0:0:
138,52,13319,6,0,B|155:99|155:99|124:180,1,136,2|0,1:2|1:0,0:0:0:0:
32,310,13797,1,2,0:0:0:0:
32,310,13957,2,0,L|14:232,1,68,10|2,0:0|0:0,0:0:0:0:
194,301,14276,1,2,1:2:0:0:
121,358,14436,1,2,0:0:0:0:
280,344,14595,5,8,0:0:0:0:
108,254,14755,1,2,1:2:0:0:
265,126,14914,1,10,0:0:0:0:
194,301,15074,1,2,1:2:0:0:
174,107,15234,2,0,L|167:61,3,42.5,8|8|10|8,0:0|0:0|0:0|0:0,0:0:0:0:
265,126,15553,1,8,0:0:0:0:
35,189,15712,6,0,B|73:171|125:188|119:199|167:215|204:196,1,170,6|2,1:2|1:2,0:0:0:0:
241,30,16191,1,10,0:0:0:0:
174,107,16351,1,2,0:0:0:0:
333,69,16510,2,0,L|422:50,1,85,2|0,1:2|1:0,0:0:0:0:
333,177,16829,1,10,0:0:0:0:
423,239,16989,6,0,P|352:216|273:260,1,170,2|2,1:2|1:2,0:0:0:0:
96,231,17468,2,0,P|125:218|178:203,1,85,10|2,0:0|0:0,0:0:0:0:
339,95,17787,2,0,B|300:106|243:93|266:68|196:54|148:77,1,170,2|8,1:2|0:0,0:0:0:0:
78,147,18266,6,0,L|95:230,1,85,2|0,0:0|1:2,0:0:0:0:
286,283,18585,1,2,0:0:0:0:
211,205,18744,1,10,0:0:0:0:
171,383,18904,2,0,L|188:299,1,85,2|0,0:0|1:0,0:0:0:0:
229,118,19223,1,2,1:2:0:0:
286,283,19383,1,10,0:0:0:0:
319,61,19542,5,2,1:2:0:0:
319,61,19861,2,0,P|356:49|401:38,2,68,2|2|2,0:0|0:0|0:0,0:0:0:0:
385,153,20340,1,2,0:0:0:0:
497,25,20500,1,2,1:2:0:0:
456,216,20659,2,0,L|437:304,1,68,10|0,0:0|0:0,0:0:0:0:
327,384,20978,6,0,B|389:372|389:372|421:385|421:385|496:369,1,152.999995330811,6|8,1:2|0:0,0:0:0:0:
298,288,21457,2,0,P|256:270|200:260,1,76.4999976654053,2|0,0:0|1:0,0:0:0:0:
88,327,21776,1,2,1:2:0:0:
186,361,21936,1,10,0:0:0:0:
64,187,22095,6,0,B|44:238|44:238|90:332,1,152.999995330811,2|0,1:2|1:0,0:0:0:0:
231,185,22574,1,8,0:0:0:0:
153,129,22734,1,2,0:0:0:0:
286,105,22893,2,0,L|376:89,1,76.4999976654053,2|0,1:2|1:0,0:0:0:0:
507,177,23212,2,0,L|417:161,1,76.4999976654053,10|0,0:0|0:0,0:0:0:0:
309,277,23531,6,0,B|342:259|401:270|386:288|443:296|473:282,1,152.999995330811,2|8,1:2|0:0,0:0:0:0:
348,371,24010,1,2,0:0:0:0:
210,283,24170,2,0,P|218:247|243:200,1,76.4999976654053,2|2,1:2|1:2,0:0:0:0:
309,277,24489,1,10,0:0:0:0:
134,210,24648,1,2,0:0:0:0:
328,184,24808,5,8,0:0:0:0:
197,324,24968,1,2,1:2:0:0:
166,111,25127,1,10,0:0:0:0:
309,277,25287,1,2,1:2:0:0:
344,59,25446,2,0,L|353:1,3,38.2499988327027,8|8|10|8,0:0|0:0|0:0|0:0,0:0:0:0:
271,115,25766,1,8,0:0:0:0:
434,93,25925,6,0,B|394:75|338:90|359:110|308:125|271:115,1,170,6|2,1:2|1:2,0:0:0:0:
360,275,26404,1,10,0:0:0:0:
406,188,26563,1,2,1:2:0:0:
437,343,26723,2,0,P|395:371|352:386,1,85,2|0,1:2|1:0,0:0:0:0:
269,245,27042,1,10,0:0:0:0:
375,119,27202,6,0,B|401:169|401:169|354:289,1,170,2|2,1:2|1:2,0:0:0:0:
182,213,27680,1,10,0:0:0:0:
273,157,27840,1,2,0:0:0:0:
127,117,28000,2,0,L|44:97,1,85,2|0,1:2|1:0,0:0:0:0:
221,62,28319,1,8,0:0:0:0:
182,213,28478,6,0,P|264:199|336:260,1,170,2|2,0:0|0:0,0:0:0:0:
497,182,28957,1,10,0:0:0:0:
421,347,29117,2,0,L|442:256,1,85,2|0,0:0|1:0,0:0:0:0:
477,96,29436,1,2,1:2:0:0:
399,167,29595,1,10,0:0:0:0:
450,8,29755,1,2,1:2:0:0:
261,73,29914,5,8,0:0:0:0:
496,181,30074,1,2,1:2:0:0:
305,235,30234,1,10,3:0:0:0:
305,235,30313,1,8,3:0:0:0:
305,235,30393,1,10,3:0:0:0:
399,167,30553,5,14,3:0:0:0:
365,322,30712,1,14,3:0:0:0:
293,141,30872,2,0,B|279:180|279:180|313:253,1,102,10|0,0:0|0:0,0:0:0:0:
316,255,31191,6,0,P|355:236|405:223,1,85,6|0,1:2|0:0,0:0:0:0:
512,384,31510,1,10,0:0:0:0:
365,322,31670,1,0,1:0:0:0:
505,188,31829,2,0,L|483:284,1,85,10|0,0:0|1:0,0:0:0:0:
311,189,32148,1,10,0:0:0:0:
427,82,32308,6,0,P|466:63|516:50,1,85,2|8,1:2|0:0,0:0:0:0:
486,270,32627,2,0,P|450:245|413:208,1,85,2|8,1:2|0:0,0:0:0:0:
330,29,32946,1,2,1:2:0:0:
505,156,33106,1,10,0:0:0:0:
286,228,33266,1,2,1:2:0:0:
427,82,33425,1,10,0:0:0:0:
195,158,33585,1,0,1:0:0:0:
390,281,33744,6,0,L|412:185,1,85,8|0,0:0|1:0,0:0:0:0:
222,80,34063,2,0,L|240:164,1,85,10|0,0:0|1:0,0:0:0:0:
410,45,34383,2,0,P|370:22|313:2,1,85,10|0,0:0|1:0,0:0:0:0:
148,30,34702,1,10,0:0:0:0:
240,164,34861,6,0,L|258:81,1,85,6|0,1:2|0:0,0:0:0:0:
43,155,35180,1,2,1:2:0:0:
159,270,35340,2,0,L|140:187,1,85,8|0,0:0|1:0,0:0:0:0:
140,187,35579,1,8,0:0:0:0:
140,187,35659,1,8,0:0:0:0:
86,346,35819,1,8,0:0:0:0:
268,228,35978,2,0,B|284:268|284:268|250:356,1,127.5,8|0,0:0|0:0,0:0:0:0:
241,373,36297,5,10,0:0:0:0:
228,146,36457,1,10,0:0:0:0:
366,301,36617,1,10,0:0:0:0:
181,217,36776,1,4,3:0:0:0:
181,217,36856,1,4,3:0:0:0:
181,217,36936,1,4,3:0:0:0:
330,72,37095,2,0,B|347:107|347:107|320:182,1,114.749996498108,2|0,1:2|0:0,0:0:0:0:
311,203,37414,6,0,B|251:187|251:187|220:199|220:199|144:183,1,152.999995330811,6|2,1:2|1:2,0:0:0:0:
11,129,37893,2,0,L|94:115,1,76.4999976654053,10|4,0:0|3:0,0:0:0:0:
86,116,38133,1,4,3:0:0:0:
86,116,38212,1,4,3:0:0:0:
237,59,38372,2,0,P|199:45|156:37,1,76.4999976654053,2|0,1:2|0:0,0:0:0:0:
155,224,38691,6,0,P|230:199|309:241,1,152.999995330811,6|2,1:2|1:2,0:0:0:0:
347,325,39170,1,8,0:0:0:0:
208,377,39329,2,0,L|226:292,1,76.4999976654053,2|0,1:2|0:0,0:0:0:0:
279,151,39648,2,0,L|294:225,1,76.4999976654053,2|8,1:2|0:0,0:0:0:0:
143,77,39968,6,0,B|180:86|231:72|212:51|266:44|300:53,1,152.999995330811,2|2,1:2|1:2,0:0:0:0:
366,197,40446,1,10,0:0:0:0:
279,151,40606,1,2,0:0:0:0:
413,29,40766,2,0,L|390:114,1,76.4999976654053,2|0,1:2|1:0,0:0:0:0:
192,189,41085,2,0,B|180:152|180:152|211:69,1,114.749996498108,8|0,0:0|0:0,0:0:0:0:
217,56,41404,5,8,0:0:0:0:
250,280,41563,1,8,0:0:0:0:
102,141,41723,2,0,P|68:122|16:103,1,76.4999976654053,8|4,0:0|3:0,0:0:0:0:
33,108,41962,1,4,3:0:0:0:
33,108,42042,1,4,3:0:0:0:
88,320,42202,2,0,L|105:245,1,76.4999976654053,2|0,1:2|0:0,0:0:0:0:
217,56,42521,6,0,B|198:102|198:102|246:203,1,152.999995330811,6|0,1:2|1:0,0:0:0:0:
389,291,43000,1,10,0:0:0:0:
347,193,43159,1,2,1:2:0:0:
313,355,43319,1,6,3:0:0:0:
441,210,43478,1,4,3:0:0:0:
242,195,43638,2,0,L|277:283,1,76.4999976654053,8|2,0:0|0:0,0:0:0:0:
373,112,43957,6,0,B|345:127|281:111|312:86|238:77|208:91,1,170,6|10,1:2|0:0,0:0:0:0:
40,58,44436,2,0,P|83:42|149:30,1,85,2|0,1:2|0:0,0:0:0:0:
199,200,44755,2,0,L|172:285,1,85,2|8,1:2|0:0,0:0:0:0:
105,150,45074,1,2,0:0:0:0:
297,84,45234,6,0,B|323:133|323:133|286:255,1,170,2|8,1:2|0:0,0:0:0:0:
105,150,45712,2,0,P|152:122|205:105,1,85,2|0,1:2|0:0,0:0:0:0:
373,38,46031,2,0,P|326:10|273:-7,1,85,2|8,1:2|0:0,0:0:0:0:
180,111,46351,1,2,0:0:0:0:
314,189,46510,6,0,L|286:90,1,85,2|0,1:2|0:0,0:0:0:0:
205,242,46829,1,10,0:0:0:0:
396,271,46989,2,0,L|419:189,1,85,2|0,1:2|0:0,0:0:0:0:
484,34,47308,2,0,L|507:115,1,85,2|8,1:2|0:0,0:0:0:0:
302,123,47627,6,0,P|341:97|394:77,1,85,2|0,0:0|1:0,0:0:0:0:
493,230,47946,2,0,P|454:204|401:184,1,85,2|8,1:2|0:0,0:0:0:0:
282,297,48266,2,0,L|305:378,1,85,2|0,1:2|0:0,0:0:0:0:
419,189,48585,2,0,L|395:270,1,85,2|8,1:2|0:0,0:0:0:0:
281,145,48904,1,2,0:0:0:0:
467,93,49063,5,8,0:0:0:0:
271,243,49223,1,0,1:0:0:0:
507,316,49383,1,8,0:0:0:0:
382,115,49542,2,0,B|355:163|355:163|397:274,2,170,4|4|4,1:2|1:2|1:2,0:0:0:0:
169,349,50659,6,0,P|128:361|82:352,1,82.8749962062838,2|0,0:0|0:0,0:0:0:0:
43,283,50978,2,0,P|53:241|81:205,1,82.8749962062838,2|0,0:0|0:0,0:0:0:0:
160,207,51297,2,0,P|190:236|205:279,1,82.8749962062838,2|0,0:0|0:0,0:0:0:0:
88,354,51617,6,0,B|139:331|205:340|174:366|247:381|309:335,1,187.000005706787,6|8,1:2|0:0,0:0:0:0:
374,221,52095,1,0,0:0:0:0:
269,243,52255,1,2,1:2:0:0:
443,293,52414,1,2,1:2:0:0:
347,131,52574,1,10,0:0:0:0:
498,40,52734,6,0,B|520:92|520:92|453:224,1,187.000005706787,6|2,1:2|1:2,0:0:0:0:
313,48,53212,2,0,P|357:22|417:4,1,93.5000028533936,10|2,0:0|0:0,0:0:0:0:
272,170,53531,1,2,1:2:0:0:
201,8,53691,1,2,1:2:0:0:
166,176,53851,2,0,L|142:290,1,93.5000028533936,10|0,0:0|0:0,0:0:0:0:
243,86,54170,5,6,1:2:0:0:
58,150,54329,1,2,1:2:0:0:
251,262,54489,1,10,0:0:0:0:
145,86,54648,2,0,P|90:55|33:41,1,93.5000028533936,6|0,1:2|0:0,0:0:0:0:
146,267,54968,1,2,1:2:0:0:
274,155,55127,1,10,0:0:0:0:
221,358,55287,6,0,P|163:309|50:326,1,187.000005706787,6|2,1:2|1:2,0:0:0:0:
274,253,55766,1,10,0:0:0:0:
122,94,55925,2,0,B|98:146|98:146|148:272,1,187.000005706787,6|0,1:2|1:0,0:0:0:0:
334,336,56404,1,8,0:0:0:0:
274,253,56563,1,2,1:2:0:0:
400,156,56723,6,0,L|372:246,1,93.5000028533936,2|0,1:2|1:0,0:0:0:0:
273,101,57042,2,0,L|245:11,1,93.5000028533936,10|0,0:0|0:0,0:0:0:0:
412,37,57361,2,0,P|453:59|496:91,1,93.5000028533936,2|0,1:2|1:0,0:0:0:0:
269,194,57680,2,0,P|267:147|273:94,1,93.5000028533936,10|0,0:2|0:0,0:0:0:0:
399,270,58000,6,0,L|362:382,1,93.5000028533936,2|0,1:2|1:0,0:0:0:0:
269,194,58319,1,10,0:0:0:0:
400,150,58478,2,0,P|450:131|503:122,1,93.5000028533936,6|0,1:2|0:0,0:0:0:0:
305,63,58797,2,0,P|255:44|202:35,1,93.5000028533936,6|8,1:2|0:0,0:0:0:0:
39,190,59117,6,0,B|71:201|149:183|110:150|194:132|232:158,1,187.000005706787,6|0,1:2|1:0,0:0:0:0:
226,351,59595,2,0,L|199:261,1,93.5000028533936,8|0,0:0|0:0,0:0:0:0:
339,115,59914,2,0,L|312:204,1,93.5000028533936,2|0,1:2|1:0,0:0:0:0:
273,25,60234,1,8,0:0:0:0:
444,84,60393,1,2,0:0:0:0:
229,119,60553,5,2,1:2:0:0:
382,4,60712,1,2,1:2:0:0:
425,190,60872,1,10,0:0:0:0:
273,25,61031,1,2,0:0:0:0:
188,217,61191,1,6,3:0:0:0:
339,115,61351,1,10,0:0:0:0:
339,115,61430,1,8,0:0:0:0:
339,115,61510,1,10,0:0:0:0:
139,23,61670,1,8,0:0:0:0:
139,23,61750,1,8,0:0:0:0:
139,23,61829,6,0,L|165:140,1,93.5000028533936,6|2,1:2|1:2,0:0:0:0:
200,314,62148,1,10,0:0:0:0:
354,178,62308,2,0,P|305:152|244:134,1,93.5000028533936,2|0,0:0|1:0,0:0:0:0:
97,276,62627,1,2,1:2:0:0:
277,255,62787,1,10,0:0:0:0:
80,184,62946,6,0,L|100:293,1,93.5000028533936,6|0,1:2|0:0,0:0:0:0:
269,139,63266,2,0,L|285:47,1,93.5000028533936,2|8,1:2|0:0,0:0:0:0:
164,143,63585,1,2,0:0:0:0:
345,234,63744,1,2,1:2:0:0:
140,283,63904,1,2,1:2:0:0:
269,139,64063,2,0,B|283:178|283:178|241:271,1,140.25000428009,10|0,0:0|0:0,0:0:0:0:
225,296,64383,5,6,1:2:0:0:
167,108,64542,1,2,1:2:0:0:
383,159,64702,1,10,0:0:0:0:
241,40,64861,2,0,P|196:15|133:-3,1,93.5000028533936,6|0,1:2|0:0,0:0:0:0:
21,202,65180,1,2,1:2:0:0:
167,108,65340,1,10,0:0:0:0:
17,15,65500,6,0,L|47:122,1,93.5000028533936,6|0,1:2|0:0,0:0:0:0:
95,278,65819,1,2,1:2:0:0:
176,152,65978,1,10,0:0:0:0:
250,320,66138,2,0,P|187:261|89:282,1,187.000005706787,6|0,1:2|1:0,0:0:0:0:
195,24,66617,2,0,B|214:62|214:62|174:155,1,140.25000428009,8|0,0:0|0:0,0:0:0:0:
164,182,66936,6,0,L|68:162,1,93.5000028533936,4|0,1:2|0:0,0:0:0:0:
228,291,67255,2,0,L|324:271,1,93.5000028533936,10|0,0:0|1:0,0:0:0:0:
483,74,67574,5,10,0:0:0:0:
297,131,67734,1,0,1:0:0:0:
497,218,67893,5,8,0:0:0:0:
349,25,68053,1,2,1:2:0:0:
238,256,68212,5,10,0:0:0:0:
387,110,68372,1,2,1:2:0:0:
371,320,68531,5,10,0:0:0:0:
204,138,68691,1,2,1:2:0:0:
196,346,68851,5,10,0:0:0:0:
316,138,69010,1,2,1:2:0:0:
103,70,69170,6,0,B|81:110|81:110|117:224,1,140.25000428009,14|0,0:0|0:0,0:0:0:0:
120,231,69489,6,0,B|160:248|235:217|186:197|262:170|300:188,1,187.000005706787,6|10,1:2|0:0,0:0:0:0:
482,141,69968,2,0,P|435:118|369:105,1,93.5000028533936,2|0,0:0|1:0,0:0:0:0:
238,58,70287,2,0,P|285:35|351:22,1,93.5000028533936,2|10,1:2|0:0,0:0:0:0:
383,228,70606,6,0,B|319:211|319:211|278:231|278:231|194:211,1,187.000005706787,2|2,0:0|1:2,0:0:0:0:
122,70,71085,1,10,0:0:0:0:
251,113,71244,1,2,1:2:0:0:
251,113,71324,1,8,0:0:0:0:
251,113,71404,1,8,0:0:0:0:
67,182,71563,1,8,3:0:0:0:
216,300,71723,2,0,P|280:266|363:285,1,140.25000428009,6|0,3:0|0:0,0:0:0:0:
372,291,72042,5,10,0:0:0:0:
109,363,72680,2,0,P|74:331|58:288,1,85,10|0,0:0|0:0,0:0:0:0:
93,217,72920,2,0,P|137:203|182:210,1,85,10|0,0:0|0:0,0:0:0:0:
227,276,73159,2,0,P|216:321|193:350,1,42.5,10|0,0:0|0:0,0:0:0:0:
109,363,73319,5,10,0:0:0:0:
312,148,73957,2,0,P|357:162|419:171,1,85,10|0,0:0|0:0,0:0:0:0:
462,120,74196,2,0,P|417:134|355:143,1,85,10|0,0:0|0:0,0:0:0:0:
305,104,74436,2,0,P|334:112|378:121,1,42.5,10|0,0:0|0:0,0:0:0:0:
458,40,74595,6,0,B|430:92|430:92|502:222,1,170,6|10,1:2|0:0,0:0:0:0:
315,318,75074,1,2,1:2:0:0:
315,318,75154,1,8,0:0:0:0:
315,318,75234,1,10,0:0:0:0:
377,232,75393,1,10,3:0:0:0:
406,371,75552,1,6,3:0:0:0:
288,212,75712,1,6,3:0:0:0:
202,368,75872,5,10,0:0:0:0:
448,246,76191,1,0,1:0:0:0:
224,84,76510,1,10,0:0:0:0:
266,286,76750,1,10,0:0:0:0:
423,142,76989,1,10,0:0:0:0:
244,181,77148,5,10,0:0:0:0:
447,13,77468,1,0,1:0:0:0:
418,180,77627,1,2,0:0:0:0:
318,64,77787,1,10,0:0:0:0:
277,263,78026,1,10,0:0:0:0:
277,263,78106,1,10,0:0:0:0:
418,180,78266,1,10,0:0:0:0:
239,122,78425,6,0,B|177:107|177:107|142:124|142:124|65:105,1,170,6|10,1:2|0:0,0:0:0:0:
123,321,78904,2,0,P|200:267|294:312,1,170,2|2,1:2|1:2,0:0:0:0:
399,167,79383,1,10,0:0:0:0:
422,315,79542,1,2,1:2:0:0:
481,106,79702,5,10,0:0:0:0:
272,159,79941,1,8,0:0:0:0:
422,315,80180,1,10,0:0:0:0:
365,134,80340,2,0,L|351:77,3,42.5,8|8|4|4,0:0|3:0|3:0|3:0,0:0:0:0:
272,159,80659,2,0,B|250:204|250:204|295:298,1,127.5,8|0,0:0|0:0,0:0:0:0:
293,301,80978,6,0,P|213:277|139:330,1,170,6|8,1:2|0:0,0:0:0:0:
0,218,81457,2,0,P|39:198|92:188,1,85,10|0,0:0|1:0,0:0:0:0:
243,127,81776,2,0,P|204:107|151:97,1,85,10|0,0:0|1:0,0:0:0:0:
144,320,82095,6,0,L|164:225,1,85,10|0,0:0|1:0,0:0:0:0:
62,90,82414,1,10,0:0:0:0:
62,90,82494,1,8,0:0:0:0:
62,90,82574,1,0,1:0:0:0:
243,127,82734,2,0,P|282:107|335:97,1,85,10|0,0:0|1:0,0:0:0:0:
460,202,83053,2,0,L|446:251,5,42.5,10|8|8|8|10|8,0:0|0:0|0:0|0:0|0:0|0:0,0:0:0:0:
512,303,83531,6,0,B|448:283|448:283|410:298|410:298|341:277,1,170,6|2,1:2|1:2,0:0:0:0:
201,214,84010,2,0,L|305:191,1,85,2|0,0:0|1:0,0:0:0:0:
136,297,84329,2,0,L|32:274,1,85,2|0,0:0|1:0,0:0:0:0:
164,139,84648,6,0,P|194:182|198:240,1,85,2|0,0:0|1:0,0:0:0:0:
64,138,84968,1,2,0:0:0:0:
230,64,85127,1,10,0:0:0:0:
27,34,85287,1,6,1:2:0:0:
285,191,85606,1,6,1:2:0:0:
24,312,85925,6,0,B|71:284|172:299|125:347|227:373|278:339,1,255,6|2,1:2|0:0,0:0:0:0:
458,199,86723,1,2,0:0:0:0:
262,76,87042,2,0,B|246:120|246:120|295:210,1,127.5,2|0,0:0|0:0,0:0:0:0:
300,215,87361,5,10,3:0:0:0:
378,108,87521,1,8,0:0:0:0:
378,108,87601,1,8,0:0:0:0:
378,108,87680,1,8,0:0:0:0:
416,285,87840,2,0,L|437:393,1,85,6|0,1:2|0:0,0:0:0:0:
228,301,88159,6,0,B|183:220|212:119|297:80|297:80|267:125|276:180,1,340,6|0,1:2|0:0,0:0:0:0:
