osu file format v14

[General]
AudioFilename: audio.mp3
AudioLeadIn: 0
PreviewTime: 51375
Countdown: 0
SampleSet: Soft
StackLeniency: 0.8
Mode: 0
LetterboxInBreaks: 0
WidescreenStoryboard: 1

[Editor]
Bookmarks: 52168,66568,68968,213268,215668
DistanceSpacing: 2.5
BeatDivisor: 4
GridSize: 16
TimelineZoom: 1.7

[Metadata]
Title:Phantom Joke (TV Size)
TitleUnicode:Phantom Joke (TV Size)
Artist:UNISON SQUARE GARDEN
ArtistUnicode:UNISON SQUARE GARDEN
Creator:Nevo
Version:synderes' Insane
Source:Fate/Grand Order: Absolute Demonic Front - Babylonia
Tags:usq anime japanese opening smokelind synderes glaceon armin a_r_m_i_n -絶対魔獣戦線バビロニア- Zettai Majuu Sensen
BeatmapID:2198669
BeatmapSetID:1051745

[Difficulty]
HPDrainRate:5
CircleSize:4
OverallDifficulty:7
ApproachRate:9.1
SliderMultiplier:1.6
SliderTickRate:1

[Events]
//Background and Video events
0,0,"62ba0206b315ec0550624d0e3788a750.png_1024w_waifu2x_art_noise3_scale_tta_1.png",0,0
Video,490,"vvvvv.mp4"
//Break Periods
//Storyboard Layer 0 (Background)
//Storyboard Layer 1 (Fail)
//Storyboard Layer 2 (Pass)
//Storyboard Layer 3 (Foreground)
//Storyboard Layer 4 (Overlay)
//Storyboard Sound Samples

[TimingPoints]
437,300,4,2,1,60,1,0
437,-133.333333333333,4,2,1,60,0,0
3887,-100,4,2,1,60,0,0
5087,-100,4,2,1,75,0,0
9287,-50,4,2,1,60,0,0
9587,-66.6666666666667,4,2,1,60,0,0
9887,-100,4,2,1,60,0,0
11537,-83.3333333333333,4,2,1,60,0,0
11837,-100,4,2,1,60,0,0
12437,-117.647058823529,4,2,1,40,0,0
16937,-100,4,2,1,40,0,0
17237,-100,4,2,1,60,0,0
20987,-200,4,2,1,60,0,0
21437,-100,4,2,1,60,0,0
22037,-100,4,2,1,70,0,0
31337,300,3,2,1,70,1,0
31337,-125,3,2,1,50,0,0
37937,-200,3,2,1,50,0,0
38237,-100,3,2,1,50,0,0
38537,300,4,2,1,50,1,0
38537,-100,4,2,1,60,0,0
48137,-105.263157894737,4,2,1,60,0,0
48437,-83.3333333333333,4,2,1,60,0,0
48737,-285.714285714286,4,2,1,60,0,0
49337,-83.3333333333333,4,2,1,60,0,0
50537,-83.3333333333333,4,2,1,60,0,0
52187,-100,4,2,1,80,0,0
52337,300,4,2,1,80,1,0
52337,-100,4,2,1,80,0,0
74987,-100,4,2,1,70,0,0
80987,-100,4,2,1,80,0,0
82187,-76.9230769230769,4,2,1,80,0,0
82937,-100,4,2,1,80,0,0
87587,-100,4,2,1,60,0,0
88337,-100,4,2,1,70,0,0

[Colours]
Combo1 : 255,176,255
Combo2 : 255,255,140
Combo3 : 0,91,183

[HitObjects]
53,220,437,6,0,P|91:208|146:190,1,90.0000034332277,0|0,3:0|0:0,0:0:0:0:
138,192,737,1,0,1:0:0:0:
209,221,887,2,0,P|253:242|281:307,1,120.000004577637,0|2,3:0|3:0,0:0:0:0:
281,305,1337,2,0,L|237:293,3,30.0000011444092,0|2|2|2,1:0|3:0|3:0|3:0,0:0:0:0:
173,383,1637,6,0,B|165:346|165:346|170:330|170:330|162:281,1,90.0000034332277,0|0,3:0|0:0,0:0:0:0:
164,295,1937,1,2,3:0:0:0:
106,227,2087,2,0,P|154:195|168:117,1,120.000004577637,0|2,3:0|3:0,0:0:0:0:
171,137,2537,2,0,L|126:123,3,30.0000011444092,0|2|2|2,0:0|3:0|3:0|3:0,0:0:0:0:
120,33,2837,6,0,B|159:48|159:48|219:31,1,90.0000034332277,0|0,3:0|0:0,0:0:0:0:
205,34,3137,1,2,3:0:0:0:
289,4,3287,2,0,B|279:83|317:49|308:147,1,120.000004577637,0|2,3:0|3:0,0:0:0:0:
309,120,3737,1,0,0:0:0:0:
499,203,3887,6,0,B|451:176|418:200|418:200|407:248|340:250,1,160,6|0,3:2|3:0,0:0:0:0:
292,229,4337,1,0,3:0:0:0:
343,172,4487,1,0,3:0:0:0:
272,16,4637,5,8,0:0:0:0:
282,45,4712,1,8,0:0:0:0:
282,75,4787,1,8,0:0:0:0:
272,103,4862,1,8,0:0:0:0:
272,103,4937,2,0,L|206:89,1,40,8|8,0:0|0:0,0:0:0:0:
33,166,5087,6,0,B|135:145|86:215|190:210,1,160,6|0,3:2|3:0,0:0:0:0:
275,368,5537,2,0,P|271:295|287:221,1,120,8|0,0:0|3:0,0:0:0:0:
283,248,5837,2,0,P|331:254|371:253,1,80,0|0,3:0|3:0,0:0:0:0:
456,101,6137,5,8,0:0:0:0:
416,34,6287,2,0,P|348:29|307:121,1,160,6|0,3:2|3:0,0:0:0:0:
356,156,6737,1,8,0:0:0:0:
241,271,6887,1,0,3:0:0:0:
241,271,6962,1,0,3:0:0:0:
241,271,7037,1,0,3:0:0:0:
176,223,7187,2,0,B|137:232|137:232|82:217,1,80,0|8,3:0|0:0,0:0:0:0:
327,160,7487,6,0,P|321:238|322:330,1,160,6|0,3:2|3:0,0:0:0:0:
512,242,7937,2,0,P|478:219|396:234,1,120,8|0,0:0|3:0,0:0:0:0:
402,228,8237,1,0,3:0:0:0:
327,160,8387,2,0,L|320:113,2,40,0|0|8,3:0|0:0|0:0,0:0:0:0:
437,315,8687,1,6,3:2:0:0:
334,268,8837,5,8,0:0:0:0:
295,258,8912,1,8,0:0:0:0:
258,271,8987,1,8,0:0:0:0:
232,301,9062,1,8,0:0:0:0:
206,331,9137,1,8,0:0:0:0:
169,344,9212,1,8,0:0:0:0:
130,334,9287,6,0,P|137:285|141:221,1,80,6|0,3:2|0:0,0:0:0:0:
84,8,9587,2,0,B|24:30|24:30|47:164,1,180.000006866455,6|0,3:2|0:0,0:0:0:0:
48,150,9887,6,0,B|155:108|110:175|230:159,1,160,6|0,3:2|3:0,0:0:0:0:
318,85,10337,1,8,0:0:0:0:
249,54,10487,2,0,L|228:-7,2,40,0|0|0,1:0|1:0|3:0,0:0:0:0:
380,141,10787,1,0,3:0:0:0:
380,141,10862,1,8,0:0:0:0:
380,141,10937,1,8,0:0:0:0:
331,201,11087,1,0,1:0:0:0:
370,303,11237,6,0,L|424:285,1,40,0|0,3:0|0:0,0:0:0:0:
488,266,11387,1,0,3:0:0:0:
488,266,11462,1,8,0:0:0:0:
488,266,11537,2,0,B|428:252|428:252|408:229|408:229|351:223,1,143.999995605469,8|0,0:0|0:0,0:0:0:0:
355,227,11837,6,0,L|335:155,1,40,6|0,3:2|0:0,0:0:0:0:
311,0,11987,1,6,3:2:0:0:
283,310,12287,5,0,1:0:0:0:
283,310,12362,1,0,1:0:0:0:
283,310,12437,2,0,B|275:302|319:309|402:324,1,102.000001945496,0|0,1:0|0:0,0:0:0:0:
383,326,12737,2,0,L|393:380,2,34.0000006484985,0|0|0,1:0|0:0|0:0,0:0:0:0:
461,255,13037,6,0,P|450:199|461:136,1,102.000001945496,0|0,1:0|0:0,0:0:0:0:
455,154,13337,1,0,1:0:0:0:
505,98,13487,1,0,0:0:0:0:
342,80,13637,5,4,1:2:0:0:
274,56,13787,2,0,B|241:64|241:64|193:54,1,68.0000012969971,0|0,0:0|1:0,0:0:0:0:
56,118,14087,2,0,B|52:114|143:94|94:152|206:146,1,136.000002593994
182,150,14537,2,0,P|188:184|197:224,1,68.0000012969971,0|0,1:0|0:0,0:0:0:0:
120,354,14837,6,0,P|157:317|222:326,1,102.000001945496,4|0,1:2|0:0,0:0:0:0:
204,316,15137,1,0,1:0:0:0:
281,342,15287,1,0,0:0:0:0:
389,264,15437,2,0,P|389:309|382:368,1,102.000001945496,0|0,1:0|0:0,0:0:0:0:
383,366,15737,2,0,P|425:364|469:368,1,68.0000012969971,0|0,1:0|0:0,0:0:0:0:
510,201,16037,6,0,B|462:209|462:209|409:174,1,102.000001945496,4|0,1:2|0:0,0:0:0:0:
317,149,16337,2,0,B|357:133|357:133|410:168,1,102.000001945496,4|0,1:2|0:0,0:0:0:0:
409,170,16637,2,0,L|418:226,1,34.0000006484985,4|0,1:2|0:0,0:0:0:0:
323,370,16787,5,0,3:0:0:0:
323,370,16862,1,0,3:0:0:0:
323,370,16937,2,0,B|296:291|338:316|327:237,1,120,0|0,3:0|0:0,0:0:0:0:
332,253,17237,6,0,P|266:262|195:215,1,120,6|0,3:2|0:0,0:0:0:0:
218,240,17537,1,8,0:0:0:0:
222,269,17612,1,8,0:0:0:0:
226,299,17687,1,8,0:0:0:0:
231,329,17762,1,8,0:0:0:0:
231,329,17837,2,0,L|178:321,3,40,8|8|8|8,0:0|0:0|0:0|0:0,0:0:0:0:
122,352,18137,1,8,3:0:0:0:
112,354,18212,1,8,3:0:0:0:
102,355,18287,1,8,3:0:0:0:
93,357,18362,1,8,3:0:0:0:
93,357,18437,6,0,P|97:314|94:270,1,80,6|0,1:2|1:0,0:0:0:0:
94,277,18662,1,0,1:0:0:0:
94,277,18737,1,8,0:0:0:0:
52,196,18887,1,8,3:0:0:0:
52,196,18962,1,0,3:0:0:0:
52,196,19037,2,0,L|56:148,3,40,8|0|0|0,3:0|3:0|3:0|3:0,3:0:0:0:
124,84,19337,1,0,3:0:0:0:
124,84,19412,1,0,3:0:0:0:
124,84,19487,2,0,L|127:123,1,40,0|0,3:0|0:0,0:0:0:0:
146,235,19637,5,8,3:0:0:0:
285,193,19787,1,8,3:0:0:0:
285,193,20087,5,8,3:0:0:0:
424,235,20237,1,8,3:0:0:0:
424,235,20537,5,8,3:0:0:0:
475,64,20687,1,8,3:0:0:0:
302,106,20837,1,0,1:0:0:0:
401,134,20987,6,0,L|455:147,1,40,2|0,3:2|0:0,0:0:0:0:
111,134,21437,6,0,L|57:147,1,40,0|0,1:0|0:0,0:0:0:0:
0,157,21587,1,0,1:0:0:0:
0,157,21662,1,0,1:0:0:0:
0,157,21737,1,0,1:0:0:0:
110,292,21887,1,8,0:0:0:0:
110,292,21962,1,8,0:0:0:0:
110,292,22037,6,0,B|121:251|121:251|106:205,1,80,6|0,3:2|0:0,0:0:0:0:
207,55,22337,2,0,P|202:120|209:198,1,120,8|0,0:0|0:0,0:0:0:0:
205,174,22637,1,0,3:0:0:0:
257,285,22787,2,0,L|250:214,2,40,0|0|8,0:0|3:0|0:0,0:0:0:0:
355,374,23087,1,0,0:0:0:0:
355,374,23162,1,0,0:0:0:0:
355,374,23237,6,0,L|364:273,1,80,2|0,3:2|0:0,0:0:0:0:
175,328,23537,2,0,L|165:227,1,80,8|0,0:0|0:0,0:0:0:0:
208,98,23837,1,0,3:0:0:0:
261,148,23987,1,0,0:0:0:0:
191,168,24137,1,8,0:0:0:0:
138,118,24287,1,0,0:0:0:0:
273,46,24437,6,0,B|269:42|347:51|307:12|408:18,1,120,2|0,3:2|0:0,0:0:0:0:
387,21,24737,2,0,P|394:75|394:129,1,80,8|0,0:0|0:0,0:0:0:0:
465,272,25037,2,0,P|467:232|472:192,1,80,0|0,3:0|0:0,0:0:0:0:
472,192,25262,1,0,3:0:0:0:
472,192,25337,1,8,0:0:0:0:
357,298,25487,5,2,0:0:0:0:
285,295,25637,2,0,P|290:334|292:374,1,80,2|0,3:2|0:0,0:0:0:0:
163,220,25937,2,0,P|167:160|176:100,1,120,8|0,0:0|0:0,0:0:0:0:
175,100,26237,1,8,0:0:0:0:
114,13,26387,1,8,0:0:0:0:
109,25,26462,1,8,0:0:0:0:
108,39,26537,1,8,0:0:0:0:
265,163,26687,6,0,B|365:146|326:199|438:193,1,160,6|0,3:2|3:2,0:0:0:0:
487,169,27137,1,8,0:0:0:0:
343,384,27287,2,0,P|344:320|315:261,1,120,6|0,3:2|0:0,0:0:0:0:
322,269,27587,2,0,P|283:268|244:277,1,80,0|8,3:0|0:0,0:0:0:0:
81,384,27887,6,0,B|93:318|93:318|79:290|79:290|97:213,1,160,6|0,3:2|3:0,0:0:0:0:
40,173,28337,1,8,0:0:0:0:
179,0,28487,2,0,B|171:-7|202:99|136:45|143:149,1,160,2|0,3:2|3:0,0:0:0:0:
143,150,28862,1,0,3:0:0:0:
143,150,28937,2,0,L|190:145,1,40,8|8,0:0|0:0,0:0:0:0:
269,132,29087,1,8,0:0:0:0:
269,132,29162,1,8,0:0:0:0:
269,132,29237,5,6,3:2:0:0:
410,190,29387,1,0,3:0:0:0:
399,114,29537,1,8,0:0:0:0:
279,207,29687,2,0,B|178:183|211:257|109:268,1,160,2|0,3:2|3:0,0:0:0:0:
66,246,30137,1,8,0:0:0:0:
221,361,30287,5,2,3:2:0:0:
221,361,30587,1,0,3:0:0:0:
287,323,30737,1,8,3:0:0:0:
360,342,30887,1,0,3:0:0:0:
481,373,31037,1,12,0:0:0:0:
512,304,31187,1,12,0:0:0:0:
512,304,31262,1,8,0:0:0:0:
512,304,31337,6,0,P|514:246|511:171,1,128,2|0,3:0|3:0,0:0:0:0:
451,102,31787,1,8,0:0:0:0:
381,133,31937,2,0,P|328:132|293:128,1,64,2|2,0:0|0:0,0:0:0:0:
179,170,32237,5,14,0:0:0:0:
179,170,32387,2,0,P|230:180|265:260,1,128,0|8,3:0|0:0,0:0:0:0:
266,242,32837,1,2,0:0:0:0:
371,337,32987,1,8,0:0:0:0:
371,337,33062,1,8,0:0:0:0:
371,337,33137,6,0,B|295:328|323:369|239:365,1,128,2|8,3:2|0:0,0:0:0:0:
155,325,33587,1,0,0:0:0:0:
83,343,33737,2,0,P|74:304|76:264,1,64,8|8,0:0|0:0,0:0:0:0:
73,280,33962,1,8,0:0:0:0:
73,280,34037,1,2,3:2:0:0:
126,224,34187,1,8,3:0:0:0:
195,257,34337,1,0,3:0:0:0:
184,332,34487,1,0,3:0:0:0:
109,344,34637,1,0,1:0:0:0:
268,376,34787,1,8,3:0:0:0:
268,376,34862,1,8,3:0:0:0:
268,376,34937,6,0,P|321:365|403:365,1,128,2|8,3:2|0:0,0:0:0:0:
445,272,35387,1,0,0:0:0:0:
381,227,35537,2,0,P|346:234|294:234,1,64,8|0,0:0|0:0,0:0:0:0:
190,177,35837,5,2,3:2:0:0:
132,122,35987,2,0,B|97:175|97:175|123:251,1,128,8|8,3:0|0:0,0:0:0:0:
117,236,36437,1,2,0:0:0:0:
13,355,36587,1,8,3:0:0:0:
13,355,36662,1,8,3:0:0:0:
13,355,36737,6,0,B|91:333|91:333|143:365,1,128,2|8,3:2|0:0,0:0:0:0:
209,377,37187,2,0,L|212:320,2,32,0|0|2,3:0|3:0|3:2,0:0:0:0:
289,382,37487,1,0,3:0:0:0:
471,286,37637,5,2,3:2:0:0:
471,286,37937,2,0,P|474:255|469:213,1,60,2|0,0:0|0:0,0:0:0:0:
471,226,38237,1,8,0:0:0:0:
434,209,38312,1,8,0:0:0:0:
395,214,38387,1,8,0:0:0:0:
364,238,38462,1,8,0:0:0:0:
364,238,38537,6,0,B|291:230|330:193|232:183,1,120,6|0,3:2|0:0,0:0:0:0:
258,186,38837,1,8,0:0:0:0:
188,216,38987,1,0,0:0:0:0:
328,100,39137,1,0,0:0:0:0:
268,52,39287,2,0,L|259:-5,2,40,8|8|8,0:0|0:0|0:0,0:0:0:0:
423,166,39587,6,0,P|415:217|415:294,1,120,6|0,3:2|0:0,0:0:0:0:
414,285,39887,1,8,3:0:0:0:
325,376,40037,2,0,P|272:332|199:328,1,120,2|0,3:2|0:0,0:0:0:0:
223,323,40337,1,8,3:0:0:0:
149,315,40487,1,0,3:0:0:0:
75,323,40637,1,0,3:0:0:0:
0,140,40787,6,0,P|47:135|87:242,1,160,6|0,3:2|3:0,0:0:0:0:
96,221,41162,1,0,3:0:0:0:
96,221,41237,2,0,P|140:213|193:215,1,80,0|0,3:0|3:0,0:0:0:0:
253,242,41537,1,0,3:0:0:0:
325,218,41687,2,0,L|328:171,2,40,0|0|0,3:0|3:0|3:0,0:0:0:0:
454,292,41987,6,0,B|423:321|415:363|415:363|386:313|342:320,1,160,6|0,3:2|3:0,0:0:0:0:
288,347,42437,1,8,0:0:0:0:
38,339,42587,2,0,B|136:325|86:382|217:378,1,160,6|0,3:2|3:0,0:0:0:0:
188,377,42962,1,0,3:0:0:0:
188,377,43037,1,8,0:0:0:0:
80,246,43187,1,8,0:0:0:0:
127,113,43337,6,0,P|134:157|143:210,1,80,10|0,0:0|3:0,0:0:0:0:
139,191,43562,1,0,3:0:0:0:
139,191,43637,1,8,0:0:0:0:
224,293,43787,2,0,L|230:253,2,40,0|0|8,3:0|3:0|0:0,0:0:0:0:
121,372,44087,2,0,B|108:333|108:333|125:280,1,80,0|8,3:0|0:0,0:0:0:0:
293,201,44387,5,6,3:2:0:0:
293,201,44462,1,0,3:0:0:0:
293,201,44537,2,0,P|296:153|289:103,1,80,8|0,0:0|3:0,0:0:0:0:
292,121,44762,1,0,3:0:0:0:
292,121,44837,1,8,0:0:0:0:
301,48,44987,1,6,3:2:0:0:
301,48,45062,1,0,3:0:0:0:
301,48,45137,5,8,0:0:0:0:
478,136,45287,1,8,0:0:0:0:
433,4,45437,5,8,0:0:0:0:
345,180,45587,1,8,0:0:0:0:
389,92,45737,5,6,3:2:0:0:
209,0,45887,1,8,0:0:0:0:
209,0,45962,1,8,0:0:0:0:
209,0,46037,2,0,B|222:39|222:39|205:92,1,80,8|8,0:0|3:0,0:0:0:0:
56,171,46337,2,0,B|138:156|100:197|182:194,1,120,2|8,3:0|0:0,0:0:0:0:
169,197,46637,2,0,L|177:252,2,40,8|0|0,0:0|0:0|3:0,0:0:0:0:
283,122,46937,5,8,0:0:0:0:
322,119,47012,1,0,3:0:0:0:
353,142,47087,1,0,3:0:0:0:
363,180,47162,1,0,3:0:0:0:
363,180,47237,2,0,L|434:169,3,40,8|0|0|0,0:0|3:0|3:0|3:0,0:0:0:0:
487,117,47537,6,0,L|476:188,1,40,8|0,0:0|3:0,0:0:0:0:
471,235,47687,1,0,3:0:0:0:
324,61,47837,1,8,0:0:0:0:
257,88,47987,1,0,3:0:0:0:
257,88,48062,1,0,3:0:0:0:
257,88,48137,6,0,B|204:113|204:113|146:94,1,113.999996955872,0|0,3:0|0:0,0:0:0:0:
99,48,48437,6,0,B|134:128|62:114|97:207,1,143.999995605469,8|0,0:0|0:0,0:0:0:0:
93,186,48737,6,0,L|106:235,1,41.9999987182618,8|0,0:0|0:0,0:0:0:0:
103,226,49037,1,0,3:0:0:0:
103,226,49187,1,0,3:0:0:0:
13,369,49337,6,0,B|70:354|70:354|84:330|84:330|141:316,1,143.999995605469,8|0,0:0|0:0,0:0:0:0:
208,283,49637,2,0,B|264:296|264:296|277:320|277:320|335:335,1,143.999995605469,8|0,0:0|0:0,0:0:0:0:
335,335,49937,5,0,3:0:0:0:
410,318,50087,1,0,3:0:0:0:
494,230,50237,5,0,3:0:0:0:
419,213,50387,1,0,3:0:0:0:
279,97,50537,5,8,0:0:0:0:
463,90,50687,2,0,P|412:46|323:45,1,143.999995605469,2|0,3:2|0:0,0:0:0:0:
253,0,50987,6,0,P|264:95|268:191,1,191.999994140625,6|8,3:2|0:0,0:0:0:0:
250,318,51437,1,8,0:0:0:0:
184,167,51587,1,8,0:0:0:0:
378,216,51737,1,14,0:0:0:0:
378,216,52187,6,0,P|307:210|273:130,1,160,6|0,3:2|3:0,0:0:0:0:
178,28,52637,2,0,B|184:64|184:64|171:121,1,80,8|0,0:0|3:0,0:0:0:0:
174,106,52862,1,8,0:0:0:0:
174,106,52937,2,0,P|120:105|60:112,1,80,0|0,3:0|3:0,0:0:0:0:
2,229,53237,5,8,0:0:0:0:
63,332,53387,2,0,B|54:234|118:294|94:181,1,160,2|0,3:2|3:0,0:0:0:0:
181,269,53837,1,8,0:0:0:0:
237,221,53987,1,0,3:0:0:0:
237,221,54062,1,0,3:0:0:0:
237,221,54137,2,0,P|241:169|232:115,1,80,0|0,3:0|3:0,0:0:0:0:
217,6,54437,5,8,0:0:0:0:
388,96,54587,2,0,P|321:90|299:-3,1,160,6|0,3:2|3:0,0:0:0:0:
368,192,55037,2,0,P|415:181|462:188,1,80,8|0,0:0|3:0,0:0:0:0:
446,183,55262,1,0,3:0:0:0:
446,183,55337,2,0,P|449:238|442:285,1,80,0|0,3:0|3:0,0:0:0:0:
321,343,55637,1,8,0:0:0:0:
395,359,55787,2,0,L|445:375,2,40,2|0|0,3:2|0:0|0:0,0:0:0:0:
249,316,56087,1,0,3:0:0:0:
249,316,56237,2,0,P|179:320|145:321,1,80,8|0,0:0|3:0,0:0:0:0:
169,320,56462,1,0,3:0:0:0:
169,320,56537,1,0,3:0:0:0:
102,353,56687,1,0,3:0:0:0:
11,201,56837,5,8,0:0:0:0:
128,232,56987,2,0,P|130:152|124:72,1,160,6|0,3:2|3:0,0:0:0:0:
227,120,57437,2,0,P|217:151|218:191,1,80,8|0,0:0|3:0,0:0:0:0:
219,197,57662,1,8,3:0:0:0:
219,197,57737,2,0,P|262:204|305:195,1,80,0|0,3:0|3:0,0:0:0:0:
491,296,58037,5,8,0:0:0:0:
446,236,58187,2,0,P|373:248|331:335,1,160,2|0,3:2|3:0,0:0:0:0:
198,374,58637,1,8,0:0:0:0:
151,309,58787,1,8,3:0:0:0:
151,309,58862,1,8,3:0:0:0:
151,309,58937,2,0,P|155:255|151:166,1,120,2|0,3:2|0:0,0:0:0:0:
153,189,59237,1,8,3:0:0:0:
133,192,59312,1,8,3:0:0:0:
114,188,59387,1,8,3:0:0:0:
98,176,59462,1,8,3:0:0:0:
88,159,59537,6,0,P|84:119|96:72,1,80,8|0,0:0|3:0,0:0:0:0:
92,80,59762,1,0,3:0:0:0:
92,80,59837,1,8,0:0:0:0:
175,104,59987,1,0,3:0:0:0:
379,90,60137,1,8,0:0:0:0:
442,136,60287,1,6,3:2:0:0:
370,167,60437,1,0,1:0:0:0:
132,249,60587,6,0,B|232:242|191:291|291:295,1,160,6|0,3:2|3:0,0:0:0:0:
280,294,61037,1,8,0:0:0:0:
471,381,61187,2,0,B|463:324|454:274|454:274|472:245|497:250,1,160,6|0,3:2|3:0,0:0:0:0:
383,233,61637,1,8,0:0:0:0:
500,90,61787,6,0,P|453:139|335:136,1,160,6|0,3:2|3:0,0:0:0:0:
364,149,62162,1,0,3:0:0:0:
364,149,62237,1,12,0:0:0:0:
293,98,62387,2,0,L|274:164,2,40,0|8|12,3:0|3:0|3:2,0:0:0:0:
154,23,62687,1,0,3:0:0:0:
154,23,62762,1,0,3:0:0:0:
154,23,62837,1,12,0:0:0:0:
186,89,62987,1,0,3:2:0:0:
319,26,63137,6,0,B|403:17|357:59|467:54,1,120,12|0,0:0|3:0,0:0:0:0:
432,53,63437,1,12,0:0:0:0:
287,126,63587,1,8,0:0:0:0:
426,229,63737,1,12,0:0:0:0:
399,199,63812,1,8,0:0:0:0:
361,190,63887,1,0,3:0:0:0:
324,204,63962,1,0,3:0:0:0:
324,204,64037,2,0,L|336:262,1,40,8|8,0:0|0:0,0:0:0:0:
225,384,64187,6,0,P|229:304|229:224,1,160,14|8,0:0|0:0,0:0:0:0:
134,127,64637,2,0,L|85:135,3,40,8|0|0|0,0:0|3:0|3:0|3:0,0:0:0:0:
20,151,64937,1,8,0:0:0:0:
0,130,65012,1,0,3:0:0:0:
0,101,65087,1,0,3:0:0:0:
0,73,65162,1,0,3:0:0:0:
21,53,65237,1,8,0:0:0:0:
30,55,65312,1,0,3:0:0:0:
40,57,65387,1,0,3:0:0:0:
50,59,65462,1,0,3:0:0:0:
59,62,65537,5,8,3:0:0:0:
254,119,65687,1,8,3:0:0:0:
254,119,65987,5,8,3:0:0:0:
111,249,66137,2,0,B|97:212|97:212|119:141,1,80,8|0,3:0|3:0,0:0:0:0:
108,173,66362,1,0,3:0:0:0:
108,173,66437,1,8,3:0:0:0:
229,323,66587,6,0,B|114:309|184:361|76:360,1,160,6|0,3:2|3:0,0:0:0:0:
11,245,67037,2,0,P|11:182|10:145,1,80,8|0,0:0|3:0,0:0:0:0:
10,165,67262,1,8,0:0:0:0:
10,165,67337,2,0,P|65:173|102:172,1,80,0|0,3:0|3:0,0:0:0:0:
229,102,67637,5,8,0:0:0:0:
299,66,67787,2,0,P|303:136|301:247,1,160,2|0,3:2|3:0,0:0:0:0:
402,117,68237,1,8,0:0:0:0:
466,171,68387,1,0,3:0:0:0:
466,171,68462,1,0,3:0:0:0:
466,171,68537,2,0,P|464:205|464:261,1,80,0|0,3:0|3:0,0:0:0:0:
316,353,68837,5,8,0:0:0:0:
210,219,68987,2,0,B|246:307|246:307|217:392,1,160,6|0,3:2|3:0,0:0:0:0:
133,247,69437,2,0,P|91:237|35:237,1,80,8|0,0:0|3:0,0:0:0:0:
54,235,69662,1,0,3:0:0:0:
54,235,69737,2,0,P|59:194|53:139,1,80,0|0,3:0|3:0,0:0:0:0:
177,82,70037,1,8,0:0:0:0:
111,40,70187,2,0,L|103:-9,2,40,2|0|0,3:2|0:0|0:0,0:0:0:0:
247,124,70487,1,0,3:0:0:0:
247,124,70637,2,0,B|284:110|284:110|355:132,1,80,8|0,0:0|3:0,0:0:0:0:
322,121,70862,1,0,3:0:0:0:
322,121,70937,1,0,3:0:0:0:
409,117,71087,1,0,3:0:0:0:
503,271,71237,5,8,0:0:0:0:
352,302,71387,2,0,B|456:300|398:357|506:377,1,160,6|0,3:2|3:0,0:0:0:0:
363,210,71837,2,0,P|285:205|249:199,1,80,8|0,0:0|3:0,0:0:0:0:
283,204,72062,1,8,3:0:0:0:
283,204,72137,2,0,P|280:134|286:98,1,80,0|0,3:0|3:0,0:0:0:0:
167,11,72437,5,8,0:0:0:0:
109,66,72587,2,0,P|115:145|108:225,1,160,2|0,3:2|3:0,0:0:0:0:
136,296,73037,1,8,0:0:0:0:
108,366,73187,1,0,3:0:0:0:
318,344,73337,1,0,3:0:0:0:
391,318,73487,1,0,3:0:0:0:
227,236,73637,5,8,0:0:0:0:
296,97,73787,2,0,B|247:178|355:181|298:278,1,160,6|8,3:2|0:0,0:0:0:0:
311,247,74237,1,8,0:0:0:0:
134,323,74387,1,6,3:2:0:0:
445,382,74687,1,6,3:2:0:0:
267,384,74987,6,0,P|262:285|255:188,1,160,6|0,3:2|3:0,0:0:0:0:
257,224,75437,1,8,0:0:0:0:
95,139,75587,2,0,B|174:180|174:180|249:126,1,160,0|0,3:0|3:0,0:0:0:0:
183,75,76037,1,8,0:0:0:0:
410,43,76187,6,0,P|363:46|337:154,1,160,6|0,3:2|3:0,0:0:0:0:
416,283,76637,2,0,P|451:276|473:185,1,120,8|0,0:0|0:0,0:0:0:0:
482,204,76937,2,0,P|442:201|403:193,1,80,0|0,3:0|3:0,0:0:0:0:
328,174,77237,1,8,0:0:0:0:
251,351,77387,6,0,P|242:254|224:159,1,160,2|0,3:2|3:0,0:0:0:0:
164,91,77837,1,8,0:0:0:0:
96,134,77987,1,2,3:2:0:0:
96,134,78062,1,0,0:0:0:0:
96,134,78137,2,0,P|47:129|0:120,1,80,0|0,3:0|3:0,0:0:0:0:
32,50,78437,1,8,0:0:0:0:
190,89,78587,6,0,B|294:83|246:129|362:125,1,160,6|0,3:2|3:0,0:0:0:0:
451,190,79037,1,8,0:0:0:0:
384,222,79187,1,0,0:0:0:0:
509,312,79337,2,0,P|441:305|371:300,1,120,0|0,3:0|0:0,0:0:0:0:
389,301,79637,1,8,0:0:0:0:
283,384,79787,6,0,B|294:345|294:345|277:289,1,80,6|0,3:2|0:0,0:0:0:0:
128,257,80087,2,0,B|117:296|117:296|134:352,1,80,0|8,3:0|0:0,0:0:0:0:
227,219,80387,2,0,P|216:144|200:42,1,160,0|0,3:0|3:0,0:0:0:0:
260,8,80837,1,8,0:0:0:0:
365,144,80987,6,0,P|377:117|500:104,1,160,6|0,3:2|3:0,0:0:0:0:
304,86,81437,2,0,P|260:85|219:81,1,80,8|0,0:0|3:0,0:0:0:0:
96,161,81737,1,8,0:0:0:0:
25,123,81887,1,0,3:0:0:0:
93,81,82037,1,8,0:0:0:0:
205,162,82187,6,0,B|304:155|269:201|373:205,1,155.999992858887,0|0,3:0|0:0,0:0:0:0:
351,203,82487,1,8,3:0:0:0:
447,165,82637,1,0,3:0:0:0:
512,244,82787,1,8,0:0:0:0:
456,330,82937,1,8,0:0:0:0:
416,335,83012,1,8,0:0:0:0:
379,323,83087,1,8,0:0:0:0:
350,295,83162,1,8,0:0:0:0:
350,295,83237,2,0,L|297:304,3,40,8|8|8|8,0:0|0:0|0:0|0:0,0:0:0:0:
235,326,83537,6,0,P|231:255|224:177,1,120,6|0,3:2|0:0,0:0:0:0:
226,206,83837,1,8,0:0:0:0:
112,57,83987,1,0,3:0:0:0:
112,57,84062,1,0,3:0:0:0:
112,57,84137,2,0,P|107:116|103:176,1,120,14|0,0:0|3:0,0:0:0:0:
102,176,84437,1,14,0:0:0:0:
0,337,84587,1,0,3:0:0:0:
0,337,84662,1,0,3:0:0:0:
0,337,84737,6,0,B|94:342|49:290|155:289,1,160,14|14,0:0|0:0,0:0:0:0:
225,306,85187,2,0,L|231:254,2,40,0|0|14,3:0|3:0|0:0,0:0:0:0:
361,384,85487,1,0,3:0:0:0:
361,384,85562,1,0,3:0:0:0:
361,384,85637,2,0,B|347:300|347:300|386:248,1,120,14|0,0:0|0:0,0:0:0:0:
367,272,85937,5,6,3:2:0:0:
440,222,86087,1,8,0:0:0:0:
414,137,86237,1,8,0:0:0:0:
325,135,86387,1,8,0:0:0:0:
295,219,86537,5,8,0:0:0:0:
137,104,86687,1,10,0:0:0:0:
198,290,86837,1,8,0:0:0:0:
258,104,86987,1,14,0:0:0:0:
21,277,87287,1,2,3:2:0:0:
352,382,88337,6,0,B|346:303|379:338|364:242,1,120,6|0,3:2|0:0,0:0:0:0:
366,264,88637,1,8,0:0:0:0:
271,135,88787,2,0,B|222:194|222:194|262:301,1,160,6|8,3:2|0:0,0:0:0:0:
469,327,89237,2,0,B|518:268|518:268|478:161,1,160,6|8,3:2|0:0,0:0:0:0:
347,21,89687,2,0,B|285:28|285:28|281:30|281:30|228:35,1,120,6|0,3:2|0:0,0:0:0:0:
228,34,89987,1,8,0:0:0:0:
97,125,90137,5,8,0:0:0:0:
237,173,90287,1,8,0:0:0:0:
68,230,90437,1,8,0:0:0:0:
270,298,90587,1,6,3:2:0:0:
270,298,91487,5,0,3:0:0:0:
270,298,91562,1,0,3:0:0:0:
270,298,91637,2,0,L|326:289,1,40,8|0,0:0|0:0,0:0:0:0:
458,267,91787,1,8,0:0:0:0:
336,95,91937,5,8,0:0:0:0:
297,82,92012,1,8,0:0:0:0:
260,93,92087,1,8,0:0:0:0:
232,121,92162,1,8,0:0:0:0:
232,121,92237,2,0,L|241:188,3,40,8|8|0|0,0:0|0:0|3:0|3:0,0:0:0:0:
132,225,92537,1,8,0:0:0:0:
132,225,92612,1,8,0:0:0:0:
132,225,92687,2,0,L|137:185,1,40,8|0,0:0|3:0,0:0:0:0:
223,309,92837,5,8,0:0:0:0:
22,239,92987,1,14,0:0:0:0:
