osu file format v14

[General]
AudioFilename: audio.mp3
AudioLeadIn: 0
PreviewTime: 51375
Countdown: 0
SampleSet: Soft
StackLeniency: 0.4
Mode: 0
LetterboxInBreaks: 0
WidescreenStoryboard: 1

[Editor]
Bookmarks: 213268,215668
DistanceSpacing: 2.6
BeatDivisor: 4
GridSize: 32
TimelineZoom: 2.3

[Metadata]
Title:Phantom Joke (TV Size)
TitleUnicode:Phantom Joke (TV Size)
Artist:UNISON SQUARE GARDEN
ArtistUnicode:UNISON SQUARE GARDEN
Creator:Nevo
Version:SMOKELIND's Expert
Source:Fate/Grand Order: Absolute Demonic Front - Babylonia
Tags:usq anime japanese opening smokelind synderes glaceon armin a_r_m_i_n -絶対魔獣戦線バビロニア- Zettai Majuu Sensen
BeatmapID:2198375
BeatmapSetID:1051745

[Difficulty]
HPDrainRate:5.2
CircleSize:3.7
OverallDifficulty:8.7
ApproachRate:9.3
SliderMultiplier:1.77
SliderTickRate:1

[Events]
//Background and Video events
0,0,"62ba0206b315ec0550624d0e3788a750.png_1024w_waifu2x_art_noise3_scale_tta_1.png",0,0
Video,490,"vvvvv.mp4"
//Break Periods
//Storyboard Layer 0 (Background)
//Storyboard Layer 1 (Fail)
//Storyboard Layer 2 (Pass)
//Storyboard Layer 3 (Foreground)
//Storyboard Layer 4 (Overlay)
//Storyboard Sound Samples

[TimingPoints]
437,300,4,2,1,60,1,0
437,-212.765957446809,4,2,1,60,0,0
3887,-129.87012987013,4,2,1,60,0,0
5087,-103.092783505155,4,2,1,75,0,0
9287,-103.092783505155,4,2,1,60,0,0
9887,-114.942528735632,4,2,1,60,0,0
12437,-129.87012987013,4,2,1,40,0,0
17237,-114.942528735632,4,2,1,60,0,0
22037,-114.942528735632,4,2,1,70,0,0
31337,300,3,2,1,70,1,0
31337,-129.87012987013,4,2,1,50,0,0
38537,300,4,2,1,50,1,0
38537,-114.942528735633,4,2,1,60,0,0
43337,-103.092783505155,4,2,1,60,0,0
52187,-103.092783505155,4,2,1,80,0,0
52337,300,4,2,1,80,1,0
52337,-93.4579439252336,4,2,1,80,0,0
74987,-93.4579439252336,4,2,1,70,0,0
76187,-103.092783505155,4,2,1,70,0,0
80987,-93.4579439252336,4,2,1,80,0,0
87587,-93.4579439252336,4,2,1,60,0,0
88337,-103.092783505155,4,2,1,70,0,0
90587,-129.87012987013,4,2,1,70,0,0

[Colours]
Combo1 : 255,176,255
Combo2 : 255,255,140
Combo3 : 0,91,183

[HitObjects]
94,67,437,6,0,L|102:125,1,41.5949993653107,0|0,3:0|0:0,0:0:0:0:
170,143,737,2,0,L|162:201,1,41.5949993653107,0|0,1:0|3:0,0:0:0:0:
92,240,1037,1,0,1:0:0:0:
92,240,1187,1,2,3:0:0:0:
417,78,1637,6,0,L|409:136,1,41.5949993653107,0|0,3:0|0:0,0:0:0:0:
341,154,1937,2,0,L|349:212,1,41.5949993653107,2|0,3:0|3:0,0:0:0:0:
419,251,2237,1,0,1:0:0:0:
419,251,2387,1,2,3:0:0:0:
95,78,2837,6,0,L|103:136,1,41.5949993653107,0|0,3:0|0:0,0:0:0:0:
171,154,3137,2,0,L|163:212,1,41.5949993653107,2|0,3:0|3:0,0:0:0:0:
93,251,3437,1,0,1:0:0:0:
93,251,3587,1,2,3:0:0:0:
417,78,3887,6,0,L|399:212,1,102.21749797237,6|0,3:2|0:0,0:0:0:0:
255,248,4187,1,0,3:0:0:0:
314,95,4337,2,0,L|332:229,1,102.21749797237,0|0,3:0|3:0,0:0:0:0:
424,329,4637,1,8,0:0:0:0:
424,329,4712,1,8,0:0:0:0:
424,329,4787,2,0,L|430:281,3,34.0724993241234,8|8|8|8,0:0|0:0|0:0|0:0,0:0:0:0:
408,221,5087,6,0,B|306:236|372:292|235:306,1,171.690004060661,6|0,3:2|3:0,0:0:0:0:
99,177,5537,2,0,P|116:221|120:279,1,85.8450020303307,8|0,0:0|3:0,0:0:0:0:
257,91,5837,1,0,3:0:0:0:
78,62,5987,1,0,3:0:0:0:
258,217,6137,1,8,0:0:0:0:
170,26,6287,6,0,P|146:110|133:207,1,171.690004060661,6|0,3:2|3:0,0:0:0:0:
272,348,6737,2,0,P|325:348|369:325,1,85.8450020303307,8|0,0:0|3:0,0:0:0:0:
411,121,7037,1,0,3:0:0:0:
336,254,7187,1,0,3:0:0:0:
262,55,7337,1,8,0:0:0:0:
208,262,7487,6,0,P|148:298|53:243,1,171.690004060661,6|0,3:2|3:0,0:0:0:0:
82,31,7937,2,0,P|101:76|107:147,1,85.8450020303307,8|0,0:0|3:0,0:0:0:0:
74,322,8237,1,0,3:0:0:0:
191,140,8387,1,0,3:0:0:0:
196,352,8537,1,8,0:0:0:0:
205,123,8687,5,6,3:2:0:0:
333,289,8837,1,8,0:0:0:0:
333,289,8912,1,8,0:0:0:0:
333,289,8987,2,0,P|355:281|389:277,1,42.9225010151654,8|8,0:0|0:0,0:0:0:0:
482,157,9137,2,0,P|461:153|441:146,1,42.9225010151654,8|8,0:0|0:0,0:0:0:0:
260,28,9287,2,0,P|306:106|320:177,1,128.767503045496,6|0,3:2|0:0,0:0:0:0:
332,140,9587,2,0,P|311:79|276:25,1,128.767503045496,6|0,3:2|0:0,0:0:0:0:
260,28,9887,6,0,P|200:38|113:82,1,153.990001292336,6|0,3:2|3:0,0:0:0:0:
81,254,10337,2,0,P|120:272|173:281,1,76.9950006461678,8|0,0:0|1:0,0:0:0:0:
168,268,10562,1,0,1:0:0:0:
168,268,10637,2,0,P|202:251|240:242,1,76.9950006461678,0|0,3:0|3:0,0:0:0:0:
263,262,10862,1,8,0:0:0:0:
263,262,10937,2,0,P|271:306|274:353,1,76.9950006461678,8|0,0:0|1:0,0:0:0:0:
408,233,11237,6,0,P|411:194|418:156,1,76.9950006461678,0|0,3:0|3:0,0:0:0:0:
410,142,11462,1,8,0:0:0:0:
410,142,11537,2,0,P|366:145|332:160,1,76.9950006461678,8|0,0:0|1:0,0:0:0:0:
183,361,11837,5,6,3:2:0:0:
133,68,11987,1,6,3:2:0:0:
133,68,12437,6,0,L|202:61,1,68.1449986482468,0|0,1:0|0:0,0:0:0:0:
280,121,12737,2,0,L|348:128,1,68.1449986482468,0|0,1:0|0:0,0:0:0:0:
199,38,13037,2,0,L|132:45,1,68.1449986482468,0|0,1:0|0:0,0:0:0:0:
279,98,13337,2,0,L|346:104,1,68.1449986482468,0|0,1:0|0:0,0:0:0:0:
454,58,13637,1,4,1:2:0:0:
454,58,13787,2,0,P|443:92|438:135,1,68.1449986482468,0|0,0:0|1:0,0:0:0:0:
372,216,14087,1,0,0:0:0:0:
372,216,14237,2,0,P|383:250|388:293,1,68.1449986482468,0|0,1:0|0:0,0:0:0:0:
274,371,14537,2,0,P|278:337|289:304,1,68.1449986482468,0|0,1:0|0:0,0:0:0:0:
282,161,14837,6,0,P|250:147|202:148,1,68.1449986482468,4|0,1:2|0:0,0:0:0:0:
153,240,15137,2,0,P|122:253|88:255,1,68.1449986482468,0|0,1:0|0:0,0:0:0:0:
216,131,15437,2,0,P|250:133|281:147,1,68.1449986482468,0|0,1:0|0:0,0:0:0:0:
152,226,15737,2,0,P|121:239|87:241,1,68.1449986482468,0|0,1:0|0:0,0:0:0:0:
66,111,16037,2,0,P|79:73|85:40,1,68.1449986482468,4|0,1:2|0:0,0:0:0:0:
216,131,16337,2,0,P|202:93|197:60,1,68.1449986482468,4|0,1:2|0:0,0:0:0:0:
341,157,16637,1,4,1:2:0:0:
383,41,16787,1,0,3:0:0:0:
383,41,16862,1,0,3:0:0:0:
383,41,16937,2,0,P|426:24|464:28,1,68.1449986482468,0|0,3:0|3:0,0:0:0:0:
508,261,17237,5,6,3:2:0:0:
435,118,17387,1,0,0:0:0:0:
355,308,17537,1,8,0:0:0:0:
355,308,17612,1,8,0:0:0:0:
355,308,17687,2,0,P|339:314|311:319,1,38.4975003230839,8|0,3:0|3:0,0:0:0:0:
235,187,17837,2,0,P|253:190|271:197,1,38.4975003230839,8|8,0:0|0:0,0:0:0:0:
246,361,17987,2,0,P|238:343|235:324,1,38.4975003230839,8|8,0:0|0:0,0:0:0:0:
239,169,18137,2,0,P|257:172|275:179,3,38.4975003230839,8|8|8|8,3:0|3:0|3:0|3:0,0:0:0:0:
357,223,18437,6,0,P|372:180|377:127,1,76.9950006461678,6|0,1:2|1:0,0:0:0:0:
236,37,18737,1,8,0:0:0:0:
236,37,18812,1,8,0:0:0:0:
236,37,18887,2,0,P|245:56|248:83,1,38.4975003230839,8|0,3:0|0:0,0:0:0:0:
177,237,19037,2,0,P|144:257|89:260,1,76.9950006461678,8|0,3:0|3:0,0:0:0:0:
157,78,19337,1,0,1:0:0:0:
195,227,19487,1,0,0:0:0:0:
319,83,19637,5,8,3:0:0:0:
384,251,19787,2,0,P|424:272|475:271,1,76.9950006461678,8|0,3:0|1:0,0:0:0:0:
335,120,20087,1,8,3:0:0:0:
270,288,20237,2,0,P|230:309|179:308,1,76.9950006461678,8|0,3:0|1:0,0:0:0:0:
49,193,20537,1,8,3:0:0:0:
114,361,20687,2,0,P|154:382|205:381,1,76.9950006461678,8|0,3:0|1:0,0:0:0:0:
146,167,20987,5,2,3:2:0:0:
146,167,21587,2,0,P|127:155|103:151,2,38.4975003230839,0|0|0,1:0|1:0|1:0,0:0:0:0:
227,289,21887,5,8,0:0:0:0:
227,289,21962,1,8,0:0:0:0:
227,289,22037,2,0,P|270:277|307:252,1,76.9950006461678,6|0,3:2|0:0,0:0:0:0:
233,137,22337,1,8,0:0:0:0:
233,137,22487,1,0,0:0:0:0:
374,105,22637,2,0,P|358:141|348:199,1,76.9950006461678,0|0,3:0|0:0,0:0:0:0:
274,14,22937,1,8,0:0:0:0:
274,14,23087,1,0,0:0:0:0:
134,164,23237,5,2,3:2:0:0:
134,164,23387,2,0,L|39:153,1,76.9950006461678,0|8,0:0|0:0,0:0:0:0:
227,289,23687,2,0,L|322:278,1,76.9950006461678,0|0,0:0|3:0,0:0:0:0:
374,151,23987,1,0,0:0:0:0:
431,313,24137,5,8,0:0:0:0:
431,313,24287,2,0,P|433:266|442:219,1,76.9950006461678,0|2,0:0|3:2,0:0:0:0:
368,67,24587,1,0,0:0:0:0:
302,209,24737,1,8,0:0:0:0:
302,209,24887,1,0,0:0:0:0:
218,93,25037,2,0,P|178:78|118:76,1,76.9950006461678,0|0,3:0|0:0,0:0:0:0:
63,221,25337,5,8,0:0:0:0:
63,221,25487,2,0,P|78:262|83:319,1,76.9950006461678,2|2,0:0|3:2,0:0:0:0:
174,189,25787,1,0,0:0:0:0:
220,335,25937,1,8,0:0:0:0:
220,335,26087,2,0,P|226:297|240:261,1,76.9950006461678,2|8,0:0|0:0,0:0:0:0:
420,178,26387,1,8,0:0:0:0:
416,198,26462,1,8,0:0:0:0:
413,215,26537,2,0,P|393:221|357:224,1,38.4975003230839,8|0,0:0|0:0,0:0:0:0:
294,77,26687,6,0,P|322:157|336:246,1,153.990001292336,6|0,3:2|3:2,0:0:0:0:
389,14,27137,1,8,0:0:0:0:
289,169,27287,2,0,P|249:183|172:159,1,115.492500969252,6|0,3:2|0:0,0:0:0:0:
159,141,27587,2,0,P|116:144|56:197,1,115.492500969252,0|0,3:0|0:0,0:0:0:0:
69,207,27887,6,0,P|88:258|111:367,1,153.990001292336,6|0,3:2|3:0,0:0:0:0:
180,165,28337,1,8,0:0:0:0:
234,358,28487,2,0,P|249:282|274:209,1,153.990001292336,2|0,3:2|3:0,0:0:0:0:
427,341,28937,2,0,P|420:296|405:244,1,76.9950006461678,8|8,0:0|0:0,0:0:0:0:
386,242,29162,5,8,0:0:0:0:
386,242,29237,2,0,P|392:197|407:145,1,76.9950006461678,6|0,3:2|3:0,0:0:0:0:
330,316,29537,1,8,0:0:0:0:
251,109,29687,2,0,P|204:99|122:171,1,153.990001292336,2|0,3:2|3:0,0:0:0:0:
247,291,30137,1,8,0:0:0:0:
347,99,30287,2,0,P|393:89|476:161,1,153.990001292336,2|0,3:2|3:0,0:0:0:0:
264,266,30737,2,0,P|248:222|247:183,1,76.9950006461678,8|0,3:0|3:0,0:0:0:0:
131,30,31037,1,12,0:0:0:0:
65,164,31187,5,12,0:0:0:0:
65,164,31262,1,8,0:0:0:0:
65,164,31337,2,0,P|86:209|98:308,1,136.289997296494,2|0,3:0|3:0,0:0:0:0:
163,182,31787,1,8,0:0:0:0:
217,317,31937,2,0,P|252:339|297:340,1,68.1449986482468,2|2,0:0|0:0,0:0:0:0:
334,197,32237,2,0,P|361:177|395:171,1,68.1449986482468,14|0,0:0|3:0,0:0:0:0:
408,321,32537,2,0,P|394:281|391:247,1,68.1449986482468,2|8,0:0|0:0,0:0:0:0:
476,141,32837,1,2,0:0:0:0:
476,141,32987,1,8,0:0:0:0:
346,55,33137,6,0,P|313:66|270:68,1,68.1449986482468,2|0,3:2|3:0,0:0:0:0:
169,132,33437,2,0,P|202:143|245:145,1,68.1449986482468,8|0,0:0|0:0,0:0:0:0:
113,41,33737,1,8,0:0:0:0:
113,41,33887,1,8,0:0:0:0:
29,160,34037,2,0,P|21:193|18:235,1,68.1449986482468,2|8,3:2|3:0,0:0:0:0:
101,328,34337,2,0,P|92:294|89:261,1,68.1449986482468,0|0,3:0|3:0,0:0:0:0:
190,208,34637,2,0,P|181:241|178:274,1,68.1449986482468,0|8,1:0|3:0,0:0:0:0:
199,298,34862,5,8,3:0:0:0:
199,298,34937,2,0,P|235:281|355:267,1,136.289997296494,2|8,3:2|0:0,0:0:0:0:
420,343,35387,1,0,0:0:0:0:
431,184,35537,2,0,P|412:217|407:272,1,68.1449986482468,8|0,0:0|0:0,0:0:0:0:
346,116,35837,2,0,P|316:101|268:98,1,68.1449986482468,2|8,3:2|3:0,0:0:0:0:
219,219,36137,2,0,P|252:214|283:199,1,68.1449986482468,2|8,3:2|0:0,0:0:0:0:
157,102,36437,2,0,P|126:86|92:82,1,68.1449986482468,2|8,0:0|3:0,0:0:0:0:
78,100,36662,1,8,3:0:0:0:
78,100,36737,2,0,P|93:155|99:193,1,68.1449986482468,2|0,3:2|3:0,0:0:0:0:
0,249,37037,1,8,0:0:0:0:
0,249,37187,1,0,3:0:0:0:
140,234,37337,2,0,P|125:289|119:327,1,68.1449986482468,2|0,3:2|3:0,0:0:0:0:
273,194,37637,5,2,3:2:0:0:
273,194,38237,5,8,0:0:0:0:
301,176,38312,1,8,0:0:0:0:
335,170,38387,1,8,0:0:0:0:
368,177,38462,1,8,0:0:0:0:
396,196,38537,2,0,P|378:262|362:356,1,153.990001292336,6|8,3:2|0:0,0:0:0:0:
176,384,38987,1,0,0:0:0:0:
334,258,39137,1,0,0:0:0:0:
176,349,39287,1,8,0:0:0:0:
176,349,39362,1,8,0:0:0:0:
176,349,39437,1,8,0:0:0:0:
133,168,39587,6,0,P|77:135|5:189,1,153.990001292336,6|8,3:2|3:0,0:0:0:0:
166,314,40037,2,0,P|190:263|197:217,1,76.9950006461678,2|0,3:2|0:0,0:0:0:0:
204,99,40337,2,0,P|214:135|238:177,1,76.9950006461678,8|0,3:0|3:0,0:0:0:0:
378,241,40637,1,0,3:0:0:0:
441,67,40787,6,0,B|358:95|423:139|310:165,1,153.990001292336,6|0,3:2|3:0,0:0:0:0:
182,25,41237,2,0,P|197:62|204:111,1,76.9950006461678,0|0,3:0|3:0,0:0:0:0:
81,240,41537,2,0,P|87:202|102:166,1,76.9950006461678,0|0,3:0|3:0,0:0:0:0:
125,157,41762,1,0,3:0:0:0:
125,157,41837,1,0,3:0:0:0:
229,318,41987,6,0,P|277:287|374:269,1,153.990001292336,6|0,3:2|3:0,0:0:0:0:
226,205,42437,1,8,0:0:0:0:
380,359,42587,2,0,P|390:283|429:216,1,153.990001292336,6|0,3:2|3:0,0:0:0:0:
451,211,42962,1,0,3:0:0:0:
451,211,43037,1,8,0:0:0:0:
331,72,43187,1,8,0:0:0:0:
213,223,43337,6,0,P|176:244|122:247,1,85.8450020303307,10|0,0:0|3:0,0:0:0:0:
80,192,43562,1,0,3:0:0:0:
80,192,43637,2,0,P|95:142|102:90,1,85.8450020303307,8|0,0:0|3:0,0:0:0:0:
63,38,43862,1,0,3:0:0:0:
63,38,43937,1,8,0:0:0:0:
239,103,44087,1,0,3:0:0:0:
239,103,44162,1,0,3:0:0:0:
239,103,44237,1,8,0:0:0:0:
86,211,44387,1,6,3:2:0:0:
86,211,44462,1,0,3:0:0:0:
86,211,44537,1,8,0:0:0:0:
246,270,44687,5,0,3:0:0:0:
246,270,44762,1,0,3:0:0:0:
246,270,44837,2,0,P|312:252|350:249,1,85.8450020303307,8|6,0:0|3:2,0:0:0:0:
475,366,45137,2,0,P|432:359|391:346,1,85.8450020303307,8|8,0:0|0:0,0:0:0:0:
413,144,45437,1,8,0:0:0:0:
375,317,45587,1,8,0:0:0:0:
282,115,45737,6,0,P|225:80|176:85,1,85.8450020303307,6|8,3:2|0:0,0:0:0:0:
144,131,45962,1,8,0:0:0:0:
144,131,46037,2,0,P|156:176|163:229,1,85.8450020303307,8|8,0:0|3:0,0:0:0:0:
328,43,46337,2,0,P|315:88|309:141,1,85.8450020303307,2|8,3:0|0:0,0:0:0:0:
343,201,46562,1,8,0:0:0:0:
343,201,46637,2,0,P|355:246|362:299,1,85.8450020303307,8|0,0:0|3:0,0:0:0:0:
305,347,46862,5,0,3:0:0:0:
305,347,46937,2,0,P|280:340|251:337,1,42.9225010151654,8|0,0:0|3:0,0:0:0:0:
130,369,47087,2,0,P|151:365|171:359,1,42.9225010151654,0|0,3:0|3:0,0:0:0:0:
231,217,47237,1,8,0:0:0:0:
231,217,47312,1,0,3:0:0:0:
231,217,47387,2,0,P|218:239|209:267,1,42.9225010151654,0|0,3:0|3:0,0:0:0:0:
114,152,47537,2,0,P|126:174|135:202,3,42.9225010151654,8|0|0|0,0:0|3:0|3:0|3:0,0:0:0:0:
108,278,47837,1,8,0:0:0:0:
127,56,47987,1,0,3:0:0:0:
320,191,48137,6,0,P|335:142|335:98,1,85.8450020303307,0|0,3:0|3:0,0:0:0:0:
114,152,48437,2,0,P|163:164|235:119,1,128.767503045496,8|0,0:0|0:0,0:0:0:0:
226,120,48737,2,0,P|172:154|111:143,1,128.767503045496,8|0,0:0|0:0,0:0:0:0:
108,131,49037,1,0,3:0:0:0:
171,256,49187,1,0,3:0:0:0:
236,103,49337,6,0,P|277:75|385:124,2,171.690004060661,8|8|0,0:0|0:0|3:0,0:0:0:0:
294,248,50087,1,0,3:0:0:0:
294,248,50237,1,0,3:0:0:0:
377,128,50387,1,0,3:0:0:0:
415,332,50537,1,8,0:0:0:0:
415,332,50687,2,0,P|424:288|427:248,1,85.8450020303307,2|0,3:2|0:0,0:0:0:0:
354,43,50987,2,0,B|266:79|339:124|189:160,1,171.690004060661,6|8,3:2|0:0,0:0:0:0:
456,158,51437,2,0,P|415:138|336:124,1,85.8450020303307,8|8,0:0|0:0,0:0:0:0:
202,234,51737,5,14,0:0:0:0:
70,13,52037,5,2,0:0:0:0:
70,13,52187,2,0,P|40:112|29:206,1,171.690004060661,6|0,3:2|3:0,0:0:0:0:
180,315,52637,2,0,P|222:278|286:265,1,94.694997110138,8|0,0:0|3:0,0:0:0:0:
316,317,52862,1,8,0:0:0:0:
316,317,52937,2,0,P|360:332|407:329,1,94.694997110138,0|0,3:0|3:0,0:0:0:0:
483,114,53237,1,8,0:0:0:0:
378,244,53387,5,2,3:2:0:0:
378,244,53462,1,0,3:0:0:0:
378,244,53537,2,0,P|366:188|361:134,1,94.694997110138,0|0,0:0|3:0,0:0:0:0:
195,33,53837,1,8,0:0:0:0:
346,114,53987,1,0,3:0:0:0:
108,193,54137,1,0,3:0:0:0:
243,124,54287,1,0,3:0:0:0:
197,331,54437,1,8,0:0:0:0:
138,103,54587,6,0,P|73:107|15:209,1,189.389994220276,6|0,3:2|3:0,0:0:0:0:
194,316,55037,1,8,0:0:0:0:
324,127,55187,1,0,3:0:0:0:
324,127,55262,1,0,3:0:0:0:
324,127,55337,2,0,P|379:119|417:135,1,94.694997110138,0|0,3:0|3:0,0:0:0:0:
411,381,55637,6,0,P|379:298|373:192,1,189.389994220276,8|0,0:0|0:0,0:0:0:0:
445,65,56087,1,0,3:0:0:0:
260,184,56237,1,8,0:0:0:0:
449,228,56387,1,0,3:0:0:0:
449,228,56462,1,0,3:0:0:0:
449,228,56537,1,0,3:0:0:0:
321,70,56687,1,0,3:0:0:0:
218,263,56837,1,8,0:0:0:0:
124,14,56987,6,0,P|160:106|178:210,1,189.389994220276,6|0,3:2|3:0,0:0:0:0:
296,352,57437,1,8,0:0:0:0:
328,129,57587,1,0,3:0:0:0:
328,129,57662,1,8,3:0:0:0:
328,129,57737,2,0,P|305:187|293:254,1,94.694997110138,0|0,3:0|3:0,0:0:0:0:
108,379,58037,6,0,P|90:286|55:198,1,189.389994220276,8|0,0:0|0:0,0:0:0:0:
188,85,58487,1,0,3:0:0:0:
221,290,58637,2,0,P|270:314|350:300,1,94.694997110138,8|0,0:0|3:0,0:0:0:0:
282,84,58937,2,0,P|235:86|193:109,1,94.694997110138,0|0,3:0|3:0,0:0:0:0:
419,185,59237,1,8,0:0:0:0:
419,185,59312,1,8,0:0:0:0:
419,185,59387,2,0,P|430:153|434:117,1,47.347498555069,8|8,3:0|3:0,0:0:0:0:
309,315,59537,6,0,P|293:268|287:216,1,94.694997110138,8|0,0:0|3:0,0:0:0:0:
333,153,59762,1,0,3:0:0:0:
333,153,59837,1,8,0:0:0:0:
174,248,59987,1,0,3:0:0:0:
383,355,60137,1,8,0:0:0:0:
156,257,60287,1,6,3:2:0:0:
310,165,60437,2,0,P|302:187|299:214,1,47.347498555069,0|0,1:0|0:0,0:0:0:0:
129,382,60587,6,0,P|121:280|98:175,1,189.389994220276,6|0,3:2|3:0,0:0:0:0:
17,49,61037,1,8,0:0:0:0:
142,262,61187,2,0,P|193:290|305:197,1,189.389994220276,6|0,3:2|3:0,0:0:0:0:
327,53,61637,1,8,0:0:0:0:
391,257,61787,6,0,P|366:165|357:63,1,189.389994220276,6|0,3:2|3:0,0:0:0:0:
225,257,62237,1,12,0:0:0:0:
170,93,62387,1,0,3:0:0:0:
170,93,62462,1,8,3:0:0:0:
170,93,62537,1,12,3:2:0:0:
142,280,62687,1,0,3:0:0:0:
285,142,62837,1,12,0:0:0:0:
369,346,62987,5,0,3:2:0:0:
369,346,63062,1,0,3:0:0:0:
369,346,63137,2,0,P|424:347|477:294,1,94.694997110138,12|0,0:0|3:0,0:0:0:0:
472,245,63362,1,0,3:0:0:0:
472,245,63437,1,12,0:0:0:0:
227,162,63587,1,8,0:0:0:0:
434,91,63737,2,0,P|426:120|422:153,1,47.347498555069,12|8,0:0|0:0,0:0:0:0:
316,255,63887,2,0,P|311:231|306:208,1,47.347498555069,0|0,3:0|3:0,0:0:0:0:
116,86,64037,1,8,0:0:0:0:
161,327,64187,6,0,P|190:235|202:127,1,189.389994220276,14|8,0:0|0:0,0:0:0:0:
320,18,64637,2,0,P|348:8|386:7,1,47.347498555069,8|0,0:0|3:0,0:0:0:0:
274,159,64787,2,0,P|296:167|319:170,1,47.347498555069,0|0,3:0|3:0,0:0:0:0:
320,37,64937,2,0,P|348:27|386:26,1,47.347498555069,8|0,0:0|3:0,0:0:0:0:
274,178,65087,2,0,P|296:186|319:189,1,47.347498555069,0|0,3:0|3:0,0:0:0:0:
176,33,65237,2,0,P|183:60|186:98,3,47.347498555069,8|0|0|0,0:0|3:0|3:0|3:0,0:0:0:0:
131,144,65537,5,8,3:0:0:0:
307,355,65687,2,0,P|316:308|335:265,1,94.694997110138,8|0,3:0|0:0,0:0:0:0:
362,48,65987,1,8,3:0:0:0:
186,259,66137,2,0,P|176:212|157:169,1,94.694997110138,8|0,3:0|3:0,0:0:0:0:
86,150,66362,1,0,3:0:0:0:
86,150,66437,1,8,3:0:0:0:
219,26,66587,6,0,B|319:54|249:110|374:135,1,189.389994220276,6|0,3:2|3:0,0:0:0:0:
186,259,67037,1,8,0:0:0:0:
217,111,67187,1,0,3:0:0:0:
287,334,67337,1,0,3:0:0:0:
209,148,67487,1,0,3:0:0:0:
161,361,67637,1,8,0:0:0:0:
300,204,67787,5,2,3:2:0:0:
300,204,67862,1,0,3:0:0:0:
300,204,67937,2,0,P|354:176|408:178,1,94.694997110138,0|0,0:0|3:0,0:0:0:0:
283,359,68237,1,8,0:0:0:0:
203,175,68387,1,0,3:0:0:0:
203,175,68462,1,0,3:0:0:0:
203,175,68537,1,0,3:0:0:0:
287,320,68687,1,0,3:0:0:0:
311,107,68837,1,8,0:0:0:0:
166,294,68987,6,0,P|106:273|74:147,1,189.389994220276,6|0,3:2|3:0,0:0:0:0:
245,73,69437,1,8,0:0:0:0:
294,224,69587,2,0,P|342:249|404:248,1,94.694997110138,0|0,3:0|3:0,0:0:0:0:
252,96,69887,1,0,3:0:0:0:
399,275,70037,6,0,P|440:187|445:75,1,189.389994220276,8|0,0:0|0:0,0:0:0:0:
220,0,70487,1,0,3:0:0:0:
285,196,70637,1,8,0:0:0:0:
348,55,70787,1,0,3:0:0:0:
348,55,70862,1,0,3:0:0:0:
348,55,70937,1,0,3:0:0:0:
118,152,71087,1,0,3:0:0:0:
314,282,71237,1,8,0:0:0:0:
145,141,71387,6,0,P|180:234|187:346,1,189.389994220276,6|0,3:2|3:0,0:0:0:0:
248,96,71837,1,8,0:0:0:0:
154,267,71987,2,0,P|111:288|44:288,1,94.694997110138,0|0,3:0|3:0,0:0:0:0:
234,221,72287,1,0,3:0:0:0:
140,50,72437,2,0,P|97:29|30:29,1,94.694997110138,8|2,0:0|3:2,0:0:0:0:
16,95,72662,5,0,3:0:0:0:
16,95,72737,1,0,0:0:0:0:
38,281,72887,1,0,3:0:0:0:
190,130,73037,1,8,0:0:0:0:
60,181,73187,1,0,3:0:0:0:
290,252,73337,1,0,3:0:0:0:
177,113,73487,1,0,3:0:0:0:
144,325,73637,1,8,0:0:0:0:
294,159,73787,6,0,B|403:182|338:249|449:274,1,189.389994220276,6|8,3:2|0:0,0:0:0:0:
162,359,74237,1,8,0:0:0:0:
263,141,74387,2,0,P|286:210|298:288,1,142.042495665207,6|0,3:2|0:0,0:0:0:0:
314,272,74687,2,0,P|302:202|279:134,1,142.042495665207,6|0,3:2|0:0,0:0:0:0:
298,127,74987,2,0,P|321:195|332:317,1,189.389994220276,6|0,3:2|3:0,0:0:0:0:
476,114,75437,2,0,P|453:182|442:304,1,189.389994220276,8|0,0:0|0:0,0:0:0:0:
385,110,75887,1,0,3:0:0:0:
297,278,76037,1,8,0:0:0:0:
180,103,76187,6,0,P|114:92|50:199,1,171.690004060661,6|0,3:2|3:0,0:0:0:0:
112,319,76637,2,0,P|132:280|138:225,1,85.8450020303307,8|0,0:0|0:0,0:0:0:0:
242,124,76937,1,0,3:0:0:0:
203,317,77087,2,0,P|183:278|177:223,1,85.8450020303307,0|8,3:0|0:0,0:0:0:0:
326,82,77387,6,0,L|427:95,1,85.8450020303307,2|0,3:2|0:0,0:0:0:0:
449,274,77687,2,0,L|364:285,1,85.8450020303307,0|8,3:0|0:0,0:0:0:0:
242,124,77987,1,2,3:2:0:0:
242,124,78062,1,0,3:0:0:0:
242,124,78137,2,0,P|253:172|259:226,1,85.8450020303307,0|0,3:0|3:0,0:0:0:0:
144,78,78437,1,8,0:0:0:0:
337,248,78587,6,0,P|348:158|365:60,1,171.690004060661,6|0,3:2|3:0,0:0:0:0:
193,254,79037,2,0,P|149:276|89:279,1,85.8450020303307,8|0,0:0|0:0,0:0:0:0:
46,246,79262,1,0,3:0:0:0:
46,246,79337,2,0,P|62:292|70:344,1,85.8450020303307,0|0,3:0|3:0,0:0:0:0:
118,153,79637,1,8,0:0:0:0:
231,361,79787,6,0,P|302:326|403:310,1,171.690004060661,6|0,3:2|3:0,0:0:0:0:
230,183,80237,2,0,P|270:200|337:207,1,85.8450020303307,8|0,0:0|0:0,0:0:0:0:
365,146,80462,1,0,3:0:0:0:
365,146,80537,2,0,P|371:100|384:53,1,85.8450020303307,0|0,3:0|3:0,0:0:0:0:
425,238,80837,1,8,0:0:0:0:
260,91,80987,6,0,P|179:102|137:219,1,189.389994220276,6|0,3:2|3:0,0:0:0:0:
297,351,81437,1,8,0:0:0:0:
258,205,81587,1,0,3:0:0:0:
104,369,81737,1,8,0:0:0:0:
268,326,81887,1,0,3:0:0:0:
35,252,82037,1,8,0:0:0:0:
257,90,82187,6,0,P|223:164|207:275,1,189.389994220276,0|8,3:0|3:0,0:0:0:0:
102,65,82637,1,0,3:0:0:0:
312,196,82787,1,8,0:0:0:0:
66,242,82937,1,8,0:0:0:0:
66,242,83012,1,8,0:0:0:0:
66,242,83087,2,0,P|72:265|79:292,1,47.347498555069,8|8,0:0|0:0,0:0:0:0:
210,154,83237,2,0,P|203:177|197:204,3,47.347498555069,8|8|8|8,0:0|0:0|0:0|0:0,0:0:0:0:
249,267,83537,6,0,P|288:289|402:215,1,189.389994220276,6|8,3:2|0:0,0:0:0:0:
405,45,83987,1,0,3:0:0:0:
405,45,84062,1,0,3:0:0:0:
405,45,84137,2,0,P|388:92|384:154,1,94.694997110138,14|0,0:0|3:0,0:0:0:0:
450,258,84437,1,14,0:0:0:0:
290,104,84587,5,0,3:0:0:0:
290,104,84662,1,0,3:0:0:0:
290,104,84737,2,0,P|307:151|311:213,1,94.694997110138,14|0,0:0|3:0,0:0:0:0:
254,257,84962,1,0,3:0:0:0:
254,257,85037,2,0,P|205:234|133:224,1,94.694997110138,14|0,0:0|3:0,0:0:0:0:
105,280,85262,1,0,3:0:0:0:
105,280,85337,1,14,0:0:0:0:
53,91,85487,1,0,3:0:0:0:
53,91,85562,1,0,3:0:0:0:
53,91,85637,2,0,P|40:137|32:198,1,94.694997110138,14|0,0:0|0:0,0:0:0:0:
198,61,85937,5,6,3:2:0:0:
230,258,86087,1,8,0:0:0:0:
293,47,86237,1,8,0:0:0:0:
228,234,86387,1,8,0:0:0:0:
120,37,86537,1,8,0:0:0:0:
306,188,86687,1,10,0:0:0:0:
53,159,86837,1,8,0:0:0:0:
324,180,86987,6,0,P|393:144|468:144,1,142.042495665207,14|0,0:0|0:0,0:0:0:0:
462,153,87287,1,2,3:2:0:0:
223,54,88337,6,0,P|238:98|242:162,1,85.8450020303307,6|0,3:2|0:0,0:0:0:0:
171,255,88637,1,8,0:0:0:0:
337,142,88787,2,0,P|321:186|317:250,1,85.8450020303307,6|0,3:2|0:0,0:0:0:0:
369,350,89087,1,8,0:0:0:0:
198,240,89237,2,0,P|213:284|217:348,1,85.8450020303307,6|0,3:2|0:0,0:0:0:0:
309,158,89537,5,8,0:0:0:0:
89,216,89687,2,0,P|94:173|109:133,1,85.8450020303307,6|0,3:2|0:0,0:0:0:0:
270,59,89987,1,8,0:0:0:0:
351,265,90137,2,0,P|397:288|450:289,1,85.8450020303307,8|8,0:0|0:0,0:0:0:0:
366,71,90437,5,8,0:0:0:0:
266,296,90587,1,6,3:2:0:0:
98,61,91487,5,0,3:0:0:0:
98,61,91562,1,0,3:0:0:0:
98,61,91637,1,8,0:0:0:0:
138,219,91787,1,8,0:0:0:0:
255,106,91937,1,0,3:0:0:0:
255,106,92012,1,0,3:0:0:0:
255,106,92087,2,0,L|260:165,1,34.0724993241234,8|8,0:0|0:0,0:0:0:0:
336,288,92237,2,0,L|338:254,3,34.0724993241234,8|8|0|0,0:0|0:0|3:0|3:0,0:0:0:0:
412,169,92537,2,0,L|414:203,3,34.0724993241234,8|8|8|0,0:0|0:0|0:0|3:0,0:0:0:0:
404,71,92837,5,8,0:0:0:0:
421,289,92987,1,14,0:0:0:0:
