osu file format v14

[General]
AudioFilename: audio.mp3
AudioLeadIn: 0
PreviewTime: 51375
Countdown: 0
SampleSet: Soft
StackLeniency: 0.4
Mode: 0
LetterboxInBreaks: 0
WidescreenStoryboard: 1

[Editor]
DistanceSpacing: 1.5
BeatDivisor: 4
GridSize: 32
TimelineZoom: 2.799999

[Metadata]
Title:Phantom Joke (TV Size)
TitleUnicode:Phantom Joke (TV Size)
Artist:UNISON SQUARE GARDEN
ArtistUnicode:UNISON SQUARE GARDEN
Creator:Nevo
Version:Hard
Source:Fate/Grand Order: Absolute Demonic Front - Babylonia
Tags:usq anime japanese opening smokelind synderes glaceon armin a_r_m_i_n -絶対魔獣戦線バビロニア- Zettai Majuu Sensen
BeatmapID:2200083
BeatmapSetID:1051745

[Difficulty]
HPDrainRate:4
CircleSize:3.4
OverallDifficulty:5.5
ApproachRate:8
SliderMultiplier:1.2
SliderTickRate:1

[Events]
//Background and Video events
0,0,"62ba0206b315ec0550624d0e3788a750.png_1024w_waifu2x_art_noise3_scale_tta_1.png",0,0
Video,490,"vvvvv.mp4"
//Break Periods
//Storyboard Layer 0 (Background)
//Storyboard Layer 1 (Fail)
//Storyboard Layer 2 (Pass)
//Storyboard Layer 3 (Foreground)
//Storyboard Layer 4 (Overlay)
//Storyboard Sound Samples

[TimingPoints]
437,300,4,2,1,60,1,0
437,-100,4,2,1,60,0,0
3887,-100,4,2,1,60,0,0
5087,-100,4,2,1,75,0,0
9287,-100,4,2,1,60,0,0
12437,-100,4,2,1,40,0,0
16037,-100,4,2,1,40,0,0
17237,-100,4,2,1,60,0,0
22037,-100,4,2,1,70,0,0
31337,300,3,2,1,50,1,0
31337,-100,4,2,1,50,0,0
38537,300,4,2,1,60,1,0
38537,-100,4,2,1,60,0,0
52187,-100,4,2,1,80,0,1
52337,300,4,2,1,80,1,1
52337,-100,4,2,1,80,0,1
65537,-100,4,2,1,80,0,0
66587,-100,4,2,1,80,0,1
74987,-100,4,2,1,70,0,1
80987,-100,4,2,1,80,0,1
87587,-100,4,2,1,60,0,1
87812,-100,4,2,1,5,0,1
87887,-100,4,2,1,60,0,1
88187,-100,4,2,1,5,0,1
88337,-100,4,2,1,70,0,0

[Colours]
Combo1 : 255,176,255
Combo2 : 255,255,140
Combo3 : 0,91,183

[HitObjects]
391,323,437,6,0,P|403:272|403:245,1,60,0|0,3:0|0:0,0:0:0:0:
334,192,737,2,0,P|322:141|322:114,1,60,0|0,1:0|3:0,0:0:0:0:
385,54,1037,2,0,L|456:59,2,60,0|2|0,1:0|3:0|0:0,0:0:0:0:
284,18,1487,1,0,0:0:0:0:
284,18,1637,2,0,L|203:26,1,60,0|0,3:0|0:0,0:0:0:0:
177,110,1937,2,0,L|117:104,1,60,2|0,3:0|3:0,0:0:0:0:
32,59,2237,2,0,P|25:29|26:0,2,60,0|2|0,1:0|3:0|0:0,0:0:0:0:
45,161,2687,1,0,0:0:0:0:
45,161,2837,6,0,L|40:249,1,60,0|0,3:0|0:0,0:0:0:0:
127,258,3137,2,0,L|132:346,1,60,2|0,3:0|3:0,0:0:0:0:
215,370,3437,2,0,P|260:373|286:365,1,60,0|2,1:0|3:0,0:0:0:0:
351,327,3737,1,0,0:0:0:0:
404,251,3887,6,0,L|391:131,1,120,6|0,3:2|3:0,0:0:0:0:
305,70,4337,2,0,L|298:143,1,60,0|0,3:0|3:0,0:0:0:0:
222,177,4637,1,8,0:0:0:0:
294,228,4787,2,0,L|299:270,2,30,8|8|8,0:0|0:0|0:0,0:0:0:0:
215,304,5087,6,0,P|159:292|84:295,1,120,6|0,3:2|3:0,0:0:0:0:
13,227,5537,2,0,L|83:212,1,60,8|0,0:0|3:0,0:0:0:0:
123,137,5837,1,0,3:0:0:0:
200,211,5987,2,0,L|281:225,1,60,0|8,3:0|0:0,0:0:0:0:
352,159,6287,6,0,B|324:131|324:131|233:115,1,120,6|0,3:2|3:0,0:0:0:0:
104,70,6887,1,0,0:0:0:0:
104,70,7037,2,0,L|42:80,1,60,0|0,3:0|3:0,0:0:0:0:
40,171,7337,1,8,0:0:0:0:
122,230,7487,6,0,P|168:212|252:225,1,120,6|0,3:2|3:0,0:0:0:0:
292,298,7937,2,0,L|366:284,1,60,8|0,0:0|3:0,0:0:0:0:
415,216,8237,2,0,P|420:182|415:140,2,60,0|0|8,3:0|3:0|0:0,0:0:0:0:
326,183,8687,6,0,L|315:51,1,120,6|8,3:2|0:0,0:0:0:0:
235,22,9137,1,8,0:0:0:0:
186,102,9287,6,0,L|112:98,1,60,6|0,3:2|0:0,0:0:0:0:
113,188,9587,2,0,L|187:184,1,60,6|0,3:2|0:0,0:0:0:0:
222,282,9887,2,0,L|97:272,1,120,6|0,3:2|3:0,0:0:0:0:
37,337,10337,1,8,0:0:0:0:
11,253,10487,2,0,P|1:201|0:130,1,120,0|0,1:0|3:0,0:0:0:0:
75,68,10937,2,0,L|144:59,1,60,8|0,0:0|1:0,0:0:0:0:
223,102,11237,5,0,3:0:0:0:
320,77,11387,1,0,3:0:0:0:
320,77,11537,2,0,L|406:80,1,60,8|0,0:0|1:0,0:0:0:0:
458,135,11837,1,6,3:2:0:0:
436,227,11987,1,6,3:2:0:0:
118,337,12437,6,0,P|127:293|108:212,1,120,0|0,1:0|1:0,0:0:0:0:
9,128,13037,2,0,L|143:137,1,120,0|0,1:0|1:0,0:0:0:0:
230,295,13637,2,0,P|221:251|240:170,1,120,4|0,1:2|1:0,0:0:0:0:
339,86,14237,2,0,L|205:95,1,120,0|0,1:0|1:0,0:0:0:0:
325,242,14837,6,0,L|400:232,1,60,4|0,1:2|0:0,0:0:0:0:
461,270,15137,2,0,P|475:306|476:330,1,60,0|0,1:0|0:0,0:0:0:0:
398,375,15437,2,0,L|263:367,1,120,0|0,1:0|1:0,0:0:0:0:
220,287,15887,1,0,0:0:0:0:
220,287,16037,2,0,L|144:293,1,60,0|0,3:0|0:2,0:0:0:0:
113,207,16337,6,0,P|115:146|88:83,1,120,4|4,1:2|1:2,0:0:0:0:
15,204,16937,1,0,3:0:0:0:
194,113,17237,6,0,L|282:122,1,60,6|0,3:2|0:0,0:0:0:0:
312,190,17537,2,0,L|400:181,1,60,8|8,0:0|3:0,0:0:0:0:
450,144,17837,2,0,P|459:100|455:76,1,60,8|0,0:0|0:0,0:0:0:0:
392,10,18137,1,8,3:0:0:0:
392,10,18287,1,8,3:0:0:0:
306,56,18437,6,0,L|235:64,1,60,6|0,1:2|1:0,0:0:0:0:
155,33,18737,1,8,0:0:0:0:
69,72,18887,2,0,P|32:143|61:185,1,120,8|0,3:0|3:0,0:0:0:0:
130,224,19337,2,0,P|128:260|114:285,1,60,0|0,1:0|0:0,0:0:0:0:
45,359,19637,5,8,3:0:0:0:
45,359,19787,1,8,3:0:0:0:
242,322,20087,2,0,L|245:262,1,60,8|8,3:0|3:0,0:0:0:0:
153,111,20537,1,8,3:0:0:0:
153,111,20687,6,0,P|204:119|273:80,1,120,8|2,3:0|3:2,0:0:0:0:
366,53,21137,2,0,L|352:121,2,60,0|0|0,0:0|0:0|1:0,0:0:0:0:
460,26,21587,2,0,L|464:85,1,60,0|0,1:0|1:0,0:0:0:0:
489,204,21887,1,8,0:0:0:0:
489,204,22037,6,0,L|369:197,1,120,6|8,3:2|0:0,0:0:0:0:
197,231,22637,2,0,L|133:238,1,60,0|0,3:0|0:0,0:0:0:0:
86,161,22937,2,0,P|79:132|79:97,1,60,8|0,0:0|0:0,0:0:0:0:
111,15,23237,6,0,L|183:25,2,60,2|0|8,3:2|0:0|0:0,0:0:0:0:
9,35,23687,2,0,P|-4:108|5:178,1,120
70,219,24137,1,8,0:0:0:0:
171,190,24287,2,0,P|227:171|303:181,1,120
378,230,24737,1,8,0:0:0:0:
378,230,24887,1,0,0:0:0:0:
448,157,25037,2,0,P|451:121|446:95,1,60,0|0,3:0|0:0,0:0:0:0:
377,30,25337,1,8,0:0:0:0:
306,93,25487,6,0,B|251:85|251:85|233:93|233:93|169:85,1,120,2|0,0:0|0:0,0:0:0:0:
24,40,26087,2,0,P|23:98|53:168,1,120,2|8,0:0|0:0,0:0:0:0:
89,237,26537,1,8,0:0:0:0:
186,217,26687,6,0,B|266:196|266:196|308:204,1,120,6|0,3:2|3:2,0:0:0:0:
451,266,27287,2,0,P|453:326|456:386,2,120,6|0|6,3:2|3:0|3:2,0:0:0:0:
512,138,28187,1,0,3:0:0:0:
512,138,28337,1,8,0:0:0:0:
421,91,28487,6,0,P|375:81|293:89,1,120,2|0,3:2|3:0,0:0:0:0:
222,144,28937,2,0,P|182:151|136:141,1,60,8|8,0:0|0:0,0:0:0:0:
73,103,29237,6,0,L|57:27,2,60,6|0|8,3:2|3:0|0:0,0:0:0:0:
91,192,29687,2,0,L|72:330,1,120,2|0,3:2|3:0,0:0:0:0:
143,373,30137,1,8,0:0:0:0:
222,331,30287,6,0,P|268:319|303:316,1,60,2|0,3:2|0:0,0:0:0:0:
306,229,30587,2,0,P|347:253|373:275,1,60,0|8,3:0|3:0,0:0:0:0:
430,326,30887,1,0,3:0:0:0:
478,241,31037,2,0,L|466:166,1,60,12|12,0:0|0:0,0:0:0:0:
429,98,31337,6,0,P|390:124|318:99,1,120,2|0,3:0|3:0,0:0:0:0:
183,22,31937,2,0,L|196:97,1,60,2|2,0:0|0:0,0:0:0:0:
130,147,32237,2,0,P|103:160|73:163,1,60,14|0,0:0|3:0,0:0:0:0:
0,234,32537,2,0,P|41:241|60:254,1,60,2|8,0:0|0:0,0:0:0:0:
106,318,32837,1,2,0:0:0:0:
246,286,33137,6,0,B|260:246|260:246|248:157,1,120,2|8,3:2|0:0,0:0:0:0:
413,102,33737,2,0,L|408:173,1,60,8|8,0:0|0:0,0:0:0:0:
427,262,34037,2,0,B|398:252|398:252|359:256,1,60,2|8,3:2|3:0,0:0:0:0:
282,282,34337,2,0,B|253:292|253:292|214:288,1,60,2|0,3:2|3:0,0:0:0:0:
147,252,34637,1,0,1:0:0:0:
203,96,34937,6,0,B|241:80|269:89|269:89|297:103|334:89,1,120,2|8,3:2|0:0,0:0:0:0:
482,68,35537,2,0,L|491:0,1,60,8|0,0:0|0:0,0:0:0:0:
395,50,35837,2,0,L|403:128,1,60,2|8,3:2|3:0,0:0:0:0:
463,168,36137,2,0,L|455:246,1,60,2|8,3:2|0:0,0:0:0:0:
391,290,36437,2,0,P|359:298|327:293,1,60,2|8,0:0|3:0,0:0:0:0:
267,230,36737,6,0,L|190:237,1,60,2|0,3:2|3:0,0:0:0:0:
139,293,37037,2,0,L|62:286,1,60,8|0,0:0|3:0,0:0:0:0:
15,224,37337,2,0,P|3:188|4:165,1,60,2|0,3:2|3:0,0:0:0:0:
43,85,37637,1,2,3:2:0:0:
191,123,37937,2,0,P|235:127|262:114,1,60,2|0,0:0|0:0,0:0:0:0:
322,56,38237,2,0,L|314:18,2,30,8|8|8,0:0|0:0|0:0,0:0:0:0:
400,114,38537,6,0,L|382:246,1,120,6|8,3:2|0:0,0:0:0:0:
321,310,38987,2,0,P|282:316|248:311,1,60
184,261,39287,2,0,P|145:255|111:260,1,60,8|8,0:0|0:0,0:0:0:0:
69,331,39587,6,0,B|97:362|97:362|192:349,1,120,6|8,3:2|3:0,0:0:0:0:
261,314,40037,2,0,P|277:272|279:235,1,60,2|0,3:2|0:0,0:0:0:0:
369,236,40337,2,0,P|350:194|325:167,1,60,8|0,3:0|3:0,0:0:0:0:
290,107,40637,1,0,3:0:0:0:
217,160,40787,6,0,P|164:174|97:152,1,120,6|0,3:2|3:0,0:0:0:0:
18,127,41237,2,0,L|33:59,1,60,0|0,3:0|3:0,0:0:0:0:
113,23,41537,1,0,3:0:0:0:
113,23,41687,2,0,P|146:20|192:25,1,60,0|0,3:0|3:0,0:0:0:0:
250,74,41987,6,0,L|369:66,1,120,6|0,3:2|3:0,0:0:0:0:
453,119,42437,1,8,0:0:0:0:
438,211,42587,2,0,P|438:270|481:322,1,120,6|0,3:2|3:0,0:0:0:0:
390,367,43037,2,0,P|354:358|306:358,1,60,8|8,0:0|0:0,0:0:0:0:
247,296,43337,6,0,L|176:304,1,60,10|0,0:0|3:0,0:0:0:0:
120,363,43637,2,0,L|49:355,1,60,8|0,0:0|3:0,0:0:0:0:
11,281,43937,2,0,P|-2:243|3:213,1,60,8|0,0:0|3:0,0:0:0:0:
66,158,44237,2,0,P|79:120|74:90,1,60,8|6,0:0|3:2,0:0:0:0:
27,13,44537,6,0,L|97:19,1,60,8|0,0:0|3:0,0:0:0:0:
174,80,44837,1,8,0:0:0:0:
174,80,44987,2,0,P|248:89|301:71,1,120,6|8,3:2|0:0,0:0:0:0:
373,27,45437,2,0,L|445:41,1,60,8|8,0:0|0:0,0:0:0:0:
492,111,45737,6,0,P|502:147|462:236,1,120,6|8,3:2|0:0,0:0:0:0:
332,243,46337,2,0,P|258:229|189:232,1,120,2|8,3:0|0:0,0:0:0:0:
96,326,46937,6,0,L|170:314,1,60,8|0,0:0|3:0,0:0:0:0:
229,374,47237,2,0,L|298:382,1,60,8|0,0:0|3:0,0:0:0:0:
380,339,47537,1,8,0:0:0:0:
498,249,47837,2,0,P|505:208|501:179,1,60,8|0,0:0|3:0,0:0:0:0:
440,120,48137,2,0,L|374:126,1,60,0|0,3:0|3:0,0:0:0:0:
313,195,48437,5,8,0:0:0:0:
221,116,48737,1,8,0:0:0:0:
119,190,49037,2,0,L|133:266,1,60,0|0,3:0|3:0,0:0:0:0:
103,336,49337,5,8,0:0:0:0:
222,374,49637,1,8,0:0:0:0:
298,266,49937,2,0,L|382:269,1,60,0|0,3:0|3:0,0:0:0:0:
419,196,50237,2,0,L|478:193,1,60,0|0,3:0|3:0,0:0:0:0:
512,111,50537,5,8,0:0:0:0:
450,40,50687,1,2,3:2:0:0:
334,102,50987,2,0,P|286:114|217:81,1,120,6|8,3:2|0:0,0:0:0:0:
125,44,51437,2,0,L|133:114,1,60,8|8,0:0|0:0,0:0:0:0:
103,196,51737,5,14,0:0:0:0:
256,329,52187,6,0,P|305:305|390:306,1,120,6|0,3:2|3:0,0:0:0:0:
464,321,52637,2,0,L|457:252,1,60,8|0,0:0|3:0,0:0:0:0:
387,201,52937,2,0,L|394:132,1,60,0|0,3:0|3:0,0:0:0:0:
461,86,53237,1,8,0:0:0:0:
384,26,53387,6,0,P|340:21|258:46,1,120,2|0,3:2|3:0,0:0:0:0:
183,88,53837,2,0,L|106:81,1,60,8|0,0:0|3:0,0:0:0:0:
29,58,54137,2,0,P|22:28|25:0,2,60,0|0|8,3:0|3:0|0:0,0:0:0:0:
45,150,54587,6,0,L|26:286,1,120,6|0,3:2|3:0,0:0:0:0:
53,355,55037,1,8,0:0:0:0:
146,349,55187,2,0,P|197:326|270:358,1,120,0|0,3:0|3:0,0:0:0:0:
338,384,55637,2,0,L|413:379,1,60,8|2,0:0|3:2,0:0:0:0:
500,237,56087,5,0,3:0:0:0:
500,237,56237,2,0,P|502:188|493:156,1,60,8|0,0:0|3:0,0:0:0:0:
433,108,56537,2,0,L|366:114,1,60,0|0,3:0|3:0,0:0:0:0:
300,173,56837,1,8,0:0:0:0:
300,173,56987,6,0,L|160:157,1,120,6|0,3:2|3:0,0:0:0:0:
121,92,57437,1,8,0:0:0:0:
190,34,57587,2,0,P|241:20|303:48,1,120,0|0,3:0|3:0,0:0:0:0:
394,83,58037,2,0,L|386:149,1,60,8|2,0:0|3:2,0:0:0:0:
283,268,58487,1,0,3:0:0:0:
283,268,58637,6,0,P|240:277|199:272,1,60,8|0,0:0|3:0,0:0:0:0:
151,214,58937,2,0,P|102:205|67:210,1,60,0|0,3:0|3:0,0:0:0:0:
25,271,59237,2,0,L|33:342,1,60,8|8,0:0|3:0,0:0:0:0:
110,372,59537,6,0,B|158:363|158:363|198:371|198:371|245:363,1,120,8|8,0:0|0:0,0:0:0:0:
299,309,59987,2,0,L|358:313,1,60,0|8,3:0|0:0,0:0:0:0:
440,261,60287,2,0,P|456:224|454:202,1,60,6|0,3:2|1:0,0:0:0:0:
391,132,60587,6,0,L|258:139,1,120,6|0,3:2|3:0,0:0:0:0:
197,73,61037,1,8,0:0:0:0:
197,73,61187,2,0,P|156:61|78:81,1,120,6|0,3:2|3:0,0:0:0:0:
8,197,61787,6,0,B|-3:238|-3:238|19:329,1,120,6|0,3:2|3:0,0:0:0:0:
107,359,62237,2,0,L|110:283,1,60,12|0,0:0|3:0,0:0:0:0:
192,276,62537,2,0,L|197:202,1,60,12|0,3:2|3:0,0:0:0:0:
260,158,62837,2,0,P|301:144|332:145,1,60,12|0,0:0|3:2,0:0:0:0:
401,196,63137,6,0,L|392:268,2,60,12|0|12,0:0|3:0|0:0,0:0:0:0:
459,116,63587,2,0,B|456:67|456:67|426:39|383:34,1,120,8|8,0:0|3:0,0:0:0:0:
311,76,64037,1,8,0:0:0:0:
230,32,64187,6,0,B|191:26|191:26|148:35|148:35|92:28,1,120,14|8,0:0|0:0,0:0:0:0:
36,90,64637,2,0,P|42:133|54:155,1,60,8|0,0:0|3:0,0:0:0:0:
98,229,64937,2,0,L|89:293,2,60,8|0|8,0:0|3:0|0:0,0:0:0:0:
224,142,65537,6,0,L|299:131,1,60,8|8,3:0|3:0,0:0:0:0:
396,60,65987,2,0,L|471:71,1,60,8|8,3:0|3:0,0:0:0:0:
512,192,66437,1,8,3:0:0:0:
461,262,66587,6,0,P|417:274|347:226,1,120,6|0,3:2|3:0,0:0:0:0:
268,212,67037,2,0,L|261:152,1,60,8|0,0:0|3:0,0:0:0:0:
341,114,67337,2,0,L|347:54,1,60,0|0,3:0|3:0,0:0:0:0:
271,3,67637,1,8,0:0:0:0:
210,78,67787,6,0,P|166:83|84:58,1,120,2|0,3:2|3:0,0:0:0:0:
7,104,68237,2,0,L|14:181,1,60,8|0,0:0|3:0,0:0:0:0:
88,224,68537,2,0,L|83:285,1,60,0|0,3:0|3:0,0:0:0:0:
33,364,68837,1,8,0:0:0:0:
125,383,68987,6,0,B|182:358|182:358|261:364,1,120,6|0,3:2|3:0,0:0:0:0:
337,378,69437,1,8,0:0:0:0:
413,321,69587,2,0,P|436:270|404:197,1,120,0|0,3:0|3:0,0:0:0:0:
362,135,70037,2,0,L|302:131,1,60,8|2,0:0|3:2,0:0:0:0:
143,71,70487,5,0,3:0:0:0:
143,71,70637,2,0,P|141:22|150:-10,1,60,8|0,0:0|3:0,0:0:0:0:
235,22,70937,2,0,L|294:27,1,60,0|0,3:0|3:0,0:0:0:0:
368,101,71237,1,8,0:0:0:0:
368,101,71387,6,0,L|508:85,1,120,6|0,3:2|3:0,0:0:0:0:
486,181,71837,1,8,0:0:0:0:
426,257,71987,2,0,P|375:271|313:243,1,120,0|0,3:0|3:0,0:0:0:0:
229,198,72437,2,0,L|165:204,1,60,8|2,0:0|3:2,0:0:0:0:
39,127,72887,1,0,3:0:0:0:
39,127,73037,6,0,P|33:85|43:43,1,60,8|0,0:0|3:0,0:0:0:0:
113,14,73337,2,0,P|162:5|197:10,1,60,0|0,3:0|3:0,0:0:0:0:
236,83,73637,1,8,0:0:0:0:
236,83,73787,6,0,P|285:104|352:101,1,120,6|8,3:2|0:0,0:0:0:0:
502,41,74387,2,0,L|436:32,1,60,6|0,3:2|0:0,0:0:0:0:
358,0,74687,2,0,L|296:13,1,60,6|0,3:2|0:0,0:0:0:0:
236,83,74987,6,0,L|103:76,1,120,6|0,3:2|3:0,0:0:0:0:
42,143,75437,1,8,0:0:0:0:
87,233,75587,2,0,P|128:221|206:241,1,120,0|0,3:0|3:0,0:0:0:0:
259,317,76037,1,8,0:0:0:0:
336,258,76187,6,0,B|383:249|383:249|412:261|412:261|464:251,1,120,6|0,3:2|3:0,0:0:0:0:
507,184,76637,2,0,P|514:152|511:115,1,60,8|0,0:0|0:0,0:0:0:0:
467,55,76937,2,0,L|393:69,1,60,0|0,3:0|3:0,0:0:0:0:
352,140,77237,1,8,0:0:0:0:
282,78,77387,6,0,P|242:72|151:74,1,120,2|0,3:2|3:0,0:0:0:0:
83,132,77837,1,8,0:0:0:0:
83,132,77987,2,0,L|100:207,1,60,2|0,3:2|3:0,0:0:0:0:
171,238,78287,2,0,L|154:313,1,60,0|8,3:0|0:0,0:0:0:0:
88,363,78587,6,0,P|124:345|208:345,1,120,6|0,3:2|3:0,0:0:0:0:
282,375,79037,2,0,L|355:365,1,60,8|0,0:0|0:0,0:0:0:0:
426,310,79337,2,0,L|498:322,2,60,0|0|8,3:0|3:0|0:0,0:0:0:0:
349,244,79787,6,0,P|326:201|347:122,1,120,6|0,3:2|3:0,0:0:0:0:
400,66,80237,1,8,0:0:0:0:
477,189,80537,1,0,3:0:0:0:
477,189,80687,2,0,L|394:182,1,60,0|8,3:0|0:0,0:0:0:0:
338,133,80987,6,0,L|208:146,1,120,6|0,3:2|3:0,0:0:0:0:
122,134,81437,2,0,P|99:95|94:70,1,60,8|0,0:0|3:0,0:0:0:0:
32,15,81737,2,0,P|9:54|4:79,1,60,8|0,0:0|3:0,0:0:0:0:
27,157,82037,1,8,0:0:0:0:
90,229,82187,6,0,P|124:219|217:233,1,120,0|8,3:0|3:0,0:0:0:0:
284,264,82637,2,0,L|275:328,1,60,0|8,3:0|0:0,0:0:0:0:
372,313,82937,2,0,L|381:377,1,60,8|8,0:0|0:0,0:0:0:0:
470,359,83237,1,8,0:0:0:0:
512,224,83537,6,0,P|522:174|510:105,1,120,6|8,3:2|0:0,0:0:0:0:
438,57,83987,1,0,3:0:0:0:
384,135,84137,2,0,P|375:194|351:249,1,120,14|14,0:0|0:0,0:0:0:0:
265,276,84587,1,0,3:0:0:0:
192,209,84737,6,0,P|133:194|74:198,1,120.4,14|14,0:0|0:0,0:0:0:0:
0,147,85187,1,0,3:0:0:0:
0,147,85337,2,0,L|8:67,1,60,14|0,0:0|3:0,0:0:0:0:
92,37,85637,2,0,L|100:117,1,60,14|0,0:0|0:0,0:0:0:0:
179,151,85937,6,0,P|221:130|301:132,1,120,6|8,3:2|0:0,0:0:0:0:
369,191,86387,2,0,P|417:193|446:180,1,60,8|8,0:0|0:0,0:0:0:0:
489,123,86687,2,0,L|501:65,1,60.4,10|8,0:0|0:0,0:0:0:0:
426,7,86987,6,0,L|350:14,1,60,14|0,0:0|0:0,0:0:0:0:
319,82,87287,2,0,L|243:75,1,60,2|0,3:2|0:0,0:0:0:0:
173,127,87587,2,0,B|160:173|160:219|160:219|209:202,1,120,2|2,0:0|0:0,0:0:0:0:
396,217,88337,6,0,P|446:226|506:174,1,120,6|8,3:2|0:0,0:0:0:0:
470,98,88787,2,0,P|420:89|360:141,1,120,6|8,3:2|0:0,0:0:0:0:
290,211,89237,6,0,L|158:198,1,120,6|8,3:2|0:0,0:0:0:0:
115,118,89687,2,0,L|180:108,2,60,6|0|8,3:2|0:0|0:0,0:0:0:0:
40,176,90137,2,0,P|36:218|45:239,1,60,8|8,0:0|0:0,0:0:0:0:
72,320,90437,1,8,0:0:0:0:
144,272,90587,1,6,3:2:0:0:
272,349,90887,6,0,P|318:356|384:321,1,120,2|2,0:0|0:0,0:0:0:0:
452,270,91337,1,2,0:0:0:0:
418,177,91487,2,0,L|420:147,2,30,0|0|8,3:0|3:0|0:0,0:0:0:0:
336,207,91787,1,8,0:0:0:0:
255,177,91937,6,0,P|205:167|134:189,1,120,0|8,3:0|0:0,0:0:0:0:
64,243,92387,1,0,3:0:0:0:
31,158,92537,2,0,P|23:106|59:40,1,120,8|8,0:0|0:0,0:0:0:0:
140,12,92987,5,14,0:0:0:0:
