osu file format v14

[General]
AudioFilename: audio.mp3
AudioLeadIn: 0
PreviewTime: 51375
Countdown: 0
SampleSet: Soft
StackLeniency: 0.4
Mode: 0
LetterboxInBreaks: 0
WidescreenStoryboard: 1

[Editor]
DistanceSpacing: 1.5
BeatDivisor: 4
GridSize: 32
TimelineZoom: 2.799999

[Metadata]
Title:Phantom Joke (TV Size)
TitleUnicode:Phantom Joke (TV Size)
Artist:UNISON SQUARE GARDEN
ArtistUnicode:UNISON SQUARE GARDEN
Creator:Nevo
Version:Glaceon's Hyper
Source:Fate/Grand Order: Absolute Demonic Front - Babylonia
Tags:usq anime japanese opening smokelind synderes glaceon armin a_r_m_i_n -絶対魔獣戦線バビロニア- Zettai Majuu Sensen
BeatmapID:2198374
BeatmapSetID:1051745

[Difficulty]
HPDrainRate:4
CircleSize:3.5
OverallDifficulty:6
ApproachRate:8
SliderMultiplier:1.4
SliderTickRate:1

[Events]
//Background and Video events
0,0,"62ba0206b315ec0550624d0e3788a750.png_1024w_waifu2x_art_noise3_scale_tta_1.png",0,0
Video,490,"vvvvv.mp4"
//Break Periods
2,12637,15287
//Storyboard Layer 0 (Background)
//Storyboard Layer 1 (Fail)
//Storyboard Layer 2 (Pass)
//Storyboard Layer 3 (Foreground)
//Storyboard Layer 4 (Overlay)
//Storyboard Sound Samples

[TimingPoints]
437,300,4,2,1,60,1,0
437,-142.857142857143,4,2,1,60,0,0
3887,-111.111111111111,4,2,1,60,0,0
5087,-111.111111111111,4,2,1,75,0,0
9287,-111.111111111111,4,2,1,60,0,0
12437,-111.111111111111,4,2,1,40,0,0
16037,-125,4,2,1,40,0,0
17237,-111.111111111111,4,2,1,60,0,0
22037,-125,4,2,1,70,0,0
31337,300,3,2,1,70,1,0
31337,-142.857142857143,4,2,1,50,0,0
38537,300,4,2,1,50,1,0
38537,-111.111111111111,4,2,1,60,0,0
52187,-99.9999999999999,4,2,1,80,0,1
52337,300,4,2,1,80,1,1
52337,-99.9999999999999,4,2,1,80,0,1
65537,-99.9999999999999,4,2,1,80,0,0
66587,-99.9999999999999,4,2,1,80,0,1
74987,-99.9999999999999,4,2,1,70,0,1
80987,-99.9999999999999,4,2,1,80,0,1
87587,-99.9999999999999,4,2,1,60,0,1
88337,-99.9999999999999,4,2,1,70,0,0

[Colours]
Combo1 : 255,176,255
Combo2 : 255,255,140
Combo3 : 0,91,183

[HitObjects]
67,49,437,6,0,L|70:121,1,48.9999985046387,0|0,3:0|0:0,0:0:0:0:
132,144,737,2,0,L|135:216,1,48.9999985046387,0|0,1:0|3:0,0:0:0:0:
86,255,1037,1,0,1:0:0:0:
86,255,1187,1,2,3:0:0:0:
302,348,1637,6,0,L|305:276,1,48.9999985046387,0|0,3:0|0:0,0:0:0:0:
367,253,1937,2,0,L|370:181,1,48.9999985046387,2|0,3:0|3:0,0:0:0:0:
321,142,2237,1,0,1:0:0:0:
321,142,2387,1,2,3:0:0:0:
67,49,2837,6,0,L|70:121,1,48.9999985046387,0|0,3:0|0:0,0:0:0:0:
132,144,3137,2,0,L|135:216,1,48.9999985046387,2|0,3:0|3:0,0:0:0:0:
86,255,3437,1,0,1:0:0:0:
86,255,3587,1,2,3:0:0:0:
267,343,3887,6,0,P|319:368|389:329,1,125.999996154785,6|0,3:2|3:0,0:0:0:0:
436,268,4337,1,0,3:0:0:0:
373,196,4487,1,0,3:0:0:0:
435,124,4637,2,0,L|433:92,4,31.4999990386963,8|8|8|8|8,0:0|0:0|0:0|0:0|0:0,0:0:0:0:
355,39,5087,6,0,B|318:50|281:37|293:33|256:16|205:42,1,125.999996154785,6|0,3:2|3:0,0:0:0:0:
161,96,5537,2,0,L|163:187,1,62.9999980773926,8|0,0:0|3:0,0:0:0:0:
231,232,5837,1,0,3:0:0:0:
231,232,5987,1,0,3:0:0:0:
179,311,6137,1,8,0:0:0:0:
86,290,6287,6,0,L|86:158,1,125.999996154785,6|0,3:2|3:0,0:0:0:0:
54,74,6737,2,0,P|90:66|130:81,1,62.9999980773926,8|0,0:0|3:0,0:0:0:0:
200,124,7037,1,0,3:0:0:0:
200,124,7187,1,0,3:0:0:0:
272,63,7337,1,8,0:0:0:0:
356,106,7487,6,0,P|382:157|341:227,1,125.999996154785,6|0,3:2|3:0,0:0:0:0:
276,265,7937,2,0,L|276:328,1,62.9999980773926,8|0,0:0|3:0,0:0:0:0:
181,321,8237,2,0,L|181:384,2,62.9999980773926,0|0|8,3:0|3:0|0:0,0:0:0:0:
125,244,8687,5,6,3:2:0:0:
189,174,8837,2,0,L|188:117,5,31.4999990386963,8|8|8|8|8|8,0:0|0:0|0:0|0:0|0:0|0:0,0:0:0:0:
188,94,9287,1,6,3:2:0:0:
26,32,9587,1,6,3:2:0:0:
20,220,9887,6,0,L|18:368,1,125.999996154785,6|0,3:2|3:0,0:0:0:0:
105,383,10337,2,0,L|105:305,1,62.9999980773926,8|0,0:0|1:0,0:0:0:0:
164,246,10637,1,0,3:0:0:0:
258,289,10787,1,0,3:0:0:0:
258,289,10862,1,8,0:0:0:0:
258,289,10937,2,0,P|285:297|325:284,1,62.9999980773926,8|0,0:0|1:0,0:0:0:0:
390,228,11237,5,0,3:0:0:0:
349,154,11387,1,0,3:0:0:0:
349,154,11462,1,8,0:0:0:0:
349,154,11537,2,0,P|322:146|282:159,1,62.9999980773926,8|0,0:0|1:0,0:0:0:0:
219,218,11837,5,6,3:2:0:0:
146,157,11987,1,6,3:2:0:0:
7,360,12437,5,0,1:0:0:0:
434,345,16037,6,0,L|432:271,1,56,4|0,1:2|0:0,0:0:0:0:
352,261,16337,2,0,L|353:316,1,56,4|0,1:2|0:0,0:0:0:0:
275,350,16637,2,0,P|217:369|166:340,1,112,4|0,1:2|3:0,0:0:0:0:
46,207,17237,6,0,L|47:123,1,62.9999980773926,6|0,3:2|0:0,0:0:0:0:
109,73,17537,1,8,0:0:0:0:
109,73,17687,2,0,P|144:65|180:78,1,62.9999980773926,8|8,3:0|0:0,0:0:0:0:
243,130,17987,2,0,L|241:173,4,31.4999990386963,8|8|8|8|8,0:0|0:0|3:0|3:0|3:0,0:0:0:0:
326,86,18437,6,0,P|356:92|386:84,1,62.9999980773926,6|0,1:2|1:0,0:0:0:0:
473,47,18737,1,8,0:0:0:0:
473,47,18887,2,0,L|474:119,1,62.9999980773926,8|8,3:0|3:0,0:0:0:0:
406,176,19187,2,0,P|414:206|407:236,1,62.9999980773926,0|0,3:0|1:0,0:0:0:0:
332,295,19487,1,0,0:0:0:0:
247,252,19637,5,8,3:0:0:0:
247,252,19787,1,8,3:0:0:0:
97,151,20087,5,8,3:0:0:0:
97,151,20237,1,8,3:0:0:0:
267,68,20537,5,8,3:0:0:0:
267,68,20687,1,8,3:0:0:0:
288,160,20837,1,0,1:0:0:0:
196,137,20987,1,2,3:2:0:0:
53,346,21887,1,8,0:0:0:0:
53,346,21962,1,8,0:0:0:0:
53,346,22037,6,0,L|134:345,1,56,6|0,3:2|0:0,0:0:0:0:
191,381,22337,1,8,0:0:0:0:
191,381,22487,1,0,0:0:0:0:
248,319,22637,2,0,P|267:267|240:211,1,112,0|8,3:0|0:0,0:0:0:0:
186,158,23087,1,0,0:0:0:0:
228,85,23237,5,2,3:2:0:0:
228,85,23387,2,0,L|302:85,1,56,0|8,0:0|0:0,0:0:0:0:
367,86,23687,2,0,P|361:116|369:144,1,56,0|0,0:0|3:0,0:0:0:0:
438,185,23987,1,0,0:0:0:0:
416,266,24137,1,8,0:0:0:0:
332,268,24287,6,0,P|280:249|224:276,1,112
168,326,24737,1,8,0:0:0:0:
168,326,24887,1,0,0:0:0:0:
92,289,25037,2,0,L|91:188,1,84,0|0,3:0|0:0,0:0:0:0:
93,163,25337,1,8,0:0:0:0:
158,110,25487,6,0,B|189:137|189:137|272:133,1,112,2|0,0:0|0:0,0:0:0:0:
278,51,25937,1,8,0:0:0:0:
278,51,26087,2,0,L|207:55,1,56,2|8,0:0|0:0,0:0:0:0:
142,27,26387,2,0,L|143:-2,2,28,8|8|8,0:0|0:0|0:0,0:0:0:0:
75,78,26687,6,0,L|79:208,1,112,6|0,3:2|3:2,0:0:0:0:
28,257,27137,1,8,0:0:0:0:
85,318,27287,2,0,P|137:337|193:310,1,112,6|0,3:2|3:0,0:0:0:0:
240,250,27737,1,8,0:0:0:0:
200,175,27887,6,0,P|179:124|198:72,1,112,6|0,3:2|3:0,0:0:0:0:
269,27,28337,1,8,0:0:0:0:
339,73,28487,2,0,L|335:191,1,112,2|0,3:2|3:0,0:0:0:0:
380,263,28937,1,8,0:0:0:0:
469,248,29087,1,8,0:0:0:0:
469,248,29162,1,8,0:0:0:0:
469,248,29237,6,0,L|470:181,2,56,6|0|8,3:2|3:0|0:0,0:0:0:0:
380,263,29687,2,0,B|344:285|344:285|258:269,1,112,2|0,3:2|3:0,0:0:0:0:
198,306,30137,1,8,0:0:0:0:
134,250,30287,2,0,P|113:214|153:138,1,112,2|0,3:2|3:0,0:0:0:0:
190,89,30737,1,8,3:0:0:0:
190,89,30887,1,0,3:0:0:0:
145,17,31037,2,0,L|84:17,1,56,12|12,0:0|0:0,0:0:0:0:
36,75,31337,6,0,L|37:142,1,48.9999985046387,2|0,3:0|0:0,0:0:0:0:
8,197,31637,2,0,L|9:264,1,48.9999985046387,0|8,3:0|0:0,0:0:0:0:
73,288,31937,2,0,P|96:283|120:288,1,48.9999985046387,2|2,0:0|0:0,0:0:0:0:
198,300,32237,6,0,L|196:183,1,97.9999970092774,14|2,0:0|0:0,0:0:0:0:
246,141,32687,2,0,P|273:146|306:134,1,48.9999985046387,8|2,0:0|0:0,0:0:0:0:
361,101,32987,1,8,0:0:0:0:
425,146,33137,6,0,L|426:215,1,48.9999985046387,2|0,3:2|3:0,0:0:0:0:
389,264,33437,2,0,L|390:333,1,48.9999985046387,8|0,0:0|0:0,0:0:0:0:
329,364,33737,2,0,P|302:359|269:371,1,48.9999985046387,8|8,0:0|0:0,0:0:0:0:
203,371,34037,6,0,L|205:283,1,73.4999977569581,2|0,3:2|0:0,0:0:0:0:
207,257,34337,2,0,P|183:261|159:256,1,48.9999985046387,0|0,3:0|3:0,0:0:0:0:
114,191,34637,2,0,L|117:126,1,48.9999985046387,0|8,1:0|3:0,0:0:0:0:
127,63,34937,6,0,P|150:58|174:63,1,48.9999985046387,2|0,3:2|3:0,0:0:0:0:
229,118,35237,2,0,P|256:123|289:111,1,48.9999985046387,8|0,0:0|0:0,0:0:0:0:
354,111,35537,2,0,L|353:177,1,48.9999985046387,8|0,0:0|0:0,0:0:0:0:
415,207,35837,6,0,L|413:274,1,48.9999985046387,2|8,3:2|3:0,0:0:0:0:
375,325,36137,2,0,P|348:320|315:332,1,48.9999985046387,2|8,3:2|0:0,0:0:0:0:
255,356,36437,2,0,P|231:360|207:355,1,48.9999985046387,2|8,0:0|3:0,0:0:0:0:
136,320,36737,6,0,L|137:265,1,48.9999985046387,2|0,3:2|3:0,0:0:0:0:
201,226,37037,2,0,L|202:176,1,48.9999985046387,8|0,0:0|3:0,0:0:0:0:
175,108,37337,1,2,3:2:0:0:
175,108,37487,1,0,3:0:0:0:
97,117,37637,5,2,3:2:0:0:
19,249,37937,1,2,0:0:0:0:
138,350,38237,6,0,L|179:350,3,24.4999992523194,8|8|8|8,0:0|0:0|0:0|0:0,0:0:0:0:
200,322,38537,6,0,L|284:323,1,62.9999980773926,6|0,3:2|0:0,0:0:0:0:
314,243,38837,2,0,L|251:242,1,62.9999980773926,8|0,0:0|0:0,0:0:0:0:
192,168,39137,1,0,0:0:0:0:
236,84,39287,2,0,L|236:40,2,31.4999990386963,8|8|8,0:0|0:0|0:0,0:0:0:0:
328,101,39587,6,0,P|382:76|455:122,1,125.999996154785,6|8,3:2|3:0,0:0:0:0:
490,179,40037,2,0,L|489:268,1,62.9999980773926,2|0,3:2|0:0,0:0:0:0:
432,317,40337,2,0,P|402:325|372:318,1,62.9999980773926,8|0,3:0|3:0,0:0:0:0:
290,268,40637,1,0,3:0:0:0:
214,324,40787,6,0,L|81:322,1,125.999996154785,6|0,3:2|3:0,0:0:0:0:
34,244,41237,2,0,L|-6:244,2,31.4999990386963,0|0|0,3:0|3:0|3:0,0:0:0:0:
91,168,41537,2,0,L|164:167,1,62.9999980773926,0|0,3:0|3:0,0:0:0:0:
229,223,41837,1,0,3:0:0:0:
302,163,41987,6,0,P|358:186|414:161,1,125.999996154785,6|0,3:2|3:0,0:0:0:0:
447,71,42437,1,8,0:0:0:0:
370,16,42587,2,0,L|239:16,1,125.999996154785,6|0,3:2|3:0,0:0:0:0:
154,45,43037,1,8,0:0:0:0:
154,45,43187,1,8,0:0:0:0:
158,139,43337,6,0,L|159:223,1,62.9999980773926,10|0,0:0|3:0,0:0:0:0:
244,242,43637,1,8,0:0:0:0:
244,242,43787,2,0,L|243:179,1,62.9999980773926,0|8,3:0|0:0,0:0:0:0:
328,152,44087,2,0,L|328:214,1,62.9999980773926,0|8,3:0|0:0,0:0:0:0:
411,279,44387,1,6,3:2:0:0:
411,279,44462,1,0,3:0:0:0:
411,279,44537,6,0,L|411:341,1,62.9999980773926,8|0,0:0|3:0,0:0:0:0:
320,369,44837,1,8,0:0:0:0:
320,369,44987,2,0,B|273:352|273:352|190:365,1,125.999996154785,6|8,3:2|0:0,0:0:0:0:
120,309,45437,1,8,0:0:0:0:
161,223,45587,1,8,0:0:0:0:
254,239,45737,6,0,L|328:239,1,62.9999980773926,6|8,3:2|0:0,0:0:0:0:
364,237,45962,1,8,0:0:0:0:
364,237,46037,2,0,P|372:206|364:176,1,62.9999980773926,8|8,0:0|3:0,0:0:0:0:
281,130,46337,2,0,L|132:129,1,125.999996154785,2|8,3:0|0:0,0:0:0:0:
85,65,46787,1,0,3:0:0:0:
154,0,46937,6,0,L|204:0,3,31.4999990386963,8|0|0|0,0:0|3:0|3:0|3:0,0:0:0:0:
222,30,47237,2,0,L|272:30,3,31.4999990386963,8|0|0|0,0:0|3:0|3:0|3:0,0:0:0:0:
294,7,47537,2,0,L|375:7,1,62.9999980773926,8|0,0:0|3:0,0:0:0:0:
438,54,47837,1,8,0:0:0:0:
438,54,47987,1,0,3:0:0:0:
417,146,48137,5,0,3:0:0:0:
417,146,48287,1,0,3:0:0:0:
322,146,48437,2,0,L|259:146,1,62.9999980773926,8|0,0:0|0:0,0:0:0:0:
229,235,48737,2,0,L|292:235,1,62.9999980773926,8|0,0:0|0:0,0:0:0:0:
364,303,49037,1,0,3:0:0:0:
364,303,49187,1,0,3:0:0:0:
297,370,49337,6,0,L|234:370,1,62.9999980773926,8|0,0:0|0:0,0:0:0:0:
165,305,49637,2,0,L|102:305,1,62.9999980773926,8|0,0:0|0:0,0:0:0:0:
32,245,49937,2,0,P|39:214|31:184,1,62.9999980773926,0|0,3:0|3:0,0:0:0:0:
106,126,50237,2,0,P|98:95|105:65,1,62.9999980773926,0|0,3:0|3:0,0:0:0:0:
184,12,50537,5,8,0:0:0:0:
260,67,50687,2,0,L|344:66,1,62.9999980773926,2|0,3:2|0:0,0:0:0:0:
369,148,50987,2,0,L|223:150,1,125.999996154785,6|8,3:2|0:0,0:0:0:0:
168,208,51437,1,8,0:0:0:0:
168,208,51587,1,8,0:0:0:0:
203,295,51737,5,14,0:0:0:0:
478,71,52187,6,0,B|442:86|403:68|417:66|369:48|320:75,1,140,6|0,3:2|3:0,0:0:0:0:
260,134,52637,2,0,L|263:216,1,70,8|0,0:0|3:0,0:0:0:0:
203,295,52937,2,0,P|162:303|134:294,1,70,0|0,3:0|3:0,0:0:0:0:
83,210,53237,1,8,0:0:0:0:
83,210,53387,6,0,L|80:63,1,140,2|0,3:2|3:0,0:0:0:0:
168,13,53837,1,8,0:0:0:0:
254,86,53987,1,0,3:0:0:0:
254,86,54062,1,0,3:0:0:0:
254,86,54137,2,0,L|254:175,2,70,0|0|8,3:0|3:0|0:0,0:0:0:0:
344,32,54587,6,0,L|345:174,1,140,6|0,3:2|3:0,0:0:0:0:
345,279,55037,1,8,0:0:0:0:
345,279,55187,2,0,P|288:253|209:295,1,140,0|0,3:0|3:0,0:0:0:0:
150,358,55637,6,0,B|121:316|121:316|136:201,1,140,8|0,0:0|0:0,0:0:0:0:
201,148,56087,1,0,3:0:0:0:
145,58,56237,1,8,0:0:0:0:
48,92,56387,1,0,3:0:0:0:
48,92,56462,1,0,3:0:0:0:
48,92,56537,2,0,L|47:176,2,70,0|0|8,3:0|3:0|0:0,0:0:0:0:
145,58,56987,6,0,B|193:36|193:36|290:59,1,140,6|0,3:2|3:0,0:0:0:0:
373,101,57437,1,8,0:0:0:0:
373,101,57587,2,0,L|367:242,1,140,0|0,3:0|3:0,0:0:0:0:
353,348,58037,1,8,0:0:0:0:
353,348,58187,6,0,P|291:318|224:358,1,140,2|0,3:2|3:0,0:0:0:0:
127,365,58637,2,0,L|128:277,1,70,8|0,0:0|3:0,0:0:0:0:
210,229,58937,2,0,L|211:141,1,70,0|0,3:0|3:0,0:0:0:0:
186,56,59237,2,0,L|236:55,3,35,8|8|8|8,0:0|0:0|3:0|3:0,0:0:0:0:
268,33,59537,6,0,P|306:25|350:44,1,70,8|0,0:0|3:0,0:0:0:0:
426,97,59837,1,8,0:0:0:0:
426,97,59987,2,0,L|423:194,1,70,0|8,3:0|0:0,0:0:0:0:
333,219,60287,2,0,L|330:288,1,70,6|0,3:2|1:0,0:0:0:0:
329,345,60512,1,0,0:0:0:0:
329,345,60587,6,0,P|266:371|198:334,1,140,6|0,3:2|3:0,0:0:0:0:
140,259,61037,1,8,0:0:0:0:
205,177,61187,2,0,P|268:151|336:188,1,140,6|0,3:2|3:0,0:0:0:0:
400,258,61637,1,8,0:0:0:0:
496,217,61787,6,0,L|493:56,1,140,6|0,3:2|3:0,0:0:0:0:
492,29,62162,1,0,3:0:0:0:
492,29,62237,2,0,P|454:37|410:18,1,70,12|0,0:0|3:0,0:0:0:0:
321,9,62537,2,0,L|324:88,1,70,12|0,3:2|3:0,0:0:0:0:
387,162,62837,1,12,0:0:0:0:
387,162,62987,1,0,3:2:0:0:
314,237,63137,5,12,0:0:0:0:
314,237,63287,2,0,P|280:228|246:236,1,70,0|12,3:0|0:0,0:0:0:0:
161,298,63587,1,8,0:0:0:0:
78,233,63737,2,0,L|28:234,4,35,12|8|0|0|8,0:0|0:0|3:0|3:0|0:0,0:0:0:0:
122,137,64187,6,0,P|179:166|255:120,1,140,14|8,0:0|0:0,0:0:0:0:
336,87,64637,2,0,L|338:148,3,35,8|0|0|0,0:0|3:0|3:0|3:0,0:0:0:0:
376,157,64937,2,0,L|378:218,3,35,8|0|0|0,0:0|3:0|3:0|3:0,0:0:0:0:
345,234,65237,2,0,L|347:295,3,35,8|0|0|0,0:0|3:0|3:0|3:0,0:0:0:0:
373,314,65537,5,8,3:0:0:0:
467,267,65687,1,8,3:0:0:0:
478,57,65987,5,8,3:0:0:0:
384,10,66137,1,8,3:0:0:0:
391,114,66287,2,0,L|391:168,2,35,0|0|8,3:0|3:0|3:0,0:0:0:0:
295,69,66587,6,0,B|259:84|220:66|234:64|186:46|137:73,1,140,6|0,3:2|3:0,0:0:0:0:
71,123,67037,1,8,0:0:0:0:
71,123,67187,1,0,3:0:0:0:
112,219,67337,2,0,L|113:316,1,70,0|0,3:0|3:0,0:0:0:0:
193,356,67637,1,8,0:0:0:0:
193,356,67787,6,0,P|261:327|333:376,1,140,2|0,3:2|3:0,0:0:0:0:
421,370,68237,2,0,L|419:286,1,70,8|0,0:0|3:0,0:0:0:0:
394,260,68462,1,0,3:0:0:0:
394,260,68537,2,0,L|392:176,1,70,0|0,3:0|3:0,0:0:0:0:
459,109,68837,1,8,0:0:0:0:
383,35,68987,6,0,B|344:60|344:60|234:46,1,140,6|0,3:2|3:0,0:0:0:0:
152,29,69437,1,8,0:0:0:0:
152,29,69587,2,0,L|155:190,1,140,0|0,3:0|3:0,0:0:0:0:
227,252,70037,1,8,0:0:0:0:
227,252,70187,6,0,P|289:277|351:248,1,140,2|0,3:2|3:0,0:0:0:0:
434,182,70637,1,8,0:0:0:0:
378,104,70787,1,0,3:0:0:0:
378,104,70862,1,0,3:0:0:0:
378,104,70937,2,0,L|377:19,2,70,0|0|8,3:0|3:0|0:0,0:0:0:0:
434,182,71387,6,0,L|435:321,1,140,6|0,3:2|3:0,0:0:0:0:
345,377,71837,1,8,0:0:0:0:
345,377,71987,2,0,B|257:356|257:356|197:375,1,140,0|0,3:0|3:0,0:0:0:0:
129,312,72437,1,8,0:0:0:0:
129,312,72587,6,0,P|99:250|125:187,1,140,2|0,3:2|3:0,0:0:0:0:
212,129,73037,1,8,0:0:0:0:
287,201,73187,1,0,3:0:0:0:
381,156,73337,2,0,L|463:157,2,70,0|0|8,3:0|3:0|0:0,0:0:0:0:
287,201,73787,6,0,B|304:249|304:249|280:351,1,140,6|8,3:2|0:0,0:0:0:0:
187,378,74237,1,8,0:0:0:0:
114,301,74387,5,6,3:2:0:0:
4,121,74687,1,6,3:2:0:0:
196,38,74987,6,0,B|241:16|241:16|360:32,1,140,6|0,3:2|3:0,0:0:0:0:
399,113,75437,1,8,0:0:0:0:
399,113,75587,2,0,B|354:135|354:135|235:119,1,140,0|0,3:0|3:0,0:0:0:0:
161,142,76037,1,8,0:0:0:0:
152,246,76187,6,0,P|123:305|168:380,1,140,6|0,3:2|3:0,0:0:0:0:
255,376,76637,2,0,L|345:374,1,70,8|0,0:0|0:0,0:0:0:0:
377,283,76937,1,0,3:0:0:0:
377,283,77087,2,0,L|307:284,1,70,0|8,3:0|0:0,0:0:0:0:
252,194,77387,6,0,L|321:192,1,70,2|0,3:2|0:0,0:0:0:0:
409,133,77687,2,0,P|416:92|398:52,1,70,0|8,3:0|0:0,0:0:0:0:
316,12,77987,2,0,L|246:13,1,70,2|0,3:2|3:0,0:0:0:0:
187,100,78287,2,0,L|117:101,1,70,0|8,3:0|0:0,0:0:0:0:
33,37,78587,6,0,B|24:127|24:127|60:174,1,140,6|0,3:2|3:0,0:0:0:0:
134,234,79037,1,8,0:0:0:0:
134,234,79187,1,0,0:0:0:0:
228,188,79337,2,0,L|313:186,2,70,0|0|8,3:0|3:0|0:0,0:0:0:0:
189,89,79787,6,0,L|341:86,1,140,6|0,3:2|3:0,0:0:0:0:
429,52,80237,1,8,0:0:0:0:
429,52,80387,2,0,P|438:93|423:130,1,70,0|0,0:0|3:0,0:0:0:0:
365,202,80687,1,0,3:0:0:0:
427,286,80837,1,8,0:0:0:0:
345,351,80987,6,0,B|309:366|270:348|284:346|236:328|187:355,1,140,6|0,3:2|3:0,0:0:0:0:
108,384,81437,1,8,0:0:0:0:
108,384,81587,1,0,3:0:0:0:
43,300,81737,2,0,L|42:206,1,70,8|0,0:0|3:0,0:0:0:0:
1,132,82037,1,8,0:0:0:0:
83,66,82187,6,0,P|141:37|215:77,1,140,0|8,3:0|3:0,0:0:0:0:
277,141,82637,1,0,3:0:0:0:
369,90,82787,1,8,0:0:0:0:
449,157,82937,2,0,L|447:223,3,35,8|8|8|8,0:0|0:0|0:0|0:0,0:0:0:0:
417,234,83237,2,0,L|415:300,3,35,8|8|8|8,0:0|0:0|0:0|0:0,0:0:0:0:
435,317,83537,6,0,P|377:346|303:306,1,140,6|8,3:2|0:0,0:0:0:0:
236,244,83987,1,0,3:0:0:0:
236,244,84062,1,0,3:0:0:0:
236,244,84137,2,0,L|158:244,1,70,14|0,0:0|3:0,0:0:0:0:
91,178,84437,1,14,0:0:0:0:
91,178,84587,6,0,P|62:120|102:46,1,140,0|0,3:0|3:0,0:0:0:0:
186,13,85037,1,14,0:0:0:0:
261,95,85187,1,0,3:0:0:0:
261,95,85262,1,0,3:0:0:0:
261,95,85337,2,0,L|331:95,2,70,14|0|14,0:0|3:0|0:0,0:0:0:0:
208,186,85787,1,0,0:0:0:0:
287,255,85937,6,0,L|357:255,1,70,6|8,3:2|0:0,0:0:0:0:
458,282,86237,2,0,P|467:315|459:349,1,70,8|8,0:0|0:0,0:0:0:0:
358,377,86537,2,0,L|288:377,1,70,8|10,0:0|0:0,0:0:0:0:
205,320,86837,1,8,0:0:0:0:
205,320,86987,5,14,0:0:0:0:
4,383,87287,1,2,3:2:0:0:
91,64,88337,6,0,L|254:61,1,140,6|8,3:2|0:0,0:0:0:0:
285,151,88787,2,0,L|145:153,1,140,6|8,3:2|0:0,0:0:0:0:
96,246,89237,2,0,L|235:243,1,140,6|8,3:2|0:0,0:0:0:0:
313,314,89687,5,6,3:2:0:0:
313,314,89837,2,0,L|389:313,1,70,0|8,0:0|0:0,0:0:0:0:
433,220,90137,2,0,L|363:220,1,70,8|8,0:0|0:0,0:0:0:0:
285,151,90437,1,8,0:0:0:0:
346,65,90587,1,6,3:2:0:0:
36,27,91487,5,0,3:0:0:0:
36,27,91562,1,0,3:0:0:0:
36,27,91637,2,0,L|40:113,1,70,8|8,0:0|0:0,0:0:0:0:
124,158,91937,6,0,L|127:211,3,35,0|0|8|8,3:0|3:0|0:0|0:0,0:0:0:0:
86,228,92237,2,0,L|89:281,3,35,8|8|0|0,0:0|0:0|3:0|3:0,0:0:0:0:
126,299,92537,2,0,L|129:352,3,35,8|8|8|0,0:0|0:0|0:0|3:0,0:0:0:0:
96,376,92837,1,8,0:0:0:0:
1,330,92987,1,14,0:0:0:0:
