osu file format v14

[General]
AudioFilename: audio.mp3
AudioLeadIn: 0
PreviewTime: 51375
Countdown: 0
SampleSet: Soft
StackLeniency: 0.4
Mode: 0
LetterboxInBreaks: 0
WidescreenStoryboard: 0

[Editor]
Bookmarks: 52168,66568,68968,213268,215668
DistanceSpacing: 2.5
BeatDivisor: 4
GridSize: 16
TimelineZoom: 1.7

[Metadata]
Title:Phantom Joke (TV Size)
TitleUnicode:Phantom Joke (TV Size)
Artist:UNISON SQUARE GARDEN
ArtistUnicode:UNISON SQUARE GARDEN
Creator:Nevo
Version:Expert
Source:Fate/Grand Order: Absolute Demonic Front - Babylonia
Tags:usq anime japanese opening smokelind synderes glaceon armin a_r_m_i_n -絶対魔獣戦線バビロニア- Zettai Majuu Sensen
BeatmapID:2200064
BeatmapSetID:1051745

[Difficulty]
HPDrainRate:6
CircleSize:3.8
OverallDifficulty:9
ApproachRate:9.3
SliderMultiplier:1.7
SliderTickRate:1

[Events]
//Background and Video events
0,0,"62ba0206b315ec0550624d0e3788a750.png_1024w_waifu2x_art_noise3_scale_tta_1.png",0,0
Video,490,"vvvvv.mp4"
//Break Periods
//Storyboard Layer 0 (Background)
//Storyboard Layer 1 (Fail)
//Storyboard Layer 2 (Pass)
//Storyboard Layer 3 (Foreground)
//Storyboard Layer 4 (Overlay)
//Storyboard Sound Samples

[TimingPoints]
437,300,4,2,1,60,1,0
437,-100,4,2,1,60,0,0
5087,-83.3333333333333,4,2,1,75,0,0
9287,-83.3333333333333,4,2,1,60,0,0
9887,-100,4,2,1,60,0,0
12437,-133.333333333333,4,2,1,40,0,0
17237,-100,4,2,1,60,0,0
22037,-90.9090909090909,4,2,1,70,0,0
31337,300,3,2,1,70,1,0
31337,-133.333333333333,3,2,1,50,0,0
38537,300,4,2,1,50,1,0
38537,-100,4,2,1,60,0,0
48437,-71.4285714285714,4,2,1,60,0,0
49037,-100,4,2,1,60,0,0
49337,-71.4285714285714,4,2,1,60,0,0
49937,-100,4,2,1,60,0,0
52187,-71.4285714285714,4,2,1,80,0,1
52337,300,4,2,1,80,1,1
52337,-71.4285714285714,4,2,1,80,0,1
66287,-100,4,2,1,80,0,1
66587,-71.4285714285714,4,2,1,80,0,1
74987,-90.9090909090909,4,2,1,70,0,0
80987,-90.9090909090909,4,2,1,80,0,1
87587,-111.111111111111,4,2,1,60,0,0
87812,-111.111111111111,4,2,1,5,0,0
87887,-166.666666666667,4,2,1,60,0,0
88187,-166.666666666667,4,2,1,5,0,0
88337,-100,4,2,1,70,0,0
90887,-125,4,2,1,70,0,0

[Colours]
Combo1 : 255,176,255
Combo2 : 255,255,140
Combo3 : 0,91,183

[HitObjects]
173,249,437,6,0,P|229:244|261:222,1,85,0|0,3:0|0:0,0:0:0:0:
346,352,737,2,0,P|290:347|258:325,1,85,0|0,1:0|3:0,0:0:0:0:
195,165,1037,1,0,1:0:0:0:
325,267,1187,1,2,3:0:0:0:
325,267,1637,6,0,L|330:164,1,85,0|0,3:0|0:0,0:0:0:0:
442,320,1937,2,0,L|437:235,1,85,2|0,3:0|3:0,0:0:0:0:
430,91,2237,1,0,1:0:0:0:
238,213,2387,1,2,3:0:0:0:
238,213,2837,6,0,P|179:223|142:207,1,85,0|0,3:0|0:0,0:0:0:0:
17,145,3137,2,0,P|76:135|113:151,1,85,2|0,3:0|3:0,0:0:0:0:
175,313,3437,1,0,1:0:0:0:
198,137,3587,1,2,3:0:0:0:
198,137,3887,6,0,B|268:122|268:122|303:140|303:140|378:124,1,170,6|0,3:2|3:0,0:0:0:0:
484,63,4337,1,0,3:0:0:0:
312,49,4487,1,0,3:0:0:0:
446,184,4637,1,8,0:0:0:0:
457,211,4712,1,8,0:0:0:0:
461,240,4787,1,8,0:0:0:0:
457,269,4862,1,8,0:0:0:0:
444,296,4937,1,8,0:0:0:0:
426,315,5012,1,8,0:0:0:0:
402,331,5087,6,0,B|339:316|339:316|286:334|286:334|199:316,1,203.999993774414,6|0,3:2|3:0,0:0:0:0:
244,139,5537,2,0,P|281:195|283:241,1,101.999996887207,8|0,0:0|3:0,0:0:0:0:
102,346,5837,1,0,3:0:0:0:
377,237,5987,1,0,3:0:0:0:
164,215,6137,1,8,0:0:0:0:
402,331,6287,6,0,B|440:283|440:283|412:117,1,203.999993774414,6|0,3:2|3:0,0:0:0:0:
240,71,6737,2,0,P|308:92|344:79,1,101.999996887207,8|0,0:0|3:0,0:0:0:0:
469,12,7037,1,0,3:0:0:0:
298,131,7187,1,0,3:0:0:0:
512,198,7337,1,8,0:0:0:0:
309,292,7487,6,0,P|233:287|157:190,1,203.999993774414,6|0,3:2|3:0,0:0:0:0:
413,91,7937,2,0,L|402:201,1,101.999996887207,8|0,0:0|3:0,0:0:0:0:
335,4,8237,1,0,3:0:0:0:
489,152,8387,1,0,3:0:0:0:
273,185,8537,1,8,0:0:0:0:
437,336,8687,2,0,L|430:278,1,50.9999984436036,6|0,3:2|0:0,0:0:0:0:
333,93,8837,5,8,0:0:0:0:
285,74,8912,1,8,0:0:0:0:
235,77,8987,1,8,0:0:0:0:
190,100,9062,1,8,0:0:0:0:
146,121,9137,1,8,0:0:0:0:
95,119,9212,1,8,0:0:0:0:
50,96,9287,5,6,3:2:0:0:
410,190,9587,1,6,3:2:0:0:
85,320,9887,6,0,P|138:302|259:328,1,170,6|0,3:2|3:0,0:0:0:0:
343,371,10337,2,0,L|332:272,1,85,8|0,0:0|1:0,0:0:0:0:
333,286,10562,1,0,1:0:0:0:
333,286,10637,1,0,3:0:0:0:
509,159,10787,1,0,3:0:0:0:
509,159,10862,1,8,0:0:0:0:
509,159,10937,2,0,L|498:258,1,85,8|0,0:0|1:0,0:0:0:0:
305,203,11237,5,0,3:0:0:0:
391,108,11387,1,0,3:0:0:0:
391,108,11462,1,8,0:0:0:0:
391,108,11537,2,0,L|402:207,1,85,8|0,0:0|1:0,0:0:0:0:
421,361,11837,5,6,3:2:0:0:
164,248,11987,1,6,3:2:0:0:
164,248,12437,6,0,P|224:259|283:219,1,127.500004863739,0|0,1:0|1:0,0:0:0:0:
421,361,13037,2,0,P|368:328|306:338,1,127.500004863739,0|0,1:0|1:0,0:0:0:0:
421,249,13637,6,0,P|422:194|414:106,1,127.500004863739,4|0,1:2|1:0,0:0:0:0:
209,169,14237,2,0,P|208:114|216:26,1,127.500004863739,0|0,1:0|1:0,0:0:0:0:
326,255,14837,6,0,P|286:239|246:240,1,63.7500024318696,4|0,1:2|0:0,0:0:0:0:
112,343,15137,2,0,P|143:338|172:325,1,63.7500024318696,0|0,1:0|0:0,0:0:0:0:
118,128,15437,2,0,B|101:169|101:169|119:259,1,127.500004863739,0|0,1:0|1:0,0:0:0:0:
273,329,15887,1,0,0:0:0:0:
326,255,16037,6,0,L|432:240,1,95.6250036478044,4|0,1:2|0:0,0:0:0:0:
489,204,16337,2,0,L|394:217,1,95.6250036478044,4|0,1:2|0:0,0:0:0:0:
327,168,16637,1,4,1:2:0:0:
456,310,16787,1,0,3:0:0:0:
507,121,16937,1,0,3:0:0:0:
507,121,17087,1,0,3:0:0:0:
340,274,17237,6,0,P|285:275|236:251,1,85,6|0,3:2|0:0,0:0:0:0:
79,60,17537,1,8,0:0:0:0:
118,45,17612,1,8,0:0:0:0:
160,47,17687,1,8,3:0:0:0:
198,65,17762,1,8,3:0:0:0:
225,98,17837,2,0,L|214:196,1,85,8|0,0:0|0:0,0:0:0:0:
97,304,18137,2,0,L|109:358,3,42.5,8|8|8|8,3:0|3:0|3:0|3:0,0:0:0:0:
26,241,18437,5,6,1:2:0:0:
181,255,18587,1,0,1:0:0:0:
108,182,18737,1,8,0:0:0:0:
108,182,18812,1,8,0:0:0:0:
108,182,18887,1,8,3:0:0:0:
260,155,19037,2,0,L|271:264,1,85,8|0,3:0|3:0,0:0:0:0:
291,41,19337,1,0,1:0:0:0:
181,255,19487,1,0,0:0:0:0:
49,17,19637,5,8,3:0:0:0:
260,155,19787,1,8,3:0:0:0:
38,36,20087,5,8,3:0:0:0:
291,41,20237,1,8,3:0:0:0:
26,60,20537,5,8,3:0:0:0:
181,255,20687,1,8,3:0:0:0:
40,208,20837,1,0,1:0:0:0:
238,170,20987,1,2,3:2:0:0:
238,170,21137,2,0,L|344:152,1,85
399,205,21437,1,0,1:0:0:0:
437,82,21587,1,0,1:0:0:0:
437,82,21662,1,0,1:0:0:0:
437,82,21737,1,0,1:0:0:0:
312,256,21887,1,8,0:0:0:0:
312,256,21962,1,8,0:0:0:0:
312,256,22037,6,0,L|325:370,1,93.5000028533936,6|0,3:2|0:0,0:0:0:0:
498,311,22337,2,0,P|432:286|390:296,1,93.5000028533936,8|0,0:0|0:0,0:0:0:0:
213,224,22637,2,0,L|404:204,1,187.000005706787,0|8,3:0|0:0,0:0:0:0:
466,142,23087,1,0,0:0:0:0:
284,45,23237,5,2,3:2:0:0:
305,180,23387,1,0,0:0:0:0:
395,55,23537,1,8,0:0:0:0:
221,128,23687,2,0,P|150:136|121:124,1,93.5000028533936,0|0,0:0|3:0,0:0:0:0:
38,58,23987,1,0,0:0:0:0:
86,207,24137,1,8,0:0:0:0:
175,52,24287,6,0,B|212:23|212:23|364:41,1,187.000005706787
466,123,24737,2,0,L|356:130,1,93.5000028533936,8|0,0:0|0:0,0:0:0:0:
411,299,25037,2,0,P|427:225|408:181,1,93.5000028533936,0|0,3:0|0:0,0:0:0:0:
286,120,25337,1,8,0:0:0:0:
176,321,25487,6,0,L|49:311,1,93.5000028533936,2|2,0:0|3:2,0:0:0:0:
236,222,25787,1,0,0:0:0:0:
274,384,25937,1,8,0:0:0:0:
359,211,26087,2,0,L|486:201,1,93.5000028533936,2|8,0:0|0:0,0:0:0:0:
304,306,26387,1,8,0:0:0:0:
304,306,26462,1,8,0:0:0:0:
304,306,26537,1,8,0:0:0:0:
134,226,26687,6,0,L|148:30,1,187.000005706787,6|0,3:2|3:2,0:0:0:0:
240,139,27137,1,8,0:0:0:0:
26,217,27287,2,0,L|47:339,1,93.5000028533936,6|0,3:2|0:0,0:0:0:0:
207,345,27587,2,0,L|222:252,1,93.5000028533936,0|8,3:0|0:0,0:0:0:0:
449,356,27887,6,0,P|380:373|311:284,1,187.000005706787,6|0,3:2|3:0,0:0:0:0:
359,134,28337,1,8,0:0:0:0:
143,209,28487,2,0,P|202:213|252:188,1,93.5000028533936,2|0,3:2|0:0,0:0:0:0:
73,124,28787,1,0,3:0:0:0:
206,301,28937,1,8,0:0:0:0:
268,115,29087,1,8,0:0:0:0:
268,115,29162,1,8,0:0:0:0:
268,115,29237,6,0,L|384:98,1,93.5000028533936,6|0,3:2|3:0,0:0:0:0:
421,42,29537,1,8,0:0:0:0:
512,194,29687,6,0,L|396:177,1,93.5000028533936,2|0,3:2|0:0,0:0:0:0:
348,238,29987,1,0,3:0:0:0:
373,113,30137,1,8,0:0:0:0:
258,280,30287,6,0,L|453:257,1,187.000005706787,2|0,3:2|3:0,0:0:0:0:
416,373,30737,2,0,L|300:356,1,93.5000028533936,8|0,3:0|3:0,0:0:0:0:
176,342,31037,1,12,0:0:0:0:
255,154,31187,1,12,0:0:0:0:
255,154,31262,1,8,0:0:0:0:
255,154,31337,6,0,B|267:200|267:200|256:292,1,127.500004863739,2|0,3:0|3:0,0:0:0:0:
185,204,31787,1,8,0:0:0:0:
351,181,31937,2,0,L|343:267,1,63.7500024318696,2|2,0:0|0:0,0:0:0:0:
436,304,32237,6,0,L|428:218,1,63.7500024318696,14|0,0:0|3:0,0:0:0:0:
251,342,32537,2,0,L|259:256,1,63.7500024318696,2|8,0:0|0:0,0:0:0:0:
211,200,32837,1,2,0:0:0:0:
138,276,32987,1,8,0:0:0:0:
138,276,33062,1,8,0:0:0:0:
138,276,33137,6,0,P|82:287|53:280,1,63.7500024318696,2|0,3:2|3:0,0:0:0:0:
10,224,33437,2,0,P|-1:168|6:139,1,63.7500024318696,8|0,0:0|0:0,0:0:0:0:
108,96,33737,1,8,0:0:0:0:
97,191,33887,1,8,0:0:0:0:
209,102,34037,6,0,L|290:93,1,63.7500024318696,2|8,3:2|3:0,0:0:0:0:
400,0,34337,2,0,L|463:7,1,63.7500024318696,2|0,3:2|3:0,0:0:0:0:
510,86,34637,1,0,1:0:0:0:
427,163,34787,1,8,3:0:0:0:
427,163,34862,1,8,3:0:0:0:
427,163,34937,6,0,L|441:241,1,63.7500024318696,2|0,3:2|3:0,0:0:0:0:
347,319,35237,1,8,0:0:0:0:
350,216,35387,1,0,0:0:0:0:
261,346,35537,1,8,0:0:0:0:
268,259,35687,1,0,0:0:0:0:
134,378,35837,6,0,P|65:374|48:365,1,63.7500024318696,2|8,3:2|3:0,0:0:0:0:
160,251,36137,2,0,P|108:296|89:302,1,63.7500024318696,2|8,3:2|0:0,0:0:0:0:
19,206,36437,2,0,P|88:202|105:193,1,63.7500024318696,2|8,0:0|3:0,0:0:0:0:
102,49,36737,5,2,3:2:0:0:
45,123,36887,1,0,3:0:0:0:
224,120,37037,5,8,0:0:0:0:
131,132,37187,1,0,3:0:0:0:
260,256,37337,5,2,3:2:0:0:
185,199,37487,1,0,3:0:0:0:
397,61,37637,6,0,L|384:178,1,95.6250036478044,2|0,3:2|0:0,0:0:0:0:
367,232,37937,2,0,L|356:155,1,63.7500024318696,2|0,0:0|0:0,0:0:0:0:
328,315,38237,1,8,0:0:0:0:
357,326,38312,1,8,0:0:0:0:
389,326,38387,1,8,0:0:0:0:
418,314,38462,1,8,0:0:0:0:
442,293,38537,6,0,L|453:196,1,85,6|0,3:2|0:0,0:0:0:0:
464,63,38837,1,8,0:0:0:0:
357,168,38987,1,0,0:0:0:0:
271,31,39137,1,0,0:0:0:0:
206,203,39287,5,8,0:0:0:0:
179,233,39362,1,8,0:0:0:0:
139,245,39437,1,8,0:0:0:0:
98,234,39512,1,8,0:0:0:0:
69,203,39587,6,0,L|51:32,1,170,6|8,3:2|3:0,0:0:0:0:
227,104,40037,2,0,P|169:114|144:102,1,85,2|0,3:2|0:0,0:0:0:0:
327,56,40337,2,0,L|318:169,1,85,8|0,3:0|3:0,0:0:0:0:
305,301,40637,1,0,3:0:0:0:
512,199,40787,6,0,P|455:190|347:226,1,170,6|0,3:2|3:0,0:0:0:0:
243,369,41237,1,0,3:0:0:0:
438,297,41387,1,0,3:0:0:0:
210,261,41537,1,0,3:0:0:0:
457,311,41687,1,0,3:0:0:0:
412,104,41837,1,0,3:0:0:0:
305,301,41987,6,0,L|294:186,1,85,6|0,3:2|0:0,0:0:0:0:
377,358,42287,1,0,3:0:0:0:
404,194,42437,1,8,0:0:0:0:
210,261,42587,2,0,L|201:345,1,85,6|0,3:2|0:0,0:0:0:0:
75,183,42887,1,0,3:0:0:0:
75,183,42962,1,0,3:0:0:0:
75,183,43037,2,0,L|83:267,1,85,8|8,0:0|0:0,0:0:0:0:
218,123,43337,5,10,0:0:0:0:
120,84,43487,1,0,3:0:0:0:
120,84,43562,1,0,3:0:0:0:
120,84,43637,1,8,0:0:0:0:
172,225,43787,1,0,3:0:0:0:
172,225,43862,1,0,3:0:0:0:
172,225,43937,1,8,0:0:0:0:
288,71,44087,2,0,L|280:20,2,42.5,0|0|8,3:0|3:0|0:0,0:0:0:0:
346,166,44387,2,0,L|338:217,2,42.5,6|0|8,3:2|3:0|0:0,0:0:0:0:
449,76,44687,1,0,3:0:0:0:
449,76,44762,1,0,3:0:0:0:
449,76,44837,1,8,0:0:0:0:
242,181,44987,1,6,3:2:0:0:
242,181,45062,1,0,3:0:0:0:
242,181,45137,1,8,0:0:0:0:
455,255,45287,5,8,0:0:0:0:
302,83,45437,1,8,0:0:0:0:
289,318,45587,1,8,0:0:0:0:
433,140,45737,6,0,P|382:152|338:186,1,85,6|8,3:2|0:0,0:0:0:0:
354,169,45962,1,8,0:0:0:0:
354,169,46037,1,8,0:0:0:0:
512,180,46187,1,8,3:0:0:0:
431,43,46337,1,2,3:0:0:0:
389,275,46487,1,8,0:0:0:0:
389,275,46562,1,8,0:0:0:0:
389,275,46637,1,8,0:0:0:0:
277,125,46787,1,0,3:0:0:0:
219,271,46937,5,8,0:0:0:0:
178,284,47012,1,0,3:0:0:0:
137,279,47087,1,0,3:0:0:0:
100,258,47162,1,0,3:0:0:0:
76,224,47237,1,8,0:0:0:0:
164,116,47387,2,0,L|173:164,2,42.5,0|0|8,3:0|3:0|0:0,0:0:0:0:
73,50,47687,2,0,L|82:2,2,42.5,0|0|8,3:0|3:0|0:0,0:0:0:0:
0,149,47987,1,0,3:0:0:0:
219,271,48137,6,0,P|280:272|313:252,1,85,0|0,3:0|3:0,0:0:0:0:
266,74,48437,2,0,L|248:199,1,118.999996368408,8|0,0:0|0:0,0:0:0:0:
348,118,48737,2,0,L|330:243,1,118.999996368408,8|0,0:0|0:0,0:0:0:0:
506,187,49037,6,0,P|445:186|412:206,1,85,0|0,3:0|3:0,0:0:0:0:
459,384,49337,2,0,L|476:258,1,118.999996368408,8|0,0:0|0:0,0:0:0:0:
377,340,49637,2,0,L|394:214,1,118.999996368408,8|0,0:0|0:0,0:0:0:0:
508,90,49937,5,0,3:0:0:0:
288,176,50087,1,0,3:0:0:0:
506,187,50237,1,0,3:0:0:0:
256,75,50387,1,0,3:0:0:0:
399,241,50537,5,8,0:0:0:0:
433,32,50687,2,0,L|414:147,1,85,2|0,3:2|0:0,0:0:0:0:
206,250,50987,2,0,L|192:166,1,85,6|0,3:2|0:0,0:0:0:0:
288,333,51287,1,8,0:0:0:0:
326,121,51437,1,8,0:0:0:0:
170,379,51587,1,8,0:0:0:0:
89,94,51737,5,14,0:0:0:0:
89,94,52037,2,0,L|153:84,1,42.5,2|0,0:0|0:0,0:0:0:0:
204,130,52187,6,0,L|70:120,1,118.999996368408,6|0,3:2|0:0,0:0:0:0:
287,33,52487,1,0,3:0:0:0:
316,217,52637,2,0,L|450:207,1,118.999996368408,8|0,0:0|3:0,0:0:0:0:
434,208,52862,1,8,0:0:0:0:
434,208,52937,2,0,P|409:267|422:325,1,118.999996368408,0|0,3:0|3:0,0:0:0:0:
510,130,53237,1,8,0:0:0:0:
294,307,53387,6,0,L|158:294,1,118.999996368408,2|0,3:2|0:0,0:0:0:0:
19,132,53687,1,0,3:0:0:0:
78,327,53837,1,8,0:0:0:0:
209,167,53987,1,0,3:0:0:0:
209,167,54062,1,0,3:0:0:0:
209,167,54137,2,0,P|272:149|342:160,1,118.999996368408,0|0,3:0|3:0,0:0:0:0:
464,280,54437,1,8,0:0:0:0:
433,31,54587,6,0,L|448:160,1,118.999996368408,6|0,3:2|0:0,0:0:0:0:
284,340,54887,1,0,3:0:0:0:
327,104,55037,1,8,0:0:0:0:
464,280,55187,2,0,L|337:269,1,118.999996368408,0|0,3:0|3:0,0:0:0:0:
156,307,55487,1,0,3:0:0:0:
197,85,55637,6,0,P|228:134|227:214,2,118.999996368408,8|2|0,0:0|3:2|0:0,0:0:0:0:
7,211,56087,1,0,3:0:0:0:
138,164,56237,1,8,0:0:0:0:
52,101,56387,1,0,3:0:0:0:
52,101,56462,1,0,3:0:0:0:
52,101,56537,1,0,3:0:0:0:
228,260,56687,1,0,3:0:0:0:
81,295,56837,1,8,0:0:0:0:
254,154,56987,6,0,B|333:139|333:139|395:174|395:174|500:155,1,237.999992736817,6|0,3:2|3:0,0:0:0:0:
315,241,57437,1,8,0:0:0:0:
412,72,57587,1,0,3:0:0:0:
198,66,57737,2,0,L|75:61,1,118.999996368408,0|0,3:0|3:0,0:0:0:0:
130,289,58037,6,0,P|155:237|155:162,2,118.999996368408,8|2|0,0:0|3:2|0:0,0:0:0:0:
80,113,58487,1,0,3:0:0:0:
246,243,58637,1,8,0:0:0:0:
59,206,58787,1,0,3:0:0:0:
317,170,58937,2,0,L|458:152,1,118.999996368408,0|0,3:0|3:0,0:0:0:0:
291,348,59237,1,8,0:0:0:0:
291,348,59312,1,8,0:0:0:0:
291,348,59387,1,8,3:0:0:0:
201,121,59537,5,8,0:0:0:0:
376,276,59687,1,0,3:0:0:0:
391,88,59837,1,8,0:0:0:0:
246,243,59987,1,0,3:0:0:0:
143,30,60137,1,8,0:0:0:0:
341,194,60287,1,6,3:2:0:0:
381,0,60437,1,0,1:0:0:0:
149,208,60587,6,0,L|174:343,1,118.999996368408,6|0,3:2|0:0,0:0:0:0:
436,235,60887,1,0,3:0:0:0:
232,138,61037,1,8,0:0:0:0:
484,18,61187,2,0,L|459:153,1,118.999996368408,6|0,3:2|0:0,0:0:0:0:
364,309,61487,1,0,3:0:0:0:
232,138,61637,5,8,0:0:0:0:
436,235,61787,6,0,B|358:195|288:204|288:204|293:256|269:284,1,237.999992736817,6|0,3:2|3:0,0:0:0:0:
269,283,62162,1,0,3:0:0:0:
269,283,62237,1,12,0:0:0:0:
136,131,62387,1,0,3:0:0:0:
136,131,62462,1,8,3:0:0:0:
136,131,62537,1,12,3:2:0:0:
122,312,62687,2,0,L|128:371,2,59.4999981842042,0|0|12,3:0|3:0|0:0,0:0:0:0:
13,279,62987,2,0,L|6:338,2,59.4999981842042,0|0|12,3:2|3:0|0:0,0:0:0:0:
80,191,63287,1,0,3:0:0:0:
80,191,63362,1,0,3:0:0:0:
80,191,63437,1,12,0:0:0:0:
228,291,63587,1,8,0:0:0:0:
303,87,63737,5,12,0:0:0:0:
339,66,63812,1,8,0:0:0:0:
379,58,63887,1,8,3:0:0:0:
420,65,63962,1,8,3:0:0:0:
457,85,64037,2,0,L|448:146,1,59.4999981842042,8|0,0:0|0:0,0:0:0:0:
419,230,64187,6,0,B|387:218|372:195|372:195|304:181|248:214,1,178.499994552612,14|0,0:0|0:0,0:0:0:0:
228,291,64487,1,8,0:0:0:0:
374,380,64637,2,0,L|364:307,1,59.4999981842042,8|0,0:0|3:0,0:0:0:0:
147,242,64787,2,0,L|138:300,1,59.4999981842042,0|0,3:0|3:0,0:0:0:0:
240,172,64937,5,8,0:0:0:0:
203,151,65012,1,0,3:0:0:0:
163,141,65087,1,0,3:0:0:0:
121,140,65162,1,0,3:0:0:0:
81,150,65237,1,8,0:0:0:0:
26,132,65312,1,0,3:0:0:0:
7,77,65387,1,0,3:0:0:0:
31,26,65462,1,0,3:0:0:0:
87,8,65537,5,8,3:0:0:0:
147,242,65687,1,8,3:0:0:0:
139,258,65987,5,8,3:0:0:0:
284,70,66137,1,8,3:0:0:0:
121,140,66287,2,0,L|70:149,2,42.5,0|0|8,3:0|3:0|3:0,0:0:0:0:
355,314,66587,6,0,L|212:293,1,118.999996368408,6|0,3:2|0:0,0:0:0:0:
426,175,66887,1,0,3:0:0:0:
446,371,67037,1,8,0:0:0:0:
327,98,67187,1,0,3:0:0:0:
237,296,67337,1,0,3:0:0:0:
495,269,67487,1,0,3:0:0:0:
224,184,67637,1,8,0:0:0:0:
446,56,67787,6,0,B|472:126|472:126|454:297,1,237.999992736817,2|0,3:2|3:0,0:0:0:0:
288,370,68237,1,8,0:0:0:0:
356,202,68387,1,0,3:0:0:0:
356,202,68462,1,0,3:0:0:0:
356,202,68537,1,0,3:0:0:0:
156,287,68687,1,0,3:0:0:0:
373,323,68837,1,8,0:0:0:0:
245,108,68987,6,0,B|141:114|141:114|109:139|109:139|-4:149,1,237.999992736817,6|0,3:2|3:0,0:0:0:0:
175,208,69437,1,8,0:0:0:0:
72,43,69587,1,0,3:0:0:0:
72,43,69662,1,0,3:0:0:0:
72,43,69737,1,0,3:0:0:0:
91,286,69887,1,0,3:0:0:0:
285,220,70037,2,0,L|358:209,1,59.4999981842042,8|0,0:0|0:0,0:0:0:0:
442,187,70187,6,0,L|313:172,1,118.999996368408,2|0,3:2|0:0,0:0:0:0:
112,141,70487,1,0,3:0:0:0:
398,71,70637,1,8,0:0:0:0:
185,42,70787,1,0,3:0:0:0:
185,42,70862,1,0,3:0:0:0:
185,42,70937,1,0,3:0:0:0:
206,233,71087,1,0,3:0:0:0:
303,9,71237,1,8,0:0:0:0:
343,223,71387,6,0,L|321:366,1,118.999996368408,6|0,3:2|0:0,0:0:0:0:
109,239,71687,1,0,3:0:0:0:
267,149,71837,1,8,0:0:0:0:
35,34,71987,2,0,L|57:177,1,118.999996368408,0|0,3:0|3:0,0:0:0:0:
37,324,72287,1,0,3:0:0:0:
211,235,72437,1,8,0:0:0:0:
331,376,72587,6,0,L|208:362,1,118.999996368408,2|0,3:2|0:0,0:0:0:0:
374,138,72887,1,0,3:0:0:0:
425,276,73037,1,8,0:0:0:0:
289,76,73187,1,0,3:0:0:0:
211,235,73337,1,0,3:0:0:0:
379,13,73487,1,0,3:0:0:0:
460,191,73637,1,8,0:0:0:0:
229,154,73787,6,0,B|150:138|150:138|75:167|75:167|-10:152,1,237.999992736817,6|8,3:2|0:0,0:0:0:0:
215,60,74237,1,8,0:0:0:0:
307,302,74387,5,6,3:2:0:0:
433,6,74687,1,6,3:2:0:0:
229,154,74987,6,0,P|313:186|410:129,1,187.000005706787,6|0,3:2|3:0,0:0:0:0:
174,89,75437,2,0,L|186:216,1,93.5000028533936,8|0,0:0|3:0,0:0:0:0:
77,242,75737,2,0,L|89:115,1,93.5000028533936,0|0,0:0|3:0,0:0:0:0:
198,297,76037,1,8,0:0:0:0:
22,326,76187,6,0,P|83:292|216:305,1,187.000005706787,6|0,3:2|3:0,0:0:0:0:
369,351,76637,2,0,L|245:360,1,93.5000028533936,8|0,0:0|0:0,0:0:0:0:
428,260,76937,2,0,L|304:251,1,93.5000028533936,0|0,3:0|3:0,0:0:0:0:
230,176,77237,1,8,0:0:0:0:
368,39,77387,6,0,P|383:92|382:147,1,93.5000028533936,2|0,3:2|0:0,0:0:0:0:
256,275,77687,1,0,3:0:0:0:
256,81,77837,1,8,0:0:0:0:
141,226,77987,2,0,P|127:271|125:318,1,93.5000028533936,2|0,3:2|3:0,0:0:0:0:
256,182,78287,1,0,3:0:0:0:
50,189,78437,1,8,0:0:0:0:
215,287,78587,6,0,P|278:296|325:276,1,93.5000028533936,6|0,3:2|0:0,0:0:0:0:
395,191,78887,1,0,3:0:0:0:
424,383,79037,2,0,L|407:258,1,93.5000028533936,8|0,0:0|0:0,0:0:0:0:
502,82,79337,2,0,L|485:207,1,93.5000028533936,0|0,3:0|3:0,0:0:0:0:
411,290,79637,1,8,0:0:0:0:
279,155,79787,6,0,B|230:132|185:160|185:160|138:186|100:163,1,187.000005706787,6|0,3:2|3:0,0:0:0:0:
245,55,80237,2,0,P|301:68|345:88,1,93.5000028533936,8|0,0:0|0:0,0:0:0:0:
154,0,80537,2,0,P|98:13|54:33,1,93.5000028533936,0|0,3:0|3:0,0:0:0:0:
2,176,80837,1,8,0:0:0:0:
138,92,80987,6,0,L|154:229,1,93.5000028533936,6|0,3:2|0:0,0:0:0:0:
92,305,81287,1,0,3:0:0:0:
308,280,81437,5,8,0:0:0:0:
76,215,81587,1,0,3:0:0:0:
378,147,81737,5,8,0:0:0:0:
62,128,81887,1,0,3:0:0:0:
396,0,82037,5,8,0:0:0:0:
38,34,82187,2,0,L|152:57,1,93.5000028533936,0|10,3:0|0:0,0:0:0:0:
271,179,82487,1,8,3:0:0:0:
250,14,82637,1,0,3:0:0:0:
155,233,82787,1,8,0:0:0:0:
354,87,82937,5,8,0:0:0:0:
382,116,83012,1,8,0:0:0:0:
395,155,83087,1,8,0:0:0:0:
393,196,83162,1,8,0:0:0:0:
373,233,83237,1,8,0:0:0:0:
348,266,83312,1,8,0:0:0:0:
335,305,83387,1,8,0:0:0:0:
337,347,83462,1,8,0:0:0:0:
357,383,83537,6,0,L|470:363,1,93.5000028533936,6|0,3:2|0:0,0:0:0:0:
288,175,83837,1,8,0:0:0:0:
149,336,83987,1,0,3:0:0:0:
149,336,84062,1,0,3:0:0:0:
149,336,84137,1,14,0:0:0:0:
56,166,84287,1,0,3:0:0:0:
56,166,84362,1,0,3:0:0:0:
56,166,84437,1,14,0:0:0:0:
167,227,84587,1,0,3:0:0:0:
167,227,84662,1,0,3:0:0:0:
167,227,84737,6,0,L|271:218,1,93.5000028533936,14|0,0:0|3:0,0:0:0:0:
277,125,84962,1,0,3:0:0:0:
277,125,85037,2,0,L|356:192,1,93.5000028533936,14|0,0:0|3:0,0:0:0:0:
427,134,85262,1,0,3:0:0:0:
427,134,85337,2,0,L|436:238,1,93.5000028533936,14|0,0:0|3:0,0:0:0:0:
512,258,85562,1,0,3:0:0:0:
512,258,85637,2,0,L|444:337,1,93.5000028533936,14|0,0:0|0:0,0:0:0:0:
115,280,85937,5,6,3:2:0:0:
383,248,86087,1,8,0:0:0:0:
155,148,86237,1,8,0:0:0:0:
220,354,86387,1,8,0:0:0:0:
317,76,86537,1,8,0:0:0:0:
294,292,86687,5,10,0:0:0:0:
156,35,86837,1,8,0:0:0:0:
105,312,86987,5,14,0:0:0:0:
461,281,87287,1,2,3:2:0:0:
159,184,87587,2,0,P|100:183|53:219,1,114.749996498108,2|0,0:0|0:0,0:0:0:0:
56,214,87887,6,0,L|71:83,1,127.499996109009,2|0,0:0|0:0,0:0:0:0:
28,16,88337,6,0,L|42:126,1,85,6|0,3:2|0:0,0:0:0:0:
185,57,88637,1,8,0:0:0:0:
153,277,88787,6,0,L|167:167,1,85,6|0,3:2|0:0,0:0:0:0:
316,226,89087,1,8,0:0:0:0:
287,18,89237,6,0,L|301:128,1,85,6|0,3:2|0:0,0:0:0:0:
419,256,89537,1,8,0:0:0:0:
489,91,89687,5,6,3:2:0:0:
231,210,89837,1,0,0:0:0:0:
501,207,89987,1,8,0:0:0:0:
268,104,90137,1,8,0:0:0:0:
328,312,90287,1,8,0:0:0:0:
411,46,90437,1,8,0:0:0:0:
426,322,90587,5,6,3:2:0:0:
426,322,90887,6,0,L|437:231,3,68,2|2|2|2,0:0|0:0|0:0|0:0,0:0:0:0:
375,144,91487,1,0,3:0:0:0:
375,144,91562,1,0,3:0:0:0:
375,144,91637,1,8,0:0:0:0:
281,231,91787,1,8,0:0:0:0:
219,101,91937,5,0,3:0:0:0:
219,101,92012,1,0,3:0:0:0:
219,101,92087,2,0,L|217:154,1,34,8|8,0:0|0:0,0:0:0:0:
148,217,92237,5,8,0:0:0:0:
148,217,92312,1,8,0:0:0:0:
148,217,92387,2,0,L|150:270,1,34,0|0,3:0|3:0,0:0:0:0:
231,326,92537,5,8,0:0:0:0:
276,338,92612,1,8,0:0:0:0:
320,323,92687,1,8,0:0:0:0:
362,292,92762,1,8,0:2:0:0:
410,280,92837,1,8,0:0:0:0:
457,298,92912,1,8,0:0:0:0:
492,335,92987,6,0,L|483:374,1,34,14|0,0:0|0:0,0:0:0:0:
