osu file format v14

[General]
AudioFilename: audio.mp3
AudioLeadIn: 0
PreviewTime: 51375
Countdown: 0
SampleSet: Soft
StackLeniency: 0.4
Mode: 0
LetterboxInBreaks: 0
WidescreenStoryboard: 1

[Editor]
Bookmarks: 52168,66568,68968,213268,215668
DistanceSpacing: 2.5
BeatDivisor: 4
GridSize: 4
TimelineZoom: 1.7

[Metadata]
Title:Phantom Joke (TV Size)
TitleUnicode:Phantom Joke (TV Size)
Artist:UNISON SQUARE GARDEN
ArtistUnicode:UNISON SQUARE GARDEN
Creator:Nevo
Version:A r M i N's First Order
Source:Fate/Grand Order: Absolute Demonic Front - Babylonia
Tags:usq anime japanese opening smokelind synderes glaceon armin a_r_m_i_n -絶対魔獣戦線バビロニア- Zettai Majuu Sensen
BeatmapID:2200063
BeatmapSetID:1051745

[Difficulty]
HPDrainRate:5.5
CircleSize:4.5
OverallDifficulty:9
ApproachRate:9.5
SliderMultiplier:1.9
SliderTickRate:1

[Events]
//Background and Video events
0,0,"62ba0206b315ec0550624d0e3788a750.png_1024w_waifu2x_art_noise3_scale_tta_1.png",0,0
Video,490,"vvvvv.mp4"
//Break Periods
//Storyboard Layer 0 (Background)
//Storyboard Layer 1 (Fail)
//Storyboard Layer 2 (Pass)
//Storyboard Layer 3 (Foreground)
//Storyboard Layer 4 (Overlay)
//Storyboard Sound Samples

[TimingPoints]
437,300,4,2,1,60,1,0
437,-125,4,2,1,60,0,0
4112,-125,4,2,1,5,0,0
4187,-125,4,2,1,60,0,0
5087,-100,4,2,1,75,0,0
9287,-100,4,2,1,60,0,0
9887,-100,4,2,1,60,0,0
12437,-125,4,2,1,40,0,0
17237,-100,4,2,1,60,0,0
22037,-100,4,2,1,70,0,0
22262,-100,4,2,1,5,0,0
22337,-100,4,2,1,70,0,0
24662,-100,4,2,1,5,0,0
24737,-100,4,2,1,70,0,0
31337,300,3,2,1,70,1,0
31337,-125,3,2,1,50,0,0
37937,-200,3,2,1,50,0,0
38237,-125,3,2,1,50,0,0
38537,300,4,2,1,50,1,0
38537,-100,4,2,1,60,0,0
48437,-83.3333333333333,4,2,1,60,0,0
49037,-100,4,2,1,60,0,0
49337,-83.3333333333333,4,2,1,60,0,0
49937,-100,4,2,1,60,0,0
50687,-83.3333333333333,4,2,1,60,0,0
52187,-83.3333333333333,4,2,1,80,0,1
52337,300,4,2,1,80,1,1
52337,-83.3333333333333,4,2,1,80,0,1
66287,-100,4,2,1,80,0,1
66587,-83.3333333333333,4,2,1,80,0,1
74612,-83.3333333333333,4,2,1,5,0,1
74687,-83.3333333333333,4,2,1,80,0,1
74912,-83.3333333333333,4,2,1,5,0,1
74987,-83.3333333333333,4,2,1,70,0,0
80987,-83.3333333333333,4,2,1,80,0,1
87212,-83.3333333333333,4,2,1,5,0,1
87287,-50,4,2,1,80,0,1
87362,-50,4,2,1,5,0,1
87587,-111.111111111111,4,2,1,60,0,0
87812,-111.111111111111,4,2,1,60,0,0
87887,-166.666666666667,4,2,1,60,0,0
88187,-166.666666666667,4,2,1,60,0,0
88337,-100,4,2,1,70,0,0
88562,-100,4,2,1,5,0,0
88637,-100,4,2,1,70,0,0
89012,-100,4,2,1,5,0,0
89087,-100,4,2,1,70,0,0
89462,-100,4,2,1,5,0,0
89537,-100,4,2,1,70,0,0
89912,-100,4,2,1,5,0,0
89987,-100,4,2,1,70,0,0
90887,-125,4,2,1,70,0,0

[Colours]
Combo1 : 255,176,255
Combo2 : 255,255,140
Combo3 : 0,91,183

[HitObjects]
395,187,437,6,0,L|383:262,1,76,0|0,3:0|0:0,0:0:0:0:
294,136,737,2,0,L|306:211,1,76,0|0,1:0|3:0,0:0:0:0:
373,105,1037,1,0,1:0:0:0:
256,60,1187,1,2,3:0:0:0:
256,60,1637,6,0,P|226:84|211:119,1,76,0|0,3:0|0:0,0:0:0:0:
233,270,1937,2,0,P|228:233|206:203,1,76,2|0,3:0|3:0,0:0:0:0:
55,133,2237,1,0,1:0:0:0:
136,156,2387,1,2,3:0:0:0:
136,156,2837,6,0,L|124:81,1,76,0|0,3:0|0:0,0:0:0:0:
206,203,3137,2,0,L|194:278,1,76,2|0,3:0|3:0,0:0:0:0:
115,238,3437,1,0,1:0:0:0:
284,170,3587,1,2,3:0:0:0:
86,252,3887,6,0,B|51:237|51:237|28:312,1,114,6|0,3:2|0:0,0:0:0:0:
18,341,4187,1,0,3:0:0:0:
168,273,4337,1,0,3:0:0:0:
61,153,4487,1,0,3:0:0:0:
226,37,4637,1,8,0:0:0:0:
263,34,4712,1,8,0:0:0:0:
298,49,4787,1,8,0:0:0:0:
323,77,4862,1,8,0:0:0:0:
347,105,4937,1,8,0:0:0:0:
382,119,5012,1,8,0:0:0:0:
420,117,5087,6,0,B|375:88|375:88|330:148|353:221,1,190,6|0,3:2|3:0,0:0:0:0:
443,354,5537,1,8,0:0:0:0:
281,263,5687,1,0,3:0:0:0:
461,191,5837,1,0,3:0:0:0:
304,287,5987,1,0,3:0:0:0:
227,121,6137,1,8,0:0:0:0:
106,253,6287,6,0,B|77:242|52:248|52:248|107:197|176:233,1,190,6|0,3:2|3:0,0:0:0:0:
312,372,6737,1,8,0:0:0:0:
254,201,6887,1,0,3:0:0:0:
153,346,7037,1,0,3:0:0:0:
236,173,7187,1,0,3:0:0:0:
422,217,7337,1,8,0:0:0:0:
217,146,7487,6,0,B|239:110|239:110|213:72|214:18|214:18|265:43,1,190,6|0,3:2|3:0,0:0:0:0:
305,221,7937,1,8,0:0:0:0:
143,106,8087,1,0,3:0:0:0:
344,51,8237,1,0,3:0:0:0:
221,230,8387,1,0,3:0:0:0:
439,293,8537,1,8,0:0:0:0:
259,40,8687,1,6,3:2:0:0:
145,275,8837,5,8,0:0:0:0:
178,308,8912,1,8,0:0:0:0:
224,320,8987,1,8,0:0:0:0:
269,306,9062,1,8,0:0:0:0:
300,272,9137,1,8,0:0:0:0:
310,226,9212,1,8,0:0:0:0:
294,181,9287,1,6,3:2:0:0:
286,194,9587,5,6,3:2:0:0:
278,206,9887,6,0,B|374:177|359:266|456:237,1,190,6|0,3:2|3:0,0:0:0:0:
229,137,10337,2,0,P|197:185|197:228,1,95,8|0,0:0|1:0,0:0:0:0:
253,300,10637,1,0,3:0:0:0:
313,128,10787,1,0,3:0:0:0:
313,128,10862,1,8,0:0:0:0:
313,128,10937,2,0,P|287:76|250:54,1,95,8|0,0:0|1:0,0:0:0:0:
174,72,11237,1,0,3:0:0:0:
278,206,11387,1,0,3:0:0:0:
278,206,11462,1,8,0:0:0:0:
278,206,11537,2,0,P|324:212|367:193,1,95,8|0,0:0|1:0,0:0:0:0:
174,72,11837,5,6,3:2:0:0:
282,297,11987,1,6,3:2:0:0:
282,297,12437,6,0,P|242:284|208:277,1,76,0|0,1:0|0:0,0:0:0:0:
152,213,12737,2,0,P|192:200|226:193,1,76,0|0,1:0|0:0,0:0:0:0:
126,294,13037,2,0,P|107:226|82:147,1,152,0|0,1:0|1:0,0:0:0:0:
17,202,13487,1,0,0:0:0:0:
133,81,13637,6,0,P|170:88|206:100,1,76,4|0,1:2|0:0,0:0:0:0:
270,46,13937,1,0,1:0:0:0:
336,98,14087,2,0,P|352:131|353:169,1,76,0|0,0:0|1:0,0:0:0:0:
311,243,14387,1,0,0:0:0:0:
369,305,14537,1,0,1:0:0:0:
298,257,14687,1,0,0:0:0:0:
228,358,14837,6,0,P|191:346|154:338,1,76,4|0,1:2|0:0,0:0:0:0:
100,273,15137,2,0,P|100:235|117:201,1,76,0|0,1:0|0:0,0:0:0:0:
174,137,15437,2,0,P|173:99|156:65,2,76,0|0|0,1:0|0:0|1:0,0:0:0:0:
91,120,15887,1,0,0:0:0:0:
200,218,16037,6,0,L|273:198,1,76,4|0,1:2|0:0,0:0:0:0:
321,45,16337,2,0,L|302:119,1,76,4|0,1:2|0:0,0:0:0:0:
411,238,16637,2,0,L|358:185,1,76,4|0,1:2|3:0,0:0:0:0:
414,123,16862,1,0,3:0:0:0:
414,123,16937,2,0,L|468:177,1,76,0|0,3:0|3:0,0:0:0:0:
248,289,17237,6,0,L|273:197,1,95,6|0,3:2|0:0,0:0:0:0:
69,139,17537,1,8,0:0:0:0:
78,172,17612,1,8,0:0:0:0:
87,207,17687,1,8,3:0:0:0:
205,75,17837,5,8,0:0:0:0:
224,61,17912,1,8,0:0:0:0:
246,52,17987,1,8,0:0:0:0:
270,51,18062,1,8,0:0:0:0:
293,55,18137,1,8,3:0:0:0:
325,69,18212,1,8,3:0:0:0:
360,68,18287,1,8,3:0:0:0:
391,51,18362,1,8,3:0:0:0:
412,23,18437,6,0,P|409:69|432:110,1,95,6|0,1:2|1:0,0:0:0:0:
507,254,18737,1,8,0:0:0:0:
477,234,18812,1,8,0:0:0:0:
442,229,18887,1,8,3:0:0:0:
298,318,19037,5,8,3:0:0:0:
321,312,19112,1,0,3:0:0:0:
344,307,19187,1,0,3:0:0:0:
367,302,19262,1,0,3:0:0:0:
390,296,19337,2,0,L|298:271,1,95,0|0,1:0|0:0,0:0:0:0:
126,100,19637,5,8,3:0:0:0:
217,295,19787,1,8,3:0:0:0:
207,76,20087,5,8,3:0:0:0:
202,306,20237,1,8,3:0:0:0:
288,52,20537,5,8,3:0:0:0:
187,317,20687,1,8,3:0:0:0:
100,58,20837,1,0,1:0:0:0:
267,240,20987,1,2,3:2:0:0:
267,240,21437,5,0,1:0:0:0:
278,236,21512,1,0,1:0:0:0:
289,233,21587,1,0,1:0:0:0:
301,230,21662,1,0,1:0:0:0:
312,227,21737,1,0,1:0:0:0:
223,50,21887,1,8,0:0:0:0:
203,80,21962,1,8,0:0:0:0:
198,115,22037,6,0,B|271:96|260:157|333:138,1,142.5,6|0,3:2|0:0,0:0:0:0:
398,105,22337,2,0,P|382:161|375:209,1,95,8|0,0:0|0:0,0:0:0:0:
210,333,22637,2,0,P|201:286|188:240,1,95,0|0,3:0|0:0,0:0:0:0:
17,115,22937,1,8,0:0:0:0:
184,42,23087,1,0,0:0:0:0:
108,215,23237,5,2,3:2:0:0:
192,24,23387,2,0,L|284:49,1,95,0|8,0:0|0:0,0:0:0:0:
457,112,23687,2,0,B|494:75|399:40|378:137|427:201,1,190
512,351,24137,2,0,L|420:326,1,95,8|0,0:0|0:0,0:0:0:0:
164,229,24437,6,0,B|212:199|212:199|293:230,1,142.5,2|0,3:2|0:0,0:0:0:0:
358,260,24737,2,0,P|335:218|337:172,1,95,8|0,0:0|0:0,0:0:0:0:
448,39,25037,2,0,P|424:79|383:101,1,95,0|0,3:0|0:0,0:0:0:0:
304,100,25262,1,0,3:0:0:0:
298,88,25337,1,8,0:0:0:0:
96,28,25487,6,0,B|55:77|55:77|101:203,1,190,2|0,0:0|0:0,0:0:0:0:
180,219,25937,1,8,0:0:0:0:
57,343,26087,2,0,P|78:302|119:278,1,95,2|8,0:0|0:0,0:0:0:0:
269,309,26387,1,8,0:0:0:0:
233,312,26462,1,8,0:0:0:0:
200,302,26537,1,8,0:0:0:0:
337,172,26687,6,0,B|390:161|390:161|389:156|389:156|390:161|390:161|455:148|455:148|486:163|494:196,1,190,6|0,3:2|3:2,0:0:0:0:
458,268,27137,1,8,0:0:0:0:
311,91,27287,6,0,P|297:169|276:283,1,190,4|0,3:2|3:0,0:0:0:0:
367,258,27737,1,8,0:0:0:0:
214,152,27887,6,0,B|164:140|129:170|129:170|120:164|120:164|86:194|36:183,1,190,6|0,3:2|3:0,0:0:0:0:
0,107,28337,1,8,0:0:0:0:
231,68,28487,6,0,P|294:125|268:217,1,190,6|0,3:2|3:0,0:0:0:0:
193,257,28937,1,8,0:0:0:0:
283,370,29087,1,8,0:0:0:0:
274,335,29162,1,8,0:0:0:0:
265,302,29237,5,6,3:2:0:0:
109,256,29387,1,0,3:0:0:0:
268,216,29537,1,8,0:0:0:0:
91,261,29687,2,0,B|39:275|39:275|0:213|40:147,1,190,6|0,3:2|3:0,0:0:0:0:
172,19,30137,1,8,0:0:0:0:
198,113,30287,2,0,L|106:88,1,95,6|0,3:2|0:0,0:0:0:0:
252,47,30587,5,0,3:0:0:0:
281,127,30737,1,8,3:0:0:0:
227,193,30887,1,0,3:0:0:0:
252,47,31037,2,0,L|344:22,1,95,12|12,0:0|0:0,0:0:0:0:
424,48,31262,1,8,0:0:0:0:
424,48,31337,6,0,P|416:86|410:130,1,76,2|0,3:0|0:0,0:0:0:0:
459,192,31637,1,0,3:0:0:0:
358,283,31787,1,8,0:0:0:0:
375,200,31937,2,0,L|301:219,1,76,2|2,0:0|0:0,0:0:0:0:
183,140,32237,5,14,0:0:0:0:
230,267,32387,1,0,3:0:0:0:
176,121,32537,2,0,B|132:110|132:110|76:136|76:136|32:125,1,152,2|2,0:0|0:0,0:0:0:0:
242,69,32987,1,8,0:0:0:0:
242,69,33062,1,8,0:0:0:0:
242,69,33137,6,0,P|258:103|257:141,1,76,2|0,3:2|3:0,0:0:0:0:
167,270,33437,1,8,0:0:0:0:
238,224,33587,1,0,0:0:0:0:
85,250,33737,2,0,P|84:287|100:321,1,76,8|8,0:0|0:0,0:0:0:0:
179,354,33962,1,8,0:0:0:0:
179,354,34037,6,0,L|252:334,1,76,2|8,3:2|3:0,0:0:0:0:
345,193,34337,1,0,3:0:0:0:
297,262,34487,1,0,3:0:0:0:
337,337,34637,1,0,1:0:0:0:
212,259,34787,1,8,3:0:0:0:
212,259,34862,1,8,3:0:0:0:
212,259,34937,6,0,L|138:239,1,76,2|0,3:2|3:0,0:0:0:0:
48,109,35237,1,8,0:0:0:0:
68,192,35387,1,0,0:0:0:0:
101,42,35537,2,0,L|174:22,1,76,8|0,0:0|0:0,0:0:0:0:
367,153,35837,5,2,3:2:0:0:
240,75,35987,1,8,3:0:0:0:
376,143,36137,1,2,3:2:0:0:
249,65,36287,1,8,0:0:0:0:
157,186,36437,2,0,L|176:259,1,76,2|8,0:0|3:0,0:0:0:0:
261,254,36662,1,8,3:0:0:0:
261,254,36737,6,0,L|242:181,1,76,2|0,3:2|3:0,0:0:0:0:
223,331,37037,1,8,0:0:0:0:
346,263,37187,1,0,3:0:0:0:
157,186,37337,1,2,3:2:0:0:
352,98,37487,1,0,3:0:0:0:
99,17,37637,5,2,3:2:0:0:
99,17,37937,2,0,P|111:54|119:95,1,71.25,2|0,0:0|0:0,0:0:0:0:
74,161,38237,1,8,0:0:0:0:
93,128,38312,1,8,0:0:0:0:
124,106,38387,1,8,0:0:0:0:
161,99,38462,1,8,0:0:0:0:
197,108,38537,6,0,P|209:154|220:210,1,95,6|0,3:2|0:0,0:0:0:0:
416,100,38837,1,8,0:0:0:0:
308,24,38987,2,0,P|296:70|287:117,1,95
499,84,39287,1,8,0:0:0:0:
491,49,39362,1,8,0:0:0:0:
482,15,39437,1,8,0:0:0:0:
386,199,39587,6,0,B|288:168|305:261|208:230,1,190,6|8,3:2|3:0,0:0:0:0:
38,145,40037,2,0,P|48:173|53:197,2,47.5,2|0|0,3:2|3:0|3:0,0:0:0:0:
243,82,40337,5,8,3:0:0:0:
243,82,40412,1,0,0:0:0:0:
243,82,40487,2,0,P|256:48|266:29,1,47.5,8|0,3:0|0:0,0:0:0:0:
157,90,40637,2,0,P|167:111|174:133,1,47.5,8|0,3:0|0:0,0:0:0:0:
343,14,40787,6,0,B|388:23|405:63|405:63|366:178,1,190,6|0,3:2|3:0,0:0:0:0:
299,286,41237,1,0,3:0:0:0:
325,262,41312,1,0,3:0:0:0:
354,252,41387,1,0,3:0:0:0:
380,251,41462,1,0,3:0:0:0:
402,257,41537,1,0,3:0:0:0:
251,357,41687,1,0,3:0:0:0:
233,341,41762,1,0,3:0:0:0:
220,321,41837,1,0,3:0:0:0:
461,185,41987,6,0,P|444:260|426:373,1,190,6|0,3:2|3:0,0:0:0:0:
289,189,42437,1,8,0:0:0:0:
455,39,42587,2,0,B|512:88|506:164|506:164|461:185,1,190,6|0,3:2|3:0,0:0:0:0:
387,156,42962,1,0,3:0:0:0:
387,156,43037,1,8,0:0:0:0:
300,339,43187,1,8,0:0:0:0:
159,81,43337,5,10,0:0:0:0:
289,189,43487,2,0,L|242:176,1,47.5,0|0,3:0|3:0,0:0:0:0:
52,336,43637,5,8,0:0:0:0:
182,234,43787,2,0,L|136:246,1,47.5,0|0,3:0|3:0,0:0:0:0:
169,81,43937,5,8,0:0:0:0:
299,189,44087,2,0,L|252:176,1,47.5,0|0,3:0|3:0,0:0:0:0:
62,336,44237,5,8,0:0:0:0:
192,234,44387,2,0,L|146:246,1,47.5,6|0,3:2|3:0,0:0:0:0:
179,81,44537,5,8,0:0:0:0:
309,189,44687,2,0,L|262:176,1,47.5,0|0,3:0|3:0,0:0:0:0:
72,336,44837,5,8,0:0:0:0:
202,234,44987,2,0,L|156:246,1,47.5,6|0,3:2|3:0,0:0:0:0:
276,79,45137,5,8,0:0:0:0:
346,321,45287,1,8,0:0:0:0:
87,145,45437,1,8,0:0:0:0:
395,38,45587,1,8,0:0:0:0:
202,234,45737,6,0,P|180:273|182:322,1,95,6|8,3:2|0:0,0:0:0:0:
283,211,45962,1,8,0:0:0:0:
283,211,46037,2,0,P|260:172|216:149,1,95,8|8,0:0|3:0,0:0:0:0:
25,162,46337,6,0,L|116:187,1,95,2|8,3:0|0:0,0:0:0:0:
50,70,46562,1,8,0:0:0:0:
50,70,46637,2,0,L|24:161,1,95,8|0,0:0|3:0,0:0:0:0:
182,322,46937,1,8,0:0:0:0:
223,344,47012,1,0,3:0:0:0:
269,342,47087,1,0,3:0:0:0:
309,316,47162,1,0,3:0:0:0:
328,274,47237,1,8,0:0:0:0:
347,231,47312,1,0,3:0:0:0:
386,205,47387,1,0,3:0:0:0:
433,203,47462,1,0,3:0:0:0:
474,226,47537,5,8,0:0:0:0:
436,254,47612,1,0,3:0:0:0:
390,263,47687,1,0,3:0:0:0:
344,251,47762,1,0,3:0:0:0:
308,221,47837,1,8,3:0:0:0:
288,179,47912,1,0,3:0:0:0:
288,132,47987,1,0,3:0:0:0:
308,89,48062,1,0,3:0:0:0:
345,60,48137,5,0,3:0:0:0:
366,72,48287,1,0,3:0:0:0:
151,120,48437,2,0,L|40:147,1,113.999996520996,8|0,0:0|0:0,0:0:0:0:
177,9,48737,2,0,L|150:120,1,113.999996520996,8|0,0:0|0:0,0:0:0:0:
116,264,49037,5,0,3:0:0:0:
104,243,49187,1,0,3:0:0:0:
287,227,49337,2,0,P|296:290|271:333,1,113.999996520996,8|0,0:0|0:0,0:0:0:0:
182,212,49637,2,0,P|231:237|286:226,1,113.999996520996,8|0,0:0|0:0,0:0:0:0:
465,58,49937,5,0,3:0:0:0:
384,4,50087,1,0,3:0:0:0:
439,152,50237,5,0,3:0:0:0:
465,58,50387,1,0,3:0:0:0:
342,157,50537,5,8,0:0:0:0:
439,152,50687,2,0,L|466:263,1,113.999996520996,2|0,3:2|0:0,0:0:0:0:
269,201,50987,2,0,L|242:312,1,113.999996520996,6|0,3:2|0:0,0:0:0:0:
156,161,51287,5,8,0:0:0:0:
387,85,51437,1,8,0:0:0:0:
320,345,51587,1,8,0:0:0:0:
185,49,51737,1,14,0:0:0:0:
185,49,52187,6,0,B|244:55|295:19|295:19|306:80|356:118,1,227.999993041992,6|0,3:2|3:0,0:0:0:0:
474,246,52637,2,0,B|417:233|417:233|375:270,1,113.999996520996,8|0,0:0|3:0,0:0:0:0:
392,354,52862,1,8,0:0:0:0:
392,354,52937,2,0,L|502:325,1,113.999996520996,0|0,3:0|3:0,0:0:0:0:
335,197,53237,1,8,0:0:0:0:
208,329,53387,6,0,B|251:321|280:283|280:283|225:152,1,227.999993041992,2|0,3:2|3:0,0:0:0:0:
77,83,53837,1,8,0:0:0:0:
309,12,53987,1,0,3:0:0:0:
298,53,54062,1,0,3:0:0:0:
287,94,54137,1,0,3:0:0:0:
123,11,54287,1,0,3:0:0:0:
383,54,54437,1,8,0:0:0:0:
121,158,54587,6,0,B|237:123|218:230|335:195,1,227.999993041992,6|0,3:2|3:0,0:0:0:0:
461,87,55037,1,8,0:0:0:0:
489,262,55187,1,0,3:0:0:0:
448,251,55262,1,0,3:0:0:0:
407,240,55337,1,0,3:0:0:0:
512,155,55487,1,0,3:0:0:0:
452,350,55637,6,0,B|414:338|414:338|416:333|416:333|414:338|414:338|378:329|378:329|326:341|326:341|287:326|287:326|284:331|284:331|287:326|287:326|255:313,1,227.999993041992,8|0,0:0|0:0,0:0:0:0:
121,158,56087,1,0,3:0:0:0:
31,367,56237,2,0,L|141:338,1,113.999996520996,8|0,0:0|3:0,0:0:0:0:
119,258,56462,1,0,3:0:0:0:
119,258,56537,2,0,P|63:252|16:283,1,113.999996520996,0|0,3:0|3:0,0:0:0:0:
255,313,56837,1,8,0:0:0:0:
187,42,56987,6,0,P|124:32|137:162,1,227.999993041992,6|0,3:2|3:0,0:0:0:0:
322,50,57437,1,8,0:0:0:0:
431,188,57587,1,0,3:0:0:0:
417,228,57662,1,8,3:0:0:0:
425,270,57737,2,0,P|430:325|399:372,1,113.999996520996,0|0,3:0|3:0,0:0:0:0:
211,240,58037,6,0,B|194:181|240:126|240:126|281:168|343:162,1,227.999993041992,8|0,0:0|0:0,0:0:0:0:
187,42,58487,1,0,3:0:0:0:
432,21,58637,2,0,L|322:50,1,113.999996520996,8|0,0:0|3:0,0:0:0:0:
387,230,58937,2,0,P|417:183|412:127,1,113.999996520996,0|0,3:0|3:0,0:0:0:0:
183,130,59237,1,8,0:0:0:0:
197,185,59312,1,8,0:0:0:0:
211,240,59387,1,8,3:0:0:0:
225,295,59462,1,8,3:0:0:0:
239,350,59537,5,8,0:0:0:0:
78,262,59687,2,0,P|101:246|127:233,1,56.9999982604981,0|0,3:0|3:0,0:0:0:0:
281,192,59837,5,8,0:0:0:0:
118,338,59987,1,0,3:0:0:0:
227,74,60137,5,8,0:0:0:0:
340,253,60287,2,0,L|450:224,1,113.999996520996,6|0,3:2|1:0,0:0:0:0:
325,25,60587,6,0,B|208:-9|227:97|110:62,1,227.999993041992,6|0,3:2|3:0,0:0:0:0:
18,196,61037,1,8,0:0:0:0:
237,261,61187,2,0,B|340:214|340:214|282:110,1,227.999993041992,6|0,3:2|3:0,0:0:0:0:
154,279,61637,1,8,0:0:0:0:
428,326,61787,6,0,B|365:354|365:354|237:261,1,227.999993041992,6|0,3:2|3:0,0:0:0:0:
181,198,62162,1,0,3:0:0:0:
176,173,62237,5,12,0:0:0:0:
24,344,62387,2,0,L|77:325,1,56.9999982604981,0|8,3:0|3:0,0:0:0:0:
237,261,62537,5,12,3:2:0:0:
46,167,62687,1,0,3:0:0:0:
319,160,62837,5,12,0:0:0:0:
173,334,62987,2,0,L|154:281,1,56.9999982604981,0|0,3:2|3:0,0:0:0:0:
98,89,63137,5,12,0:0:0:0:
321,257,63287,1,0,3:0:0:0:
77,324,63437,5,12,0:0:0:0:
232,31,63587,1,8,0:0:0:0:
362,331,63737,1,12,0:0:0:0:
311,341,63812,1,8,0:0:0:0:
269,324,63887,1,0,3:0:0:0:
245,293,63962,1,0,3:0:0:0:
237,261,64037,1,8,0:0:0:0:
434,180,64187,6,0,B|479:231|479:231|321:257,1,227.999993041992,14|8,0:0|0:0,0:0:0:0:
172,206,64637,1,8,0:0:0:0:
193,188,64712,1,0,3:0:0:0:
220,177,64787,1,0,3:0:0:0:
248,177,64862,1,0,3:0:0:0:
276,186,64937,5,8,0:0:0:0:
236,198,65012,1,0,3:0:0:0:
194,188,65087,1,0,3:0:0:0:
164,159,65162,1,0,3:0:0:0:
153,118,65237,1,8,0:0:0:0:
142,77,65312,1,0,3:0:0:0:
112,48,65387,1,0,3:0:0:0:
70,38,65462,1,0,3:0:0:0:
30,50,65537,5,8,3:0:0:0:
276,186,65687,1,8,3:0:0:0:
276,186,65987,5,8,3:0:0:0:
30,322,66137,1,8,3:0:0:0:
142,239,66287,1,0,3:0:0:0:
168,277,66362,1,0,3:0:0:0:
169,324,66437,1,8,3:0:0:0:
64,115,66587,6,0,B|2:76|-20:204|94:193|162:138,1,227.999993041992,6|0,3:2|3:0,0:0:0:0:
277,7,67037,1,8,0:0:0:0:
129,61,67187,1,0,3:0:0:0:
276,186,67337,2,0,L|305:296,1,113.999996520996,0|0,3:0|3:0,0:0:0:0:
157,141,67637,1,8,0:0:0:0:
366,75,67787,6,0,B|383:100|417:113|417:113|372:197|372:197|406:210|424:237,1,227.999993041992,2|0,3:2|3:0,0:0:0:0:
263,370,68237,1,8,0:0:0:0:
84,194,68387,1,0,3:0:0:0:
125,205,68462,1,0,3:0:0:0:
166,215,68537,2,0,L|276:186,1,113.999996520996,0|0,3:0|3:0,0:0:0:0:
121,320,68837,1,8,0:0:0:0:
261,102,68987,6,0,P|339:128|328:254,1,227.999993041992,6|0,3:2|3:0,0:0:0:0:
181,130,69437,1,8,0:0:0:0:
374,27,69587,1,0,3:0:0:0:
333,17,69662,1,0,3:0:0:0:
292,6,69737,2,0,B|251:46|251:46|260:101,1,113.999996520996,0|0,3:0|3:0,0:0:0:0:
457,43,70037,1,8,0:0:0:0:
466,286,70187,6,0,B|376:356|376:356|327:253,1,227.999993041992,2|0,3:2|3:0,0:0:0:0:
181,130,70637,1,8,0:0:0:0:
143,323,70787,1,0,3:0:0:0:
184,313,70862,1,0,3:0:0:0:
225,302,70937,2,0,L|254:192,1,113.999996520996,0|0,3:0|3:0,0:0:0:0:
100,106,71237,1,8,0:0:0:0:
327,253,71387,6,0,B|367:230|382:185|382:185|324:57,1,227.999993041992,6|0,3:2|3:0,0:0:0:0:
254,191,71837,1,8,0:0:0:0:
121,24,71987,1,0,3:0:0:0:
111,65,72062,1,8,3:0:0:0:
100,106,72137,2,0,L|210:77,1,113.999996520996,0|0,3:0|3:0,0:0:0:0:
455,129,72437,1,8,0:0:0:0:
383,305,72587,6,0,B|330:167|330:167|254:191,1,227.999993041992,2|0,3:2|3:0,0:0:0:0:
93,341,73037,5,8,0:0:0:0:
210,76,73187,1,0,3:0:0:0:
280,318,73337,5,0,3:0:0:0:
120,37,73487,1,0,3:0:0:0:
11,364,73637,1,8,0:0:0:0:
254,191,73787,6,0,B|371:157|352:263|469:228,1,227.999993041992,6|8,3:2|0:0,0:0:0:0:
290,52,74237,1,8,0:0:0:0:
213,266,74387,6,0,B|167:258|167:258|138:245|138:245|136:260|136:260|107:247|107:247|61:239,1,170.999994781494,6|0,3:2|0:0,0:0:0:0:
0,180,74687,6,0,P|51:231|16:319,1,170.999994781494,6|0,3:2|0:0,0:0:0:0:
111,162,74987,6,0,B|253:119|253:119|311:142|313:188,1,227.999993041992,6|0,3:2|3:0,0:0:0:0:
408,376,75437,1,8,0:0:0:0:
455,208,75587,2,0,B|410:172|401:109|401:109|361:162|297:173,1,227.999993041992,0|0,3:0|3:0,0:0:0:0:
420,25,76037,1,8,0:0:0:0:
368,241,76187,6,0,B|351:304|351:304|266:341|198:270,1,227.999993041992,6|0,3:2|3:0,0:0:0:0:
54,152,76637,2,0,P|105:176|131:226,1,113.999996520996,8|0,0:0|3:0,0:0:0:0:
125,312,76862,1,0,3:0:0:0:
125,312,76937,2,0,P|79:344|23:341,1,113.999996520996,0|0,3:0|3:0,0:0:0:0:
163,118,77237,1,8,0:0:0:0:
267,314,77387,6,0,P|304:163|323:86,1,227.999993041992,6|0,3:2|3:0,0:0:0:0:
190,199,77837,1,8,0:0:0:0:
359,295,77987,1,2,3:2:0:0:
401,294,78062,1,0,3:0:0:0:
436,270,78137,2,0,P|419:202|410:151,1,113.999996520996,0|0,3:0|3:0,0:0:0:0:
267,314,78437,1,8,0:0:0:0:
488,120,78587,6,0,B|371:86|390:192|273:157,1,227.999993041992,6|0,3:2|3:0,0:0:0:0:
125,37,79037,1,8,0:0:0:0:
5,185,79187,1,0,0:0:0:0:
153,305,79337,1,0,3:0:0:0:
274,157,79487,1,0,3:0:0:0:
5,185,79637,1,8,0:0:0:0:
309,235,79787,6,0,P|357:137|278:71,1,227.999993041992,6|0,3:2|3:0,0:0:0:0:
256,302,80237,2,0,P|308:321|361:303,1,113.999996520996,8|0,0:0|0:0,0:0:0:0:
429,250,80462,1,0,3:0:0:0:
429,250,80537,2,0,P|409:302|428:355,1,113.999996520996,0|0,3:0|3:0,0:0:0:0:
506,161,80837,1,8,0:0:0:0:
304,44,80987,6,0,B|268:65|247:108|247:108|309:235,1,227.999993041992,6|0,3:2|3:0,0:0:0:0:
115,278,81437,5,8,0:0:0:0:
347,118,81587,1,0,3:0:0:0:
91,66,81737,5,8,0:0:0:0:
385,195,81887,1,0,3:0:0:0:
42,321,82037,1,8,0:0:0:0:
242,63,82187,6,0,P|265:159|296:291,1,227.999993041992,4|8,3:2|3:0,0:0:0:0:
188,203,82637,1,0,3:0:0:0:
347,118,82787,1,8,0:0:0:0:
210,286,82937,1,8,0:0:0:0:
167,285,83012,1,8,0:0:0:0:
130,265,83087,1,8,0:0:0:0:
107,229,83162,1,8,0:0:0:0:
105,187,83237,1,8,0:0:0:0:
102,144,83312,1,8,0:0:0:0:
79,109,83387,1,8,0:0:0:0:
42,88,83462,1,8,0:0:0:0:
0,88,83537,6,0,B|49:138|49:138|203:87,1,227.999993041992,6|8,3:2|0:0,0:0:0:0:
380,21,83987,2,0,L|365:82,1,56.9999982604981,0|0,3:0|3:0,0:0:0:0:
402,215,84137,5,14,0:0:0:0:
220,172,84287,2,0,L|235:233,1,56.9999982604981,0|0,3:0|3:0,0:0:0:0:
198,88,84437,5,14,0:0:0:0:
390,21,84587,2,0,L|375:82,1,56.9999982604981,0|0,3:0|3:0,0:0:0:0:
412,215,84737,5,14,0:0:0:0:
230,172,84887,2,0,L|245:233,1,56.9999982604981,0|0,3:0|3:0,0:0:0:0:
208,88,85037,5,14,0:0:0:0:
400,21,85187,2,0,L|385:82,1,56.9999982604981,0|0,3:0|3:0,0:0:0:0:
422,215,85337,5,14,0:0:0:0:
240,172,85487,2,0,L|255:233,1,56.9999982604981,0|0,3:0|3:0,0:0:0:0:
218,88,85637,6,0,L|108:59,1,113.999996520996,14|0,0:0|0:0,0:0:0:0:
172,287,85937,5,6,3:2:0:0:
300,111,86087,1,8,0:0:0:0:
7,198,86237,1,8,0:0:0:0:
262,364,86387,1,8,0:0:0:0:
218,88,86537,1,8,0:0:0:0:
60,354,86687,1,10,0:0:0:0:
402,215,86837,1,8,0:0:0:0:
92,73,86987,6,0,L|126:241,1,170.999994781494,14|0,0:0|0:0,0:0:0:0:
198,292,87287,2,0,B|222:249|222:249|204:195,1,95,6|0,3:2|0:0,0:0:0:0:
207,206,88337,6,0,B|280:185|269:250|343:229,1,142.5,6|0,3:2|0:0,0:0:0:0:
418,192,88637,1,8,0:0:0:0:
164,280,88787,6,0,P|129:239|138:156,1,142.5,6|0,3:2|0:0,0:0:0:0:
216,121,89087,1,8,0:0:0:0:
304,335,89237,6,0,P|316:234|323:180,1,142.5,6|0,3:2|0:0,0:0:0:0:
381,132,89537,1,8,0:0:0:0:
249,43,89687,6,0,P|189:64|229:123,1,142.5,6|0,3:2|0:0,0:0:0:0:
300,111,89987,1,8,0:0:0:0:
111,31,90137,1,8,0:0:0:0:
195,291,90287,1,8,0:0:0:0:
358,49,90437,1,8,0:0:0:0:
40,126,90587,1,6,3:2:0:0:
40,126,90887,6,0,P|57:179|64:208,2,76,2|2|2,0:0|0:0|0:0,0:0:0:0:
95,60,91337,1,2,0:0:0:0:
172,97,91487,1,0,3:0:0:0:
193,128,91562,1,0,3:0:0:0:
193,165,91637,1,8,0:0:0:0:
31,278,91787,1,8,0:0:0:0:
207,328,91937,6,0,L|198:284,1,38,0|0,3:0|3:0,0:0:0:0:
115,295,92087,2,0,L|122:332,1,38,8|8,0:0|0:0,0:0:0:0:
292,324,92237,5,8,0:0:0:0:
284,286,92312,1,8,0:0:0:0:
276,249,92387,1,0,3:0:0:0:
269,212,92462,1,0,3:0:0:0:
261,175,92537,2,0,L|298:182,1,38,8|8,0:0|0:0,0:0:0:0:
232,94,92687,2,0,L|194:101,1,38,8|0,0:0|3:0,0:0:0:0:
287,29,92837,5,8,0:0:0:0:
61,155,92987,1,14,0:0:0:0:
