osu file format v14

[General]
AudioFilename: FormatFactory08_rzhfdjpjzht.mp3
AudioLeadIn: 0
PreviewTime: 57366
Countdown: 0
SampleSet: Soft
StackLeniency: 0.7
Mode: 0
LetterboxInBreaks: 0
WidescreenStoryboard: 1

[Editor]
Bookmarks: 323,86006,95947,110813,149169,194745
DistanceSpacing: 0.8
BeatDivisor: 4
GridSize: 32
TimelineZoom: 3.999998

[Metadata]
Title:Pandemic Sudden Death
TitleUnicode:パンデミックサドンデス
Artist:UNISON SQUARE GARDEN
ArtistUnicode:ユニゾン・スクエア・ガーデン
Creator:-NanoRIPE-
Version:Outbreak!
Source:
Tags:Dr Izzy ドクター・イジー Toys Factory USG
BeatmapID:1115968
BeatmapSetID:481622

[Difficulty]
HPDrainRate:7
CircleSize:4
OverallDifficulty:8.5
ApproachRate:9.5
SliderMultiplier:2
SliderTickRate:1

[Events]
//Background and Video events
0,0,"dark-anime-wallpaper-21.jpg",0,0
//Break Periods
//Storyboard Layer 0 (Background)
//Storyboard Layer 1 (Fail)
//Storyboard Layer 2 (Pass)
//Storyboard Layer 3 (Foreground)
//Storyboard Layer 4 (Overlay)
//Storyboard Sound Samples

[TimingPoints]
333,288.461538461538,4,2,1,60,1,0
333,-83.3333333333333,4,2,1,60,0,0
5813,-111.111111111111,4,2,1,60,0,0
6102,-83.3333333333333,4,2,1,50,0,0
6102,-71.4285714285714,4,2,1,50,0,0
6294,-62.5,4,2,1,50,0,0
6486,-83.3333333333333,4,2,1,60,0,0
6679,-71.4285714285714,4,2,1,50,0,0
6871,-100,4,2,1,60,0,0
7256,-83.3333333333333,4,2,1,60,0,0
8698,-71.4285714285714,4,2,1,60,0,0
8842,-62.5,4,2,1,60,0,0
8986,-55.5555555555556,4,2,1,60,0,0
9275,-133.333333333333,4,2,1,60,0,0
9563,-83.3333333333333,4,2,1,70,0,0
10140,-71.4285714285714,4,2,1,70,0,0
10573,-83.3333333333333,4,2,1,70,0,0
14756,-71.4285714285714,4,2,1,70,0,0
15188,-83.3333333333333,4,2,1,70,0,0
18794,-111.111111111111,4,2,1,50,0,0
20813,-142.857142857143,4,2,1,50,0,0
21679,-111.111111111111,4,2,1,50,0,0
23121,-142.857142857143,4,2,1,50,0,0
24131,-111.111111111111,4,2,1,50,0,0
25429,-142.857142857143,4,2,1,50,0,0
28025,-111.111111111111,4,2,1,55,0,0
30044,-142.857142857143,4,2,1,50,0,0
30332,-111.111111111111,4,2,1,55,0,0
37111,-125,4,2,1,45,0,0
37544,-166.666666666667,4,2,1,45,0,0
37832,-125,4,2,1,45,0,0
38121,-166.666666666667,4,2,1,45,0,0
38409,-125,4,2,1,45,0,0
38698,-166.666666666667,4,2,1,45,0,0
38986,-125,4,2,1,45,0,0
39275,-166.666666666667,4,2,1,45,0,0
39563,-125,4,2,1,45,0,0
39852,-166.666666666667,4,2,1,45,0,0
40140,-125,4,2,1,45,0,0
40429,-166.666666666667,4,2,1,45,0,0
40717,-125,4,2,1,45,0,0
41006,-166.666666666667,4,2,1,45,0,0
41294,-125,4,2,1,45,0,0
41582,-166.666666666667,4,2,1,45,0,0
41870,-125,4,2,1,45,0,0
42159,-166.666666666667,4,2,1,45,0,0
42447,-125,4,2,1,45,0,0
42736,-166.666666666667,4,2,1,45,0,0
43024,-125,4,2,1,45,0,0
43313,-166.666666666667,4,2,1,45,0,0
43601,-125,4,2,1,45,0,0
43890,-166.666666666667,4,2,1,45,0,0
44178,-125,4,2,1,45,0,0
44467,-166.666666666667,4,2,1,45,0,0
44755,-125,4,2,1,45,0,0
45044,-166.666666666667,4,2,1,45,0,0
45332,-125,4,2,1,45,0,0
45621,-166.666666666667,4,2,1,45,0,0
45909,-125,4,2,1,45,0,0
46198,-166.666666666667,4,2,1,45,0,0
46775,-111.111111111111,4,2,1,45,0,0
47063,-166.666666666667,4,2,1,45,0,0
47352,-111.111111111111,4,2,1,45,0,0
47640,-166.666666666667,4,2,1,45,0,0
47929,-111.111111111111,4,2,1,45,0,0
48217,-166.666666666667,4,2,1,45,0,0
48506,-111.111111111111,4,2,1,45,0,0
48794,-166.666666666667,4,2,1,45,0,0
49082,-111.111111111111,4,2,1,45,0,0
49370,-83.3333333333334,4,2,1,45,0,0
51102,-83.3333333333333,4,2,1,60,0,0
55717,-83.3333333333333,4,2,1,60,0,0
56582,-50,4,2,1,60,0,0
56871,-200,4,2,1,60,0,0
57448,-500,4,2,1,60,0,0
58025,-76.9230769230769,4,2,1,70,0,1
62496,-100,4,2,1,70,0,1
63794,-90.9090909090909,4,2,1,70,0,1
64371,-83.3333333333333,4,2,1,70,0,1
64948,-76.9230769230769,4,2,1,70,0,1
67111,-100,4,2,1,60,0,0
71727,-83.3333333333333,4,2,1,70,0,1
80957,-100,4,2,1,60,0,0
88025,-83.3333333333333,4,2,1,70,0,1
92496,-100,4,2,1,60,0,0
95957,-100,4,2,1,50,0,0
97832,-125,4,2,1,60,0,0
98409,-111.111111111111,4,2,1,55,0,0
107063,-333.333333333333,4,2,1,55,0,0
107640,-100,4,2,1,60,0,0
116871,-100,4,2,1,70,0,1
125957,-100,4,2,1,60,0,0
130573,-100,4,2,1,70,0,1
139804,-100,4,2,1,60,0,0
144563,-100,4,2,1,50,0,0
149179,-100,4,2,1,55,0,0
163025,-100,4,2,1,65,0,0
181342,-100,4,2,1,55,0,0
186102,-100,4,2,1,60,0,0
190717,-100,4,2,1,60,0,0
192448,288.461538461538,4,2,1,60,1,0
203986,-100,4,2,1,50,0,0
210909,-100,4,2,1,60,0,0
213217,-100,4,2,1,70,0,1
222303,-100,4,2,1,60,0,0
226919,-100,4,2,1,70,0,1
236149,-100,4,2,1,60,0,0
243217,-100,4,2,1,60,0,0
247544,-100,4,2,1,60,0,0
247832,-100,4,2,1,60,0,0
252447,-100,4,2,1,60,0,0
253457,-100,4,2,1,60,0,0
258361,-100,4,2,1,50,0,0
259371,-100,4,2,1,60,0,0
263986,-100,4,2,1,60,0,0
266005,-100,4,2,1,60,0,0

[Colours]
Combo1 : 192,192,192
Combo2 : 59,59,59
Combo3 : 128,128,128
Combo4 : 255,255,0

[HitObjects]
61,76,333,6,0,P|68:108|73:142,1,59.9999981689454
32,68,765,1,0,0:0:0:0:
49,56,837,1,0,0:0:0:0:
70,57,909,1,0,0:0:0:0:
147,99,1054,1,0,0:0:0:0:
384,55,1198,6,0,P|342:41|318:33,1,59.9999981689454
147,99,1342,6,0,B|253:87|203:32|321:25,1,179.999994506836
384,55,1631,1,0,0:0:0:0:
379,78,1703,1,0,0:0:0:0:
375,102,1775,1,0,0:0:0:0:
172,308,1919,5,0,0:0:0:0:
168,284,1991,1,0,0:0:0:0:
153,264,2063,5,0,0:0:0:0:
185,245,2135,1,0,0:0:0:0:
222,243,2207,1,0,0:0:0:0:
255,258,2279,1,0,0:0:0:0:
279,282,2351,1,0,0:0:0:0:
294,296,2424,1,0,0:0:0:0:
318,303,2496,1,0,0:0:0:0:
342,302,2568,1,0,0:0:0:0:
373,285,2640,6,0,P|378:254|385:223,1,59.9999981689454
396,312,3073,1,0,0:0:0:0:
366,318,3145,1,0,0:0:0:0:
341,303,3217,1,0,0:0:0:0:
282,228,3361,1,0,0:0:0:0:
65,235,3506,6,0,P|105:236|139:239,1,59.9999981689454
291,143,3650,6,0,B|185:144|246:218|95:208,1,179.999994506836
53,203,3938,5,0,0:0:0:0:
151,124,4082,1,0,0:0:0:0:
42,75,4227,1,0,0:0:0:0:
42,75,4299,1,0,0:0:0:0:
42,75,4371,5,0,0:0:0:0:
243,110,4515,1,0,0:0:0:0:
292,291,4659,5,0,0:0:0:0:
384,273,4804,1,0,0:0:0:0:
459,42,4948,6,0,P|446:90|435:129,1,59.9999981689454
491,24,5381,1,0,0:0:0:0:
464,9,5453,1,0,0:0:0:0:
436,13,5525,1,0,0:0:0:0:
368,72,5669,1,0,0:0:0:0:
274,32,5813,6,0,P|280:3|285:-14,2,44.999998626709
192,233,6102,6,0,P|239:216|278:188,1,79.9999975585938
352,285,6294,2,0,P|304:244|247:236,1,106.666666666667
141,253,6486,6,0,P|201:252|256:279,1,79.9999975585938
418,219,6679,2,0,P|362:247|317:247,1,93.3333304850261
82,232,6871,6,0,P|141:218|176:197,1,66.6666666666667
457,299,7063,2,0,P|405:269|355:271,1,66.6666666666667
19,265,7256,6,0,P|63:257|95:253,1,59.9999981689454
0,291,7977,5,0,0:0:0:0:
69,276,8049,1,0,0:0:0:0:
140,263,8121,1,0,0:0:0:0:
140,263,8554,6,0,P|153:205|158:172,1,59.9999981689454
286,60,8698,2,0,P|273:118|268:151,1,69.9999978637696
64,363,8842,6,0,P|54:316|39:264,1,80
169,12,8986,2,0,P|179:59|194:111,1,80
486,375,9275,6,0,P|465:328|392:325,1,112.500004291535
344,367,9563,6,0,P|287:352|224:338,1,119.999996337891
65,160,9852,1,0,0:0:0:0:
65,160,9996,1,0,0:0:0:0:
0,372,10140,2,0,B|78:340|32:314|114:283,1,139.999995727539
277,185,10429,2,0,P|248:180|205:138,1,69.9999978637696
50,57,10573,6,0,B|149:57|108:141|238:125,1,179.999994506836
281,81,10861,1,0,0:0:0:0:
260,59,10933,1,0,0:0:0:0:
233,46,11005,1,0,0:0:0:0:
65,160,11150,1,0,0:0:0:0:
239,380,11294,5,0,0:0:0:0:
256,302,11438,1,0,0:0:0:0:
104,239,11582,1,0,0:0:0:0:
87,317,11726,1,0,0:0:0:0:
322,358,11871,6,0,P|388:336|438:329,1,119.999996337891
208,127,12159,2,0,P|148:117|92:98,1,119.999996337891
314,343,12448,2,0,P|380:321|430:314,1,119.999996337891
199,110,12736,1,0,0:0:0:0:
340,46,12881,6,0,P|311:127|284:270,1,179.999994506836
302,303,13169,1,0,0:0:0:0:
302,303,13241,1,0,0:0:0:0:
302,303,13313,1,0,0:0:0:0:
251,32,13457,1,0,0:0:0:0:
489,248,13602,5,0,0:0:0:0:
411,271,13746,1,0,0:0:0:0:
340,46,13890,1,0,0:0:0:0:
418,23,14034,1,0,0:0:0:0:
222,265,14179,6,0,P|151:253|110:193,1,119.999996337891
15,3,14467,2,0,P|86:15|127:75,1,119.999996337891
61,286,14756,2,0,P|35:218|69:148,1,139.999995727539
345,168,15044,2,0,P|323:184|276:196,1,69.9999978637696
117,48,15188,6,0,B|214:50|171:122|300:113,1,179.999994506836
346,69,15477,1,0,0:0:0:0:
326,46,15549,1,0,0:0:0:0:
298,35,15621,1,0,0:0:0:0:
210,182,15765,1,0,0:0:0:0:
469,353,15909,5,0,0:0:0:0:
488,275,16054,1,0,0:0:0:0:
294,301,16198,1,0,0:0:0:0:
275,379,16343,1,0,0:0:0:0:
508,200,16486,5,0,0:0:0:0:
508,200,16631,1,0,0:0:0:0:
276,90,16775,2,0,P|305:159|318:222,1,119.999996337891
502,11,17063,2,0,P|473:67|462:140,1,119.999996337891
154,12,17352,2,0,P|179:54|186:91,1,59.9999981689454
96,231,17496,6,0,B|60:225|60:182|60:182|106:50,1,179.999994506836
154,12,17784,5,0,0:0:0:0:
211,180,17929,1,0,0:0:0:0:
272,352,18073,1,0,0:0:0:0:
241,100,18217,5,0,0:0:0:0:
331,121,18361,1,0,0:0:0:0:
181,270,18506,1,0,0:0:0:0:
91,249,18650,1,0,0:0:0:0:
2,46,18794,5,0,0:0:0:0:
52,37,18866,1,0,0:0:0:0:
105,30,18938,1,0,0:0:0:0:
156,22,19010,1,0,0:0:0:0:
208,15,19082,1,0,0:0:0:0:
208,15,19371,5,0,0:0:0:0:
282,59,19515,2,0,P|270:110|261:152,1,89.9999972534181
70,312,19804,5,0,0:0:0:0:
86,229,20092,1,0,0:0:0:0:
373,285,20381,5,0,0:0:0:0:
389,368,20669,1,0,0:0:0:0:
453,166,20813,6,0,P|459:112|469:49,1,104.999996795654
498,44,21102,5,0,0:0:0:0:
448,35,21174,1,0,0:0:0:0:
395,28,21246,1,0,0:0:0:0:
344,20,21318,1,0,0:0:0:0:
292,13,21390,1,0,0:0:0:0:
292,13,21679,5,0,0:0:0:0:
230,74,21823,2,0,P|189:91|141:103,1,89.9999972534181
32,343,22111,5,0,0:0:0:0:
106,307,22400,1,0,0:0:0:0:
461,271,22688,5,0,0:0:0:0:
383,238,22977,1,0,0:0:0:0:
241,15,23121,6,0,P|249:67|259:146,1,104.999996795654
244,194,23409,5,0,0:0:0:0:
265,367,23554,1,0,0:0:0:0:
273,12,23698,5,0,0:0:0:0:
273,12,23986,1,0,0:0:0:0:
351,64,24131,2,0,P|421:52|465:41,1,89.9999972534181
130,132,24419,6,0,B|118:120|118:120|130:113|130:113|152:136,3,44.999998626709
73,185,24707,2,0,B|85:197|85:197|73:204|73:204|51:181,3,44.999998626709
33,110,24996,1,0,0:0:0:0:
33,110,25068,1,0,0:0:0:0:
33,110,25140,1,0,0:0:0:0:
168,213,25284,1,0,0:0:0:0:
375,61,25429,6,0,P|320:53|247:35,1,104.999996795654
241,22,25717,5,0,0:0:0:0:
461,85,25861,1,0,0:0:0:0:
79,36,26006,5,0,0:0:0:0:
79,36,26294,5,0,0:0:0:0:
218,101,26438,1,0,0:0:0:0:
121,120,26582,1,0,0:0:0:0:
258,335,26727,5,0,0:0:0:0:
175,349,26871,1,0,0:0:0:0:
201,271,27015,1,0,0:0:0:0:
421,364,27159,5,0,0:0:0:0:
428,286,27304,1,0,0:0:0:0:
393,288,27376,1,0,0:0:0:0:
364,308,27448,1,0,0:0:0:0:
427,377,27592,1,0,0:0:0:0:
482,220,27736,1,0,0:0:0:0:
482,220,28025,5,0,0:0:0:0:
490,170,28097,1,0,0:0:0:0:
497,117,28169,1,0,0:0:0:0:
505,66,28241,1,0,0:0:0:0:
512,14,28313,1,0,0:0:0:0:
512,14,28602,6,0,P|466:34|411:32,1,89.9999972534181
342,0,28890,1,0,0:0:0:0:
141,121,29034,2,0,P|199:112|254:103,1,89.9999972534181
276,188,29323,2,0,P|218:197|163:206,1,89.9999972534181
443,373,29611,2,0,P|456:317|470:278,1,89.9999972534181
419,206,29900,1,0,0:0:0:0:
166,372,30044,6,0,P|121:362|56:347,1,104.999996795654
30,366,30332,5,0,0:0:0:0:
22,316,30404,1,0,0:0:0:0:
15,263,30476,1,0,0:0:0:0:
7,212,30548,1,0,0:0:0:0:
0,160,30620,1,0,0:0:0:0:
0,160,30909,6,0,P|51:169|98:168,1,89.9999972534181
153,103,31198,1,0,0:0:0:0:
411,254,31342,2,0,P|404:301|399:348,1,89.9999972534181
303,365,31631,1,0,0:0:0:0:
461,126,31775,5,0,0:0:0:0:
449,40,31919,1,0,0:0:0:0:
303,208,32063,1,0,0:0:0:0:
291,122,32207,1,0,0:0:0:0:
485,309,32352,1,0,0:0:0:0:
360,56,32496,6,0,B|320:18|271:28|271:28|240:67|186:66,1,179.999994506836
22,202,32929,2,0,P|75:177|125:181,1,89.9999972534181
239,363,33217,1,0,0:0:0:0:
239,363,33361,1,0,0:0:0:0:
68,372,33506,2,0,P|72:313|101:272,1,89.9999972534181
114,264,33722,1,0,0:0:0:0:
114,264,33794,6,0,P|212:276|289:286,1,134.999995880127
315,326,34082,2,0,P|333:273|349:236,1,89.9999972534181
496,376,34371,1,0,0:0:0:0:
496,376,34515,1,0,0:0:0:0:
481,155,34659,2,0,P|463:196|449:239,1,89.9999972534181
452,274,34876,1,0,0:0:0:0:
452,274,34948,6,0,B|342:280|415:345|261:334,1,179.999994506836
158,169,35381,2,0,P|227:162|302:254,1,179.999994506836
32,363,35813,2,0,P|24:328|20:300,3,44.999998626709
39,294,36102,5,0,0:0:0:0:
374,354,36246,1,0,0:0:0:0:
195,369,36390,5,0,0:0:0:0:
195,369,36679,1,0,0:0:0:0:
285,313,36823,2,0,P|298:240|330:158,1,134.999995880127
385,122,37111,6,0,B|377:163|335:163|335:163|215:137,1,160
19,11,37544,6,0,P|31:63|41:123,1,89.9999972534181
136,190,37832,2,0,P|124:138|114:78,1,80
450,106,38121,6,0,P|438:158|428:218,1,89.9999972534181
344,218,38409,2,0,P|356:166|366:106,1,80
15,182,38698,6,0,P|27:234|37:294,1,89.9999972534181
132,361,38986,2,0,P|120:309|110:249,1,80
494,252,39275,6,0,P|482:304|472:364,1,89.9999972534181
406,381,39563,6,0,P|381:357|327:350,1,80
38,322,39852,6,0,P|82:312|122:268,1,89.9999972534181
33,130,40140,2,0,P|33:173|-8:218,1,80
337,348,40429,6,0,P|303:317|291:259,1,89.9999972534181
392,197,40717,2,0,P|370:234|383:293,1,80
13,203,41006,6,0,P|56:216|112:198,1,89.9999972534181
104,34,41294,2,0,P|82:71|24:89,1,80
371,270,41582,6,0,P|357:226|375:170,1,89.9999972534181
512,234,41871,6,0,P|479:227|439:219,1,80
293,14,42159,6,0,P|349:7|399:-7,1,89.9999972534181
512,63,42448,2,0,P|456:70|406:84,1,80
208,328,42736,6,0,P|264:335|314:349,1,89.9999972534181
371,270,43025,2,0,P|315:263|265:249,1,80
74,63,43313,6,0,P|130:70|180:84,1,89.9999972534181
293,14,43602,2,0,P|237:7|187:-7,1,80
119,343,43890,6,0,P|175:336|225:322,1,89.9999972534181
333,300,44179,6,0,P|307:320|284:390,1,80
53,217,44467,6,0,P|39:161|-4:128,1,89.9999972534181
114,323,44756,2,0,P|83:349|69:421,1,80
412,214,45044,6,0,P|452:172|505:165,1,89.9999972534181
323,223,45333,2,0,P|336:261|312:330,1,80
71,103,45621,6,0,P|86:47|66:-2,1,89.9999972534181
123,186,45910,2,0,P|83:193|35:248,1,80
398,25,46198,6,0,P|424:31|447:37,1,29.9999990844727
450,36,46342,2,0,P|476:42|499:48,1,29.9999990844727
501,192,46486,6,0,B|486:216|463:213|463:213|405:193,1,89.9999972534181
421,198,46775,2,0,P|431:273|443:367,1,134.999995880127
242,345,47063,6,0,B|227:321|204:324|204:324|146:344,1,89.9999972534181
162,338,47352,2,0,P|171:263|183:169,1,134.999995880127
135,125,47640,6,0,B|120:149|97:146|97:146|39:126,1,89.9999972534181
56,132,47929,2,0,P|65:206|77:300,1,134.999995880127
260,274,48217,6,0,B|275:250|298:253|298:253|356:273,1,89.9999972534181
339,267,48506,2,0,P|329:192|317:98,1,134.999995880127
412,7,48794,6,0,P|476:20|511:25,1,89.9999972534181
500,23,49082,2,0,P|445:37|429:130,1,134.999995880127
479,359,49371,6,0,B|502:298|502:298|478:256|478:256|503:174,1,179.999994506836
506,177,49659,1,0,0:0:0:0:
407,307,49804,1,0,0:0:0:0:
174,128,49948,6,0,P|193:170|203:222,1,79.9999975585938
261,269,50140,2,0,P|278:233|288:195,1,79.9999975585938
227,90,50332,6,0,P|208:132|198:184,1,79.9999975585938
307,311,50525,2,0,P|290:274|280:236,1,79.9999975585938
169,42,50717,6,0,P|188:84|198:136,1,79.9999975585938
248,352,50909,2,0,P|257:313|274:277,1,79.9999975585938
500,26,51102,6,0,B|439:32|439:32|424:86|424:86|345:96,1,179.999994506836
338,78,51390,5,0,0:0:0:0:
280,236,51534,1,0,0:0:0:0:
258,55,51679,5,0,0:0:0:0:
365,208,51823,1,0,0:0:0:0:
316,0,51967,5,0,0:0:0:0:
198,206,52111,1,0,0:0:0:0:
443,179,52256,5,0,0:0:0:0:
453,176,52544,5,0,0:0:0:0:
227,130,52688,1,0,0:0:0:0:
490,100,52832,5,0,0:0:0:0:
198,206,52977,1,0,0:0:0:0:
482,262,53121,5,0,0:0:0:0:
258,55,53265,1,0,0:0:0:0:
212,357,53409,5,0,0:0:0:0:
216,368,53698,5,0,0:0:0:0:
307,121,53842,1,0,0:0:0:0:
132,351,53986,5,0,0:0:0:0:
343,200,54131,1,0,0:0:0:0:
101,96,54275,1,0,0:0:0:0:
332,342,54419,6,0,B|441:329|381:264|486:247,1,179.999994506836
499,253,54707,1,0,0:0:0:0:
216,368,54852,5,0,0:0:0:0:
240,235,54996,1,0,0:0:0:0:
250,263,55068,1,0,0:0:0:0:
256,288,55140,1,0,0:0:0:0:
289,160,55284,1,0,0:0:0:0:
212,383,55429,1,0,0:0:0:0:
212,383,55717,5,0,0:0:0:0:
261,375,55789,1,0,0:0:0:0:
310,367,55861,1,0,0:0:0:0:
360,359,55933,1,0,0:0:0:0:
409,349,56006,2,0,P|418:293|420:278,1,59.9999981689454
270,200,56149,5,0,0:0:0:0:
203,189,56221,1,0,0:0:0:0:
139,178,56293,1,0,0:0:0:0:
73,167,56365,1,0,0:0:0:0:
8,154,56438,2,0,P|-3:78|-6:65,1,59.9999981689454
281,3,56582,6,0,P|261:126|251:309,1,300
256,378,56871,6,0,P|262:339|279:278,1,100
479,8,57448,6,0,P|485:42|490:80,1,70
497,92,58025,6,0,P|432:77|360:59,1,129.999994049073
200,213,58313,1,0,0:0:0:0:
0,127,58457,2,0,P|67:110|136:94,1,129.999994049073
293,293,58746,1,0,0:0:0:0:
225,65,58890,1,0,0:0:0:0:
72,246,59034,1,0,0:0:0:0:
313,43,59179,5,0,0:0:0:0:
313,43,59323,1,0,0:0:0:0:
416,249,59467,1,0,0:0:0:0:
223,166,59611,1,0,0:0:0:0:
223,166,59683,1,0,0:0:0:0:
223,166,59756,2,0,P|166:160|62:148,1,129.999994049073
407,103,60044,2,0,P|396:142|390:185,1,64.9999970245363
417,336,60188,6,0,B|315:339|359:251|244:254,1,194.999991073609
233,273,60477,5,0,0:0:0:0:
416,249,60621,1,0,0:0:0:0:
172,195,60765,5,0,0:0:0:0:
391,166,60909,1,0,0:0:0:0:
214,106,61054,5,0,0:0:0:0:
397,82,61198,1,0,0:0:0:0:
161,27,61342,1,0,0:0:0:0:
161,27,61414,1,0,0:0:0:0:
161,27,61486,5,0,0:0:0:0:
239,309,61631,2,0,P|259:210|281:161,1,129.999994049073
490,335,61919,1,0,0:0:0:0:
490,335,61991,1,0,0:0:0:0:
490,335,62063,2,0,P|393:313|332:298,1,129.999994049073
91,227,62352,2,0,P|151:213|171:205,1,64.9999970245363
353,153,62496,6,0,P|281:140|203:95,1,150
205,78,62784,1,0,0:0:0:0:
463,83,62929,2,0,P|445:154|434:207,1,100
329,250,63145,1,0,0:0:0:0:
329,250,63217,2,0,P|347:179|358:126,1,100
511,261,63506,2,0,P|493:332|482:385,1,100
224,193,63794,6,0,B|140:198|183:259|70:269,1,165.000005035401
10,223,64082,2,0,P|23:166|39:91,1,110.000003356934
352,152,64371,6,0,P|365:209|381:284,1,119.999996337891
120,15,64659,2,0,P|133:72|149:147,1,119.999996337891
450,310,64948,6,0,P|446:342|444:375,1,64.9999970245363
512,239,65092,1,0,0:0:0:0:
467,219,65164,1,0,0:0:0:0:
419,224,65236,2,0,P|423:191|425:159,1,64.9999970245363
220,369,65381,5,0,0:0:0:0:
266,380,65453,1,0,0:0:0:0:
313,367,65525,1,0,0:0:0:0:
347,333,65597,1,0,0:0:0:0:
361,287,65669,2,0,P|356:319|354:351,1,64.9999970245363
195,119,65813,5,0,0:0:0:0:
241,107,65885,1,0,0:0:0:0:
288,120,65957,1,0,0:0:0:0:
322,154,66029,1,0,0:0:0:0:
336,201,66102,2,0,P|340:168|342:136,1,64.9999970245363
135,348,66246,5,0,0:0:0:0:
181,359,66318,1,0,0:0:0:0:
228,346,66390,1,0,0:0:0:0:
262,312,66462,1,0,0:0:0:0:
276,266,66534,2,0,P|271:298|269:330,1,64.9999970245363
35,99,66679,5,0,0:0:0:0:
116,67,66823,1,0,0:0:0:0:
152,150,66967,1,0,0:0:0:0:
57,205,67111,6,0,P|145:192|275:177,1,200
465,87,67544,5,0,0:0:0:0:
389,54,67688,1,0,0:0:0:0:
435,254,67832,5,0,0:0:0:0:
467,177,67976,1,0,0:0:0:0:
391,144,68121,1,0,0:0:0:0:
253,243,68265,6,0,P|316:245|359:217,1,100
509,365,68554,1,0,0:0:0:0:
509,365,68698,2,0,P|463:344|414:350,1,100
387,371,68914,1,0,0:0:0:0:
387,371,68986,1,0,0:0:0:0:
467,177,69131,1,0,0:0:0:0:
253,243,69275,1,0,0:0:0:0:
345,283,69419,1,0,0:0:0:0:
345,283,69491,1,0,0:0:0:0:
345,283,69563,6,0,P|357:220|365:181,1,100
162,38,69852,5,0,0:0:0:0:
70,62,69996,1,0,0:0:0:0:
70,62,70068,1,0,0:0:0:0:
70,62,70140,1,0,0:0:0:0:
202,116,70284,1,0,0:0:0:0:
148,248,70429,1,0,0:0:0:0:
109,155,70573,1,0,0:0:0:0:
314,234,70717,5,0,0:0:0:0:
363,225,70789,1,0,0:0:0:0:
412,218,70861,1,0,0:0:0:0:
462,212,70933,1,0,0:0:0:0:
512,206,71006,6,0,P|500:252|490:298,1,50
297,137,71150,2,0,P|290:112|284:88,1,50
67,220,71294,5,0,0:0:0:0:
498,176,71438,1,0,0:0:0:0:
67,220,71727,6,0,P|135:218|186:329,1,179.999994506836
151,375,72015,1,0,0:0:0:0:
151,375,72087,1,0,0:0:0:0:
151,375,72159,1,0,0:0:0:0:
209,163,72304,1,0,0:0:0:0:
376,324,72448,1,0,0:0:0:0:
376,324,72592,1,0,0:0:0:0:
296,276,72736,1,0,0:0:0:0:
345,202,72881,1,0,0:0:0:0:
176,44,73025,5,0,0:0:0:0:
410,84,73169,2,0,P|357:99|291:123,1,119.999996337891
63,32,73457,1,0,0:0:0:0:
63,32,73530,1,0,0:0:0:0:
63,32,73602,2,0,P|87:91|90:153,1,119.999996337891
60,373,73890,2,0,P|84:324|119:297,1,59.9999981689454
278,275,74034,6,0,P|216:294|135:214,1,179.999994506836
156,201,74323,5,0,0:0:0:0:
208,379,74467,1,0,0:0:0:0:
231,146,74611,6,0,P|246:191|258:232,1,59.9999981689454
297,380,74756,1,0,0:0:0:0:
332,197,74900,5,0,0:0:0:0:
384,375,75044,1,0,0:0:0:0:
413,154,75188,1,0,0:0:0:0:
413,154,75260,1,0,0:0:0:0:
413,154,75332,5,0,0:0:0:0:
187,286,75477,2,0,P|116:264|60:247,1,119.999996337891
232,17,75765,1,0,0:0:0:0:
232,17,75837,1,0,0:0:0:0:
232,17,75909,2,0,P|247:47|221:137,1,119.999996337891
76,348,76198,1,0,0:0:0:0:
65,157,76342,6,0,P|163:187|241:211,1,179.999994506836
254,235,76631,1,0,0:0:0:0:
496,114,76775,2,0,P|478:169|466:230,1,119.999996337891
356,264,76991,1,0,0:0:0:0:
356,264,77063,2,0,P|374:209|386:148,1,119.999996337891
166,14,77352,2,0,P|148:69|136:130,1,119.999996337891
186,198,77568,1,0,0:0:0:0:
186,198,77640,6,0,P|225:150|228:82,1,119.999996337891
433,316,77929,2,0,P|336:299|248:283,1,179.999994506836
188,334,78217,6,0,P|119:348|37:363,1,119.999996337891
425,175,78506,2,0,P|356:189|274:204,1,119.999996337891
43,66,78794,5,0,0:0:0:0:
127,32,78938,1,0,0:0:0:0:
219,205,79082,5,0,0:0:0:0:
188,334,79227,1,0,0:0:0:0:
117,122,79371,5,0,0:0:0:0:
266,284,79515,1,0,0:0:0:0:
137,255,79659,1,0,0:0:0:0:
198,84,79804,5,0,0:0:0:0:
360,296,79948,2,0,P|426:283|482:258,1,119.999996337891
117,122,80236,2,0,P|51:109|-5:84,1,119.999996337891
317,26,80525,1,0,0:0:0:0:
304,66,80597,1,0,0:0:0:0:
293,106,80669,1,0,0:0:0:0:
182,0,80813,1,0,0:0:0:0:
450,113,80957,6,0,B|348:118|404:194|275:200,1,200
101,347,81390,5,0,0:0:0:0:
193,326,81534,1,0,0:0:0:0:
193,326,81607,1,0,0:0:0:0:
193,326,81679,1,0,0:0:0:0:
164,236,81823,1,0,0:0:0:0:
8,325,81967,1,0,0:0:0:0:
10,144,82111,1,0,0:0:0:0:
60,233,82256,5,0,0:0:0:0:
156,46,82400,2,0,P|126:106|114:154,1,100
256,256,82688,1,0,0:0:0:0:
256,256,82760,1,0,0:0:0:0:
256,256,82832,1,0,0:0:0:0:
241,107,82977,2,0,P|223:137|202:183,1,50
289,344,83121,1,0,0:0:0:0:
306,168,83265,1,0,0:0:0:0:
146,254,83409,5,0,0:0:0:0:
64,235,83554,1,0,0:0:0:0:
198,34,83698,5,0,0:0:0:0:
216,150,83842,1,0,0:0:0:0:
216,150,83914,1,0,0:0:0:0:
216,150,83986,2,0,P|151:124|104:109,1,100
309,18,84275,1,0,0:0:0:0:
442,192,84419,6,0,B|457:183|463:163|463:163|453:141|445:92,1,100
301,109,84707,5,0,0:0:0:0:
314,195,84852,1,0,0:0:0:0:
407,16,84996,1,0,0:0:0:0:
208,19,85140,1,0,0:0:0:0:
208,19,85284,1,0,0:0:0:0:
385,144,85429,1,0,0:0:0:0:
183,239,85573,1,0,0:0:0:0:
183,239,85645,1,0,0:0:0:0:
183,239,85717,6,0,P|121:216|70:213,1,100
38,98,86006,2,0,P|100:121|151:124,1,100
162,124,86222,1,0,0:0:0:0:
162,124,86294,2,0,P|185:57|201:15,1,100
385,144,86582,2,0,P|362:211|346:253,1,100
350,269,86799,1,0,0:0:0:0:
350,269,86871,5,0,0:0:0:0:
472,179,87015,1,0,0:0:0:0:
260,113,87159,5,0,0:0:0:0:
448,270,87304,1,0,0:0:0:0:
452,89,87448,5,0,0:0:0:0:
257,262,87592,1,0,0:0:0:0:
500,348,87736,5,0,0:0:0:0:
350,60,87881,1,0,0:0:0:0:
36,349,88025,6,0,B|86:338|86:338|103:250|103:250|143:240,1,179.999994506836
166,224,88313,5,0,0:0:0:0:
346,260,88457,1,0,0:0:0:0:
136,139,88602,5,0,0:0:0:0:
257,262,88746,1,0,0:0:0:0:
202,82,88890,5,0,0:0:0:0:
181,314,89034,1,0,0:0:0:0:
285,110,89179,5,0,0:0:0:0:
91,287,89323,1,0,0:0:0:0:
346,260,89467,5,0,0:0:0:0:
136,139,89611,1,0,0:0:0:0:
305,335,89756,5,0,0:0:0:0:
202,82,89900,1,0,0:0:0:0:
230,384,90044,5,0,0:0:0:0:
366,141,90188,1,0,0:0:0:0:
66,200,90332,5,0,0:0:0:0:
52,204,90621,5,0,0:0:0:0:
357,130,90765,1,0,0:0:0:0:
95,289,90909,5,0,0:0:0:0:
287,76,91054,1,0,0:0:0:0:
181,328,91198,5,0,0:0:0:0:
222,17,91342,1,0,0:0:0:0:
271,314,91486,5,0,0:0:0:0:
140,44,91631,1,0,0:0:0:0:
353,271,91775,5,0,0:0:0:0:
61,76,91919,1,0,0:0:0:0:
399,350,92063,5,0,0:0:0:0:
256,13,92207,1,0,0:0:0:0:
34,289,92352,1,0,0:0:0:0:
359,130,92496,5,0,0:0:0:0:
372,125,92784,5,0,0:0:0:0:
449,99,92929,1,0,0:0:0:0:
450,91,93506,1,0,0:0:0:0:
451,83,94082,1,0,0:0:0:0:
452,75,94659,1,0,0:0:0:0:
453,67,95236,1,0,0:0:0:0:
454,59,95813,1,0,0:0:0:0:
104,319,95957,5,0,0:0:0:0:
71,330,97832,2,0,L|77:270,1,40
71,330,98121,2,0,L|74:290,1,40
28,147,98409,5,0,0:0:0:0:
72,151,98481,1,0,0:0:0:0:
117,156,98553,1,0,0:0:0:0:
162,161,98625,1,0,0:0:0:0:
210,163,98698,6,0,P|193:117|192:63,1,89.9999972534181
315,191,98986,1,0,0:0:0:0:
367,122,99131,1,0,0:0:0:0:
466,341,99419,1,0,0:0:0:0:
386,309,99707,1,0,0:0:0:0:
43,357,99996,1,0,0:0:0:0:
106,292,100140,5,0,0:0:0:0:
106,292,100212,1,0,0:0:0:0:
79,217,100284,2,0,L|65:156,1,44.999998626709
169,198,100429,1,0,0:0:0:0:
169,198,100501,1,0,0:0:0:0:
137,124,100573,2,0,L|123:75,1,44.999998626709
221,24,100717,1,0,0:0:0:0:
221,24,100789,1,0,0:0:0:0:
221,24,100861,2,0,L|278:38,1,44.999998626709
412,0,101006,6,0,B|401:42|401:42|423:84|423:84|409:132|419:168,1,134.999995880127
420,209,101294,1,0,0:0:0:0:
501,125,101438,1,0,0:0:0:0:
434,322,101727,1,0,0:0:0:0:
496,266,102015,1,0,0:0:0:0:
236,195,102304,1,0,0:0:0:0:
296,128,102448,6,0,L|347:133,7,44.999998626709
422,117,103025,6,0,P|414:67|425:26,1,89.9999972534181
498,218,103313,1,0,0:0:0:0:
419,261,103457,1,0,0:0:0:0:
419,261,103602,1,0,0:0:0:0:
271,135,103746,6,0,P|283:190|286:226,1,89.9999972534181
242,301,104034,1,0,0:0:0:0:
174,101,104179,2,0,P|162:156|159:192,1,89.9999972534181
279,36,104467,1,0,0:0:0:0:
367,87,104611,1,0,0:0:0:0:
482,28,104756,2,0,P|469:62|463:86,3,44.999998626709
452,145,105044,1,0,0:0:0:0:
496,250,105188,5,0,0:0:0:0:
492,290,105260,1,0,0:0:0:0:
488,330,105332,1,0,0:0:0:0:
391,196,105477,1,0,0:0:0:0:
294,255,105621,5,0,0:0:0:0:
298,300,105693,1,0,0:0:0:0:
301,345,105765,1,0,0:0:0:0:
205,194,105909,1,0,0:0:0:0:
124,344,106054,2,0,P|123:321|118:299,1,44.999998626709
20,290,106198,2,0,P|21:267|26:245,1,44.999998626709
105,202,106342,2,0,P|104:179|99:157,1,44.999998626709
23,16,106486,5,0,0:0:0:0:
68,21,106558,1,0,0:0:0:0:
113,26,106630,1,0,0:0:0:0:
157,31,106702,1,0,0:0:0:0:
202,36,106774,1,0,0:0:0:0:
247,41,106847,1,0,0:0:0:0:
291,46,106918,1,0,0:0:0:0:
407,4,107063,6,0,P|399:34|407:65,1,59.9999981689454
506,187,107640,6,0,P|452:169|405:164,1,100
160,212,107929,1,0,0:0:0:0:
215,141,108073,1,0,0:0:0:0:
328,366,108217,2,0,P|318:308|328:261,1,100
506,187,108506,1,0,0:0:0:0:
372,57,108650,6,0,L|470:39,1,100
311,182,108938,2,0,L|409:164,1,100
213,30,109227,2,0,P|130:50|97:131,1,150
89,184,109515,1,0,0:0:0:0:
89,184,109659,1,0,0:0:0:0:
267,109,109804,1,0,0:0:0:0:
201,253,109948,5,0,0:0:0:0:
131,111,110092,1,0,0:0:0:0:
51,264,110236,2,0,P|81:326|96:373,1,100
309,219,110525,2,0,P|286:263|268:310,1,100
376,384,110813,1,0,0:0:0:0:
455,143,110957,6,0,P|398:164|353:158,1,100
241,69,111246,1,0,0:0:0:0:
338,9,111390,1,0,0:0:0:0:
254,205,111534,1,0,0:0:0:0:
122,17,111679,5,0,0:0:0:0:
254,205,111823,1,0,0:0:0:0:
324,86,111967,1,0,0:0:0:0:
226,323,112111,6,0,B|269:334|269:334|395:312,1,150
433,263,112400,1,0,0:0:0:0:
343,167,112544,5,0,0:0:0:0:
223,300,112688,1,0,0:0:0:0:
283,103,112832,1,0,0:0:0:0:
292,352,112977,1,0,0:0:0:0:
200,131,113121,1,0,0:0:0:0:
200,131,113409,5,0,0:0:0:0:
368,64,113698,1,0,0:0:0:0:
157,234,113842,1,0,0:0:0:0:
288,10,113986,1,0,0:0:0:0:
233,305,114131,1,0,0:0:0:0:
187,31,114275,2,0,L|200:132,1,100
347,345,114563,1,0,0:0:0:0:
349,325,114635,1,0,0:0:0:0:
352,305,114707,1,0,0:0:0:0:
354,285,114779,1,0,0:0:0:0:
357,265,114851,1,0,0:0:0:0:
360,245,114923,1,0,0:0:0:0:
446,128,114996,5,0,0:0:0:0:
448,152,115068,1,0,0:0:0:0:
450,176,115140,1,0,0:0:0:0:
452,200,115212,1,0,0:0:0:0:
454,227,115284,1,0,0:0:0:0:
456,251,115356,1,0,0:0:0:0:
508,376,115429,6,0,L|444:366,1,50
261,273,115573,1,0,0:0:0:0:
226,271,115645,1,0,0:0:0:0:
197,250,115717,1,0,0:0:0:0:
165,234,115789,1,0,0:0:0:0:
131,224,115861,1,0,0:0:0:0:
96,226,115933,1,0,0:0:0:0:
62,240,116006,5,0,0:0:0:0:
83,206,116078,1,0,0:0:0:0:
93,167,116150,1,0,0:0:0:0:
91,127,116222,1,0,0:0:0:0:
81,90,116294,5,0,0:0:0:0:
116,124,116366,1,0,0:0:0:0:
163,140,116438,1,0,0:0:0:0:
212,132,116510,1,0,0:0:0:0:
251,104,116582,1,0,0:0:0:0:
286,69,116654,1,0,0:0:0:0:
333,52,116726,1,0,0:0:0:0:
382,55,116798,1,0,0:0:0:0:
417,67,116871,5,0,0:0:0:0:
