osu file format v14

[General]
AudioFilename: FormatFactory08_rzhfdjpjzht.mp3
AudioLeadIn: 0
PreviewTime: 57366
Countdown: 0
SampleSet: Soft
StackLeniency: 0.7
Mode: 0
LetterboxInBreaks: 0
WidescreenStoryboard: 0

[Editor]
DistanceSpacing: 1
BeatDivisor: 4
GridSize: 4
TimelineZoom: 1.8

[Metadata]
Title:Pandemic Sudden Death
TitleUnicode:パンデミックサドンデス
Artist:UNISON SQUARE GARDEN
ArtistUnicode:ユニゾン・スクエア・ガーデン
Creator:-NanoRIPE-
Version:Normal
Source:
Tags:Dr Izzy ドクター・イジー Toys Factory USG
BeatmapID:1027871
BeatmapSetID:481622

[Difficulty]
HPDrainRate:3.5
CircleSize:4
OverallDifficulty:3.5
ApproachRate:4
SliderMultiplier:0.8
SliderTickRate:1

[Events]
//Background and Video events
0,0,"dark-anime-wallpaper-21.jpg",0,0
//Break Periods
2,92696,94637
2,144763,147282
2,194755,202666
//Storyboard Layer 0 (Background)
//Storyboard Layer 1 (Fail)
//Storyboard Layer 2 (Pass)
//Storyboard Layer 3 (Foreground)
//Storyboard Layer 4 (Overlay)
//Storyboard Sound Samples

[TimingPoints]
333,288.461538461538,4,2,1,60,1,0
6246,-100,4,2,1,50,0,0
7256,-100,4,2,1,60,0,0
9563,-100,4,2,1,70,0,0
18794,-100,4,2,1,50,0,0
28025,-100,4,2,1,55,0,0
37111,-100,4,2,1,45,0,0
51102,-100,4,2,1,60,0,0
55717,-100,4,2,1,60,0,0
58025,-100,4,2,1,70,0,1
67111,-100,4,2,1,60,0,0
71727,-100,4,2,1,70,0,1
80957,-100,4,2,1,60,0,0
92496,-100,4,2,1,60,0,0
95957,-100,4,2,1,50,0,0
97832,-100,4,2,1,60,0,0
98409,-100,4,2,1,55,0,0
107640,-100,4,2,1,60,0,0
116871,-100,4,2,1,70,0,1
125957,-100,4,2,1,60,0,0
130573,-100,4,2,1,70,0,1
139804,-100,4,2,1,60,0,0
144563,-100,4,2,1,50,0,0
149179,-100,4,2,1,55,0,0
163025,-100,4,2,1,65,0,0
181342,-100,4,2,1,55,0,0
186102,-100,4,2,1,60,0,0
190717,-100,4,2,1,60,0,0
192448,288.461538461538,4,2,1,60,1,0
203986,-100,4,2,1,50,0,0
210909,-100,4,2,1,60,0,0
213217,-100,4,2,1,70,0,1
222303,-100,4,2,1,60,0,0
226919,-100,4,2,1,70,0,1
236149,-100,4,2,1,60,0,0
243217,-100,4,2,1,60,0,0
247544,-100,4,2,1,60,0,0
247832,-100,4,2,1,60,0,0
252447,-100,4,2,1,60,0,0
253457,-100,4,2,1,60,0,0
258361,-100,4,2,1,50,0,0
259371,-100,4,2,1,60,0,0
263986,-100,4,2,1,60,0,0
266005,-100,4,2,1,60,0,0

[Colours]
Combo1 : 192,192,192
Combo2 : 59,59,59
Combo3 : 128,128,128
Combo4 : 255,255,0

[HitObjects]
68,76,333,5,4,0:0:0:0:
68,76,1342,2,0,P|160:68|192:88,1,120,4|8,0:0|0:0,0:0:0:0:
232,140,2063,2,0,P|288:144|316:136,1,80,8|8,0:3|0:3,0:0:0:0:
372,88,2640,5,2,0:3:0:0:
372,88,3650,2,0,L|364:216,1,120,4|2,0:0|0:0,0:0:0:0:
296,252,4371,2,0,L|292:300,2,40,2|2|2,0:0|0:0|0:0,0:0:0:0:
256,184,4948,5,2,0:3:0:0:
60,44,5813,1,8,0:3:0:0:
44,164,6246,2,8,L|32:284,2,120,8|8|8,0:3|0:3|0:3,0:3:0:0:
72,136,7256,5,4,0:0:0:0:
256,52,7977,2,0,L|308:52,1,40,8|8,0:0|0:0,0:0:0:0:
400,100,8554,2,8,P|364:144|288:148,1,120,8|8,0:3|0:3,0:3:0:0:
228,136,9275,1,2,0:0:0:0:
176,196,9563,6,0,L|180:280,1,80,4|8,0:0|0:0,0:0:0:0:
220,344,10140,2,0,B|296:352|296:352|340:332,2,120,4|4|8,0:0|0:0|0:0,0:0:0:0:
180,276,11294,2,0,P|132:272|92:284,1,80,0|8,0:0|0:0,0:0:0:0:
48,220,11871,6,0,L|56:132,1,80,4|8,0:0|0:0,0:0:0:0:
120,92,12448,2,0,P|72:64|8:76,2,120,4|4|8,0:0|0:0|0:0,0:0:0:0:
192,128,13602,2,0,L|276:132,1,80,4|8,0:0|0:0,0:0:0:0:
328,184,14179,6,0,P|376:192|408:184,1,80,4|8,0:0|0:0,0:0:0:0:
480,156,14756,2,0,L|488:284,2,120,4|4|8,0:0|0:0|0:0,0:0:0:0:
508,80,15909,2,0,P|452:80|428:92,1,80,4|8,0:0|0:0,0:0:0:0:
372,144,16486,6,0,L|292:156,1,80,4|8,0:0|0:0,0:0:0:0:
236,212,17063,2,0,B|224:280|224:280|232:332,2,120,4|4|8,0:0|0:0|0:0,0:0:0:0:
292,155,18217,2,0,P|284:107|268:75,1,80,8|8,0:0|0:0,0:0:0:0:
200,40,18794,6,0,B|162:33|162:33|111:44,2,80
138,143,19804,2,0,L|152:235,1,80
191,290,20381,1,0,0:0:0:0:
272,201,20813,1,8,0:0:0:0:
331,147,21102,6,0,B|367:136|367:136|422:150,2,80
335,266,22111,2,0,L|320:353,1,80
243,361,22688,1,0,0:0:0:0:
205,246,23121,1,8,0:0:0:0:
153,184,23409,6,0,B|114:190|114:190|69:174,1,80
75,56,24131,2,0,P|125:36|188:69,1,120
276,136,24996,2,0,L|264:256,1,120,0|8,0:0|0:0,0:0:0:0:
207,312,25717,6,0,B|170:302|170:302|130:312,1,80
39,232,26438,2,0,P|31:184|66:109,1,120
136,122,27159,1,0,0:0:0:0:
188,61,27448,2,0,L|180:22,2,40
253,107,28025,6,0,L|245:205,1,80,12|0,0:0|0:0,0:0:0:0:
305,240,28602,1,8,0:0:0:0:
240,340,29034,2,0,P|211:348|163:334,1,80
99,286,29611,1,0,0:0:0:0:
151,178,30044,1,8,0:0:0:0:
204,118,30332,6,0,L|212:30,1,80,12|0,0:0|0:0,0:0:0:0:
286,11,30909,1,8,0:0:0:0:
379,86,31342,2,0,P|392:142|365:209,1,120
293,212,32063,2,0,P|256:205|207:216,1,80
187,242,32496,6,0,L|206:367,1,120
284,366,33217,2,0,P|317:348|362:348,1,80
409,285,33794,2,0,P|444:303|483:303,2,80
420,205,34659,1,8,0:0:0:0:
343,228,34948,6,0,L|216:240,2,120
353,148,36102,2,0,L|358:104,1,40
250,53,36679,1,8,0:3:0:0:
156,128,37111,6,0,L|168:256,1,120,4|0,0:0|0:0,0:0:0:0:
217,309,37832,2,0,P|273:293|361:349,2,160,8|0|8,0:0|0:0|0:0,0:0:0:0:
59,340,39563,6,0,B|43:280|43:280|67:176,2,160,0|8|0,0:0|0:0|0:0,0:0:0:0:
184,239,41294,2,0,P|229:230|269:243,1,80
321,291,41871,6,0,L|482:277,1,160
472,117,43025,2,0,L|312:130,1,160
232,132,43890,1,0,0:0:0:0:
191,201,44179,6,0,P|169:244|179:285,1,80
197,350,44756,2,0,B|296:321|267:378|359:348,1,160
375,191,45909,1,8,0:0:0:0:
356,32,46486,6,0,P|436:36|492:100,2,160,0|8|0,0:0|0:0|0:0,0:0:0:0:
198,64,48217,1,8,0:0:0:0:
68,157,48794,6,0,L|88:325,1,160,0|12,0:0|0:0,0:0:0:0:
133,381,49659,1,0,0:0:0:0:
208,352,49948,2,8,B|240:304|240:304|224:192,1,160,8|8,0:3|0:3,0:3:0:0:
278,51,51102,6,0,P|330:43|358:51,1,80,4|8,0:0|0:0,0:0:0:0:
388,120,51679,1,8,0:0:0:0:
432,188,51967,2,8,P|500:192|512:188,2,80
364,228,52832,2,8,P|324:260|308:292,1,80
256,344,53409,6,8,P|192:364|124:308,1,160
124,188,54419,2,0,L|136:60,1,120,4|8,0:0|0:0,0:0:0:0:
216,60,55140,2,8,L|220:4,2,40,8|8|8,0:3|0:3|0:3,0:3:0:0:
276,112,55717,6,0,P|332:124|388:84,2,120,2|2|2,0:3|0:3|0:3,0:0:0:0:
204,144,56871,2,8,L|196:232,1,80,8|10,0:0|0:0,0:0:0:0:
380,68,58025,5,4,0:0:0:0:
448,112,58313,2,0,L|456:192,2,80,8|0|8,0:0|0:0|0:0,0:0:0:0:
380,68,59179,2,0,P|344:68|276:132,1,120
280,198,59900,1,0,0:0:0:0:
350,236,60188,6,0,L|335:371,1,120
256,347,60909,2,0,P|221:333|174:338,1,80
101,353,61486,2,0,L|76:221,1,120
66,155,62207,1,0,0:0:0:0:
124,100,62496,6,0,P|181:80|243:112,1,120
299,147,63217,2,0,L|379:131,1,80
456,115,63794,1,0,0:0:0:0:
499,182,64082,2,0,P|508:229|492:270,1,80
466,332,64659,1,8,0:0:0:0:
396,371,64948,6,0,P|340:350|282:363,3,120,2|2|2|2,0:3|0:3|0:3|0:3,0:0:0:0:
174,309,66679,2,0,B|167:270|167:270|181:230|181:230|177:192,1,120
218,79,67544,5,0,0:0:0:0:
250,151,67832,2,0,B|312:133|305:176|374:147,1,120
445,167,68554,2,0,P|473:135|474:52,1,120
411,14,69275,1,0,0:0:0:0:
341,53,69563,6,0,L|245:39,1,80
184,60,70140,2,0,P|160:96|163:138,1,80
222,182,70717,2,0,P|276:180|261:263,1,160
228,278,71438,1,0,0:0:0:0:
261,350,71727,6,0,L|394:335,1,120
444,287,72448,2,0,P|432:251|447:203,1,80
494,150,73025,2,0,L|512:23,1,120
430,29,73746,1,0,0:0:0:0:
375,87,74034,6,0,P|338:107|254:99,1,120
191,64,74756,2,0,P|151:49|110:52,1,80
52,101,75332,2,0,L|67:230,1,120
49,298,76054,1,0,0:0:0:0:
121,330,76342,6,0,P|165:307|242:322,1,120
301,275,77063,2,0,P|313:225|306:187,1,80
234,167,77640,2,0,P|222:117|229:79,1,80
289,40,78217,2,0,L|376:48,1,80
448,55,78794,6,0,B|468:90|468:90|459:175,1,120
474,206,79371,2,0,P|438:198|392:220,1,80
331,256,79948,2,0,P|295:264|249:242,1,80
216,178,80525,2,0,L|210:129,2,40
186,204,80957,6,0,P|101:192|63:187,1,120
11,129,81679,2,0,P|32:98|39:42,1,80
111,20,82256,2,0,P|170:28|229:36,2,120
40,56,83409,5,0,0:0:0:0:
88,119,83698,2,0,P|126:132|179:114,2,80
56,143,84419,6,0,L|65:274,1,120
42,296,84996,1,0,0:0:0:0:
149,349,85429,1,0,0:0:0:0:
207,295,85717,6,0,L|221:202,1,80
291,182,86294,2,0,L|302:261,1,80
316,340,86871,1,0,0:0:0:0:
385,300,87159,2,0,B|423:287|423:287|469:295,1,80
497,221,87736,1,0,0:0:0:0:
446,159,88025,6,0,B|398:150|398:150|348:167|348:167|367:56|245:13|159:40|118:103|116:214|189:248|246:248,1,560
256,192,90332,12,0,92496,0:0:0:0:
257,192,95957,5,0,0:0:0:0:
257,192,97832,2,0,B|268:232|268:232|256:273,1,80
180,292,98409,6,0,L|88:284,1,80
29,246,98986,1,0,0:0:0:0:
134,188,99419,2,0,P|160:141|157:106,1,80
123,44,99996,1,0,0:0:0:0:
161,32,100140,6,0,B|198:23|198:23|238:36|238:36|282:22|282:22|319:35,1,160
387,64,101006,1,0,0:0:0:0:
457,100,101294,2,0,L|446:236,1,120
446,299,102015,1,0,0:0:0:0:
372,266,102304,2,0,P|320:252|259:288,1,120
203,334,103025,6,0,B|157:340|157:340|119:322,1,80
45,237,103746,2,0,L|56:111,1,120
170,83,104611,2,0,L|160:216,1,120
211,263,105332,5,0,0:0:0:0:
279,221,105621,2,0,B|376:198|343:255|446:236,1,160
500,194,106486,2,0,P|515:149|446:57,1,160
383,31,107352,1,0,0:0:0:0:
332,92,107640,6,0,L|248:84,1,80
174,102,108217,2,0,P|154:144|179:221,1,120
224,272,108938,1,0,0:0:0:0:
215,351,109227,2,0,P|182:374|91:358,1,120
42,318,109948,6,0,L|54:239,1,80
107,179,110525,2,0,L|94:52,2,120
183,203,111679,2,0,P|220:188|266:189,1,80
294,206,112111,6,0,L|280:81,1,120
342,36,112832,2,0,L|425:42,1,80
489,84,113409,2,0,L|477:163,1,80
415,214,113986,1,0,0:0:0:0:
439,290,114275,1,0,0:0:0:0:
382,346,114563,6,0,B|321:329|328:374|260:350,2,120
439,290,115717,2,0,P|419:257|417:209,1,80
459,149,116294,2,0,P|479:114|482:75,1,80
416,29,116871,5,0,0:0:0:0:
355,81,117159,2,0,L|259:72,1,80
202,40,117736,1,0,0:0:0:0:
145,96,118025,2,0,B|134:134|134:134|154:226,1,120
176,288,118746,1,0,0:0:0:0:
243,245,119034,6,0,L|368:235,1,120
439,258,119756,2,0,P|456:299|449:340,1,80
379,368,120332,2,0,L|246:359,1,120
185,328,121054,1,0,0:0:0:0:
112,361,121342,6,0,P|81:332|80:243,1,120
140,214,122063,2,0,L|135:129,1,80
170,62,122640,1,0,0:0:0:0:
241,25,122929,2,0,P|288:17|334:33,1,80
392,55,123506,1,0,0:0:0:0:
416,131,123794,6,0,P|402:173|423:244,3,120
349,339,125525,2,0,B|306:333|306:333|274:338|274:338|226:330,1,120
137,254,126390,5,0,0:0:0:0:
202,208,126679,2,0,P|218:161|193:90,1,120
146,34,127400,2,0,P|121:58|34:59,1,120
12,137,128121,1,0,0:0:0:0:
80,177,128409,6,0,L|69:272,1,80
146,281,128986,2,0,L|155:360,1,80
235,363,129563,2,0,B|318:338|316:388|392:359,1,160
423,334,130284,1,0,0:0:0:0:
370,273,130573,6,0,P|352:230|370:151,1,120
425,107,131294,2,0,L|511:93,1,80
473,20,131871,2,0,L|350:11,1,120
276,32,132592,1,0,0:0:0:0:
213,82,132881,6,0,P|230:123|210:202,1,120
162,255,133602,2,0,L|81:250,1,80
70,329,134179,2,0,L|199:338,1,120
269,347,134900,1,0,0:0:0:0:
332,298,135188,6,0,P|342:244|308:179,1,120
255,133,135909,2,0,P|247:92|263:42,1,80
326,18,136486,2,0,P|371:32|412:29,1,80
476,62,137063,2,0,P|489:106|477:149,1,80
424,194,137640,6,0,B|365:183|370:227|301:206,1,120
269,194,138217,2,0,L|287:283,1,80
233,333,138794,2,0,P|195:323|147:330,1,80
75,339,139371,2,0,L|82:383,2,40
42,315,139804,6,0,L|52:193,1,120
109,139,140525,2,0,P|161:160|199:152,1,80
236,97,141102,2,0,P|288:76|326:84,1,80
379,119,141679,2,0,L|372:203,1,80
372,278,142256,5,0,0:0:0:0:
316,335,142544,1,0,0:0:0:0:
254,284,142832,2,0,P|213:272|171:278,1,80
106,237,143409,2,0,P|131:200|133:156,1,80
92,97,143986,2,0,L|42:88,2,40
156,49,144563,5,0,0:0:0:0:
156,49,148602,6,0,L|226:38,2,60
118,63,149179,6,0,B|110:112|110:112|127:146|127:146|80:233|143:314|279:315|311:237|319:186|292:126,1,480
269,52,151198,1,0,0:0:0:0:
345,30,151486,6,0,P|385:101|275:387,1,400
219,337,153217,2,0,L|229:273,2,60
186,361,153794,6,0,P|151:338|108:337,1,80
35,354,154371,2,0,P|16:303|24:263,1,80
82,229,154948,2,0,P|101:178|93:138,1,80
37,102,155525,2,0,L|50:20,1,80
129,32,156102,6,0,P|160:58|206:63,1,80
276,46,156679,2,0,P|307:20|353:15,1,80
418,46,157256,2,0,L|462:39,2,40
377,114,157832,1,0,0:0:0:0:
477,238,158409,6,0,L|390:227,1,80
333,179,158986,2,0,L|253:189,1,80
177,213,159563,2,0,P|142:189|95:188,1,80
44,237,160140,2,0,P|38:274|54:314,1,80
124,350,160717,6,0,B|177:335|177:335|228:352|228:352|274:331|275:332|345:345|345:345|322:297,1,280
149,133,162592,2,0,L|161:89,1,40
211,33,163025,6,0,P|260:25|291:37,1,80
343,92,163602,2,0,L|466:87,2,120
272,130,164756,2,0,P|266:165|276:212,1,80
321,272,165332,5,0,0:0:0:0:
398,291,165621,2,0,L|383:373,2,80
432,269,166342,2,0,L|426:138,1,120
359,105,167063,2,0,P|330:89|305:41,1,80
229,25,167640,6,0,L|99:38,2,120
306,49,168794,2,0,L|429:58,2,120
248,105,169948,6,0,L|123:117,2,120
287,105,170957,2,0,L|280:193,1,80
204,209,171534,2,0,L|211:297,1,80
214,328,171967,1,0,0:0:0:0:
289,354,172256,6,0,P|326:336|377:343,1,80
440,361,172832,2,0,P|484:340|503:300,1,80
485,276,173265,2,0,L|475:140,1,120
461,77,173986,2,0,P|425:63|376:68,1,80
318,111,174563,6,0,L|229:102,1,80
192,37,175140,2,0,L|103:46,1,80
73,55,175573,2,0,B|56:87|56:87|71:188,1,120
100,243,176294,2,0,P|135:261|181:252,1,80
235,203,176871,6,0,P|270:185|316:194,1,80
369,243,177448,2,0,P|359:277|376:330,1,80
402,341,177881,2,0,L|268:326,1,120
206,303,178602,2,0,L|126:316,1,80
49,297,179179,6,0,P|37:247|51:205,1,80
96,160,179756,1,0,0:0:0:0:
201,104,180188,2,0,B|246:99|246:99|276:111|276:111|332:105,1,120
393,135,180909,2,0,L|386:258,1,120
386,254,182640,5,0,0:0:0:0:
386,254,183794,1,0,0:0:0:0:
254,345,184371,1,0,0:0:0:0:
148,224,184948,6,0,B|111:232|111:232|80:229,2,60
186,211,185525,1,0,0:0:0:0:
214,53,186102,6,0,P|260:43|301:57,1,80
365,80,186679,2,0,L|450:72,1,80
507,122,187256,2,0,P|488:175|502:283,1,160
447,337,188121,1,0,0:0:0:0:
380,292,188409,6,0,P|343:283|295:293,1,80
222,291,188986,2,0,L|236:160,2,120
148,322,190140,2,0,L|152:365,2,40
110,250,190717,6,0,P|62:226|-2:246,2,120
188,234,191871,2,0,L|202:147,1,80
247,89,192448,6,0,P|302:107|356:82,2,120
191,31,193601,1,0,0:0:0:0:
116,61,193890,1,0,0:0:0:0:
254,195,203986,6,0,B|343:172|330:230|421:198,1,160
477,157,204851,1,0,0:0:0:0:
498,79,205140,2,0,P|476:31|376:37,1,160
310,72,206005,1,0,0:0:0:0:
237,37,206294,6,0,B|186:33|186:33|146:49|146:49|80:42,1,160
18,93,207159,1,0,0:0:0:0:
77,145,207447,2,0,P|97:198|66:305,1,160
170,367,208457,1,0,0:0:0:0:
170,367,210909,6,0,L|48:346,2,120
244,337,212063,2,0,P|262:292|256:246,1,80
219,192,212640,2,0,P|201:147|207:101,1,80
248,50,213217,5,0,0:0:0:0:
318,87,213505,2,0,L|405:76,2,80
248,50,214371,2,0,L|115:42,1,120
55,76,215092,1,0,0:0:0:0:
112,131,215380,6,0,P|131:178|113:257,1,120
150,318,216101,2,0,L|235:302,1,80
294,257,216678,2,0,L|418:273,1,120
482,313,217399,1,0,0:0:0:0:
412,353,217688,2,0,L|288:369,1,120
222,329,218409,6,0,P|194:293|191:256,1,80
217,184,218986,2,0,L|233:97,1,80
308,126,219563,2,0,L|322:204,1,80
376,263,220140,6,0,P|426:242|496:259,3,120
490,134,221871,2,0,B|499:58|499:58|465:29,1,120
345,32,222736,5,0,0:0:0:0:
271,63,223024,2,0,L|288:193,1,120
208,201,223746,2,0,B|149:188|157:235|93:222,1,120
20,191,224466,1,0,0:0:0:0:
75,133,224755,6,0,P|91:89|81:47,1,80
155,18,225332,2,0,P|191:47|234:51,1,80
301,35,225909,2,0,P|361:35|333:118,1,160
314,131,226630,1,0,0:0:0:0:
257,188,226919,6,0,L|276:320,1,120
335,358,227640,2,0,P|371:364|411:342,1,80
438,270,228217,2,0,L|448:136,1,120
491,83,228938,1,0,0:0:0:0:
429,31,229226,6,0,P|383:23|314:69,1,120
265,115,229947,2,0,L|179:107,1,80
163,184,230524,2,0,L|290:195,1,120
361,208,231246,1,0,0:0:0:0:
394,280,231534,6,0,P|380:335|312:364,1,120
259,321,232255,2,0,P|228:310|181:313,1,80
112,353,232832,2,0,P|81:364|34:361,1,80
10,284,233409,2,0,L|23:197,1,80
88,161,233986,6,0,L|93:81,1,80
169,107,234563,2,0,L|178:197,1,80
252,160,235140,2,0,L|259:80,1,80
339,70,235717,2,0,L|347:112,2,40
344,30,236149,6,0,P|382:47|461:30,1,120
508,94,236871,2,0,P|490:132|481:180,1,80
441,238,237447,2,0,L|308:229,2,120
455,316,238601,6,0,L|370:326,1,80
302,358,239178,2,0,L|222:348,1,80
182,354,239611,2,0,B|196:326|196:326|188:222,1,120
180,198,240188,1,0,0:0:0:0:
119,94,240621,1,0,0:0:0:0:
174,36,240909,6,0,P|216:26|261:39,1,80
281,108,241486,2,0,P|269:145|281:188,2,80
353,73,242351,1,0,0:0:0:0:
426,103,242640,1,0,0:0:0:0:
481,46,242928,1,0,0:0:0:0:
256,192,243217,12,0,247544,0:0:0:0:
256,192,247832,12,0,252447,0:0:0:0:
474,42,253457,6,0,L|456:175,1,120
404,220,254178,2,0,P|363:209|327:217,1,80
268,271,254755,1,0,0:0:0:0:
268,271,255765,6,0,L|145:261,1,120
83,213,256486,2,0,L|72:168,2,40
32,275,257063,1,0,0:0:0:0:
255,362,257928,1,0,0:0:0:0:
364,313,258361,6,0,L|376:179,2,120
330,335,259371,1,0,0:0:0:0:
256,106,260236,2,0,L|256:153,1,40
257,105,261390,6,0,L|257:152,1,40
257,145,262544,1,0,0:0:0:0:
223,163,262688,6,0,L|131:168,1,80
65,188,263265,2,0,B|81:232|81:232|63:322,1,120
135,344,263986,2,0,B|184:333|184:333|229:351|229:351|281:329|281:329|313:355|371:345,1,240
256,192,264996,12,0,266005,0:0:0:0:
