osu file format v14

[General]
AudioFilename: FormatFactory08_rzhfdjpjzht.mp3
AudioLeadIn: 0
PreviewTime: 57366
Countdown: 0
SampleSet: Soft
StackLeniency: 0.7
Mode: 0
LetterboxInBreaks: 0
WidescreenStoryboard: 0

[Editor]
DistanceSpacing: 0.3
BeatDivisor: 4
GridSize: 4
TimelineZoom: 1.8

[Metadata]
Title:Pandemic Sudden Death
TitleUnicode:パンデミックサドンデス
Artist:UNISON SQUARE GARDEN
ArtistUnicode:ユニゾン・スクエア・ガーデン
Creator:-NanoRIPE-
Version:NiNo's Extra
Source:
Tags:Dr Izzy ドクター・イジー Toys Factory USG
BeatmapID:1112638
BeatmapSetID:481622

[Difficulty]
HPDrainRate:6
CircleSize:4
OverallDifficulty:8.5
ApproachRate:9.3
SliderMultiplier:1.8
SliderTickRate:1

[Events]
//Background and Video events
0,0,"dark-anime-wallpaper-21.jpg",0,0
//Break Periods
2,144788,148073
2,194981,203457
//Storyboard Layer 0 (Background)
//Storyboard Layer 1 (Fail)
//Storyboard Layer 2 (Pass)
//Storyboard Layer 3 (Foreground)
//Storyboard Layer 4 (Overlay)
//Storyboard Sound Samples

[TimingPoints]
358,288.461538461538,4,2,1,50,1,0
358,-100,4,2,1,50,0,0
9588,-100,4,2,1,70,0,0
37136,-125,4,2,1,70,0,0
58050,-83.3333333333333,4,2,1,70,0,1
92665,-100,4,2,1,70,0,0
116896,-83.3333333333333,4,2,1,70,0,1
144588,-100,4,2,1,70,0,0
149204,-133.333333333333,4,2,1,70,0,0
163050,-100,4,2,1,70,0,0
204011,-133.333333333333,4,2,1,70,0,0
209204,-166.666666666667,4,2,1,40,0,0
210934,-100,4,2,1,70,0,0
213242,-83.3333333333333,4,2,1,70,0,1
252473,-100,4,2,1,70,0,0

[Colours]
Combo1 : 192,192,192
Combo2 : 59,59,59
Combo3 : 128,128,128
Combo4 : 255,255,0

[HitObjects]
102,218,358,6,0,P|151:205|200:84,1,180
267,34,790,1,0,0:0:0:0:
267,34,862,1,0,0:0:0:0:
267,34,934,2,0,L|366:48,1,90
445,30,1223,1,0,0:0:0:0:
359,136,1367,6,0,P|353:187|447:298,1,180
262,265,1800,2,0,P|213:248|158:251,1,90
35,219,2088,1,0,0:0:0:0:
35,207,2160,1,0,0:0:0:0:
36,196,2232,1,0,0:0:0:0:
37,185,2304,1,0,0:0:0:0:
38,174,2376,1,0,0:0:0:0:
39,162,2448,1,0,0:0:0:0:
40,151,2520,1,0,0:0:0:0:
41,140,2592,1,0,0:0:0:0:
42,129,2664,5,0,0:0:0:0:
42,129,3098,1,0,0:0:0:0:
42,129,3170,1,0,0:0:0:0:
42,129,3242,2,0,L|144:123,1,90
195,59,3531,1,0,0:0:0:0:
121,213,3675,6,0,B|96:340|96:340|146:303,1,180
201,175,4107,2,0,P|158:132|120:122,1,90
230,272,4396,1,0,0:0:0:0:
257,91,4540,1,0,0:0:0:0:
121,213,4684,1,0,0:0:0:0:
121,213,4973,5,0,0:0:0:0:
121,213,5406,1,0,0:0:0:0:
121,213,5478,1,0,0:0:0:0:
121,213,5550,2,0,L|214:202,1,90
275,140,5838,1,0,0:0:0:0:
275,140,5910,1,0,0:0:0:0:
275,140,5982,1,0,0:0:0:0:
318,219,6127,6,0,L|332:365,2,135
439,199,6704,2,0,L|453:53,2,135
499,357,7281,5,0,0:0:0:0:
499,357,8002,5,0,0:0:0:0:
499,357,8074,1,0,0:0:0:0:
499,357,8146,1,0,0:0:0:0:
499,357,8579,5,0,0:0:0:0:
462,181,8723,1,0,0:0:0:0:
406,352,8867,1,0,0:0:0:0:
369,176,9011,1,0,0:0:0:0:
369,176,9588,6,0,P|314:161|275:131,1,90
267,260,9877,2,0,P|285:304|287:354,1,90
154,228,10165,2,0,L|160:131,1,90
226,69,10454,1,0,0:0:0:0:
154,228,10598,6,0,L|160:131,1,90
226,69,10886,1,0,0:0:0:0:
154,228,11031,2,0,L|160:131,1,90
116,36,11319,2,0,P|73:62|33:65,1,90
226,69,11607,2,0,P|269:95|309:98,1,90
430,153,11896,6,0,P|387:170|354:205,1,90
234,184,12184,2,0,P|256:238|252:281,1,90
337,377,12473,2,0,P|338:332|357:292,1,90
449,234,12761,1,0,0:0:0:0:
337,377,12906,2,0,P|338:332|357:292,1,90
449,234,13194,1,0,0:0:0:0:
360,187,13338,2,0,P|309:186|260:162,1,90
188,20,13627,5,0,0:0:0:0:
361,109,13771,1,0,0:0:0:0:
180,124,13915,1,0,0:0:0:0:
273,171,14059,1,0,0:0:0:0:
172,228,14204,6,0,P|122:228|74:210,1,90
164,37,14492,2,0,P|181:87|177:137,1,90
256,257,14781,2,0,P|256:212|272:170,1,90
344,97,15069,1,0,0:0:0:0:
256,257,15213,6,0,P|256:212|272:170,1,90
344,97,15501,1,0,0:0:0:0:
256,257,15646,2,0,P|256:212|272:170,1,90
344,97,15934,1,0,0:0:0:0:
246,77,16079,1,0,0:0:0:0:
179,150,16223,1,0,0:0:0:0:
81,130,16367,1,0,0:0:0:0:
14,203,16511,6,0,P|39:242|52:304,1,90
155,367,16800,2,0,P|167:323|191:286,1,90
262,181,17088,2,0,P|212:168|169:143,1,90
123,58,17377,1,0,0:0:0:0:
262,181,17521,6,0,P|212:168|169:143,1,90
123,58,17810,1,0,0:0:0:0:
71,151,17954,2,0,L|62:248,1,90
147,356,18242,1,0,0:0:0:0:
4,374,18386,1,0,0:0:0:0:
62,240,18531,1,0,0:0:0:0:
14,350,18675,1,0,0:0:0:0:
161,349,18819,6,0,L|263:340,1,90
273,338,19035,1,0,0:0:0:0:
295,336,19107,1,0,0:0:0:0:
372,115,19396,2,0,L|270:106,1,90
189,53,19684,1,0,0:0:0:0:
258,214,19829,6,0,L|445:197,1,180
372,115,20261,1,0,0:0:0:0:
376,296,20406,2,0,L|188:279,1,180
111,228,20838,1,0,0:0:0:0:
194,129,20982,1,0,0:0:0:0:
196,280,21127,5,0,0:0:0:0:
197,291,21199,1,0,0:0:0:0:
198,302,21271,1,0,0:0:0:0:
199,313,21343,1,0,0:0:0:0:
201,324,21415,1,0,0:0:0:0:
201,324,21704,1,0,0:0:0:0:
305,354,21848,1,0,0:0:0:0:
305,354,22136,6,0,L|310:236,1,90
387,218,22425,2,0,L|382:100,1,90
339,49,22713,2,0,P|276:76|163:21,1,180
302,162,23146,2,0,P|354:148|391:119,1,90
205,149,23434,5,0,0:0:0:0:
244,303,23579,1,0,0:0:0:0:
222,125,23723,1,0,0:0:0:0:
222,125,24011,2,0,L|123:116,1,90
39,71,24300,1,0,0:0:0:0:
117,203,24444,6,0,P|134:153|130:107,1,90
38,304,24732,2,0,P|21:254|25:208,1,90
148,373,25021,2,0,P|165:323|161:277,1,90
117,203,25309,1,0,0:0:0:0:
257,271,25454,2,0,P|300:290|352:293,1,90
422,187,25742,5,0,0:0:0:0:
459,358,25886,1,0,0:0:0:0:
456,153,26031,1,0,0:0:0:0:
456,153,26319,2,0,P|392:137|372:119,1,90
322,49,26607,1,0,0:0:0:0:
249,214,26752,2,0,P|269:159|264:113,1,90
206,62,27040,1,0,0:0:0:0:
174,277,27184,2,0,P|154:222|159:176,1,90
155,191,27401,1,0,0:0:0:0:
155,191,27473,5,0,0:0:0:0:
254,341,27617,1,0,0:0:0:0:
74,351,27761,1,0,0:0:0:0:
74,351,28050,5,0,0:0:0:0:
71,328,28122,1,0,0:0:0:0:
69,306,28194,1,0,0:0:0:0:
66,283,28266,1,0,0:0:0:0:
64,260,28338,2,0,P|79:199|73:163,1,90
202,53,28627,2,0,L|227:158,1,90
169,252,28915,1,0,0:0:0:0:
375,218,29059,6,0,P|312:204|270:211,1,90
140,337,29348,2,0,P|184:338|227:325,1,90
359,315,29636,2,0,B|331:256|349:182|349:182|385:233,1,180
435,365,30069,1,0,0:0:0:0:
489,218,30213,1,0,0:0:0:0:
359,315,30357,5,0,0:0:0:0:
336,317,30429,1,0,0:0:0:0:
314,319,30501,1,0,0:0:0:0:
291,321,30573,1,0,0:0:0:0:
269,322,30646,2,0,L|170:332,1,90
60,265,30934,2,0,P|107:242|138:206,1,90
163,124,31223,1,0,0:0:0:0:
307,236,31367,2,0,P|260:213|229:177,1,90
203,275,31656,1,0,0:0:0:0:
317,144,31800,6,0,P|326:94|319:36,1,90
102,226,32088,2,0,L|120:337,1,90
239,353,32377,1,0,0:0:0:0:
207,133,32521,6,0,B|105:89|105:89|27:113,1,180
279,235,32954,2,0,P|329:253|389:247,1,90
456,179,33242,2,0,P|412:148|360:140,1,90
370,368,33531,2,0,P|413:356|448:328,1,90
279,235,33819,6,0,L|272:339,1,90
174,156,34107,2,0,L|167:52,1,90
133,262,34396,2,0,P|84:267|30:256,1,90
78,67,34684,2,0,P|122:60|166:65,1,90
187,74,34901,1,0,0:0:0:0:
207,82,34973,6,0,P|264:95|378:17,1,180
294,179,35406,2,0,B|253:187|214:176|214:176|242:222|219:306,1,180
377,235,35838,2,0,P|391:191|382:141,1,90
209,28,36127,5,0,0:0:0:0:
294,179,36271,1,0,0:0:0:0:
294,179,36704,1,0,0:0:0:0:
166,155,36848,1,0,0:0:0:0:
166,155,37136,6,0,P|122:251|184:346,1,216
255,368,37713,1,0,0:0:0:0:
289,247,37857,2,0,L|263:81,1,144
216,33,38290,1,0,0:0:0:0:
166,155,38434,6,0,L|140:321,1,144
60,360,38867,1,0,0:0:0:0:
261,357,39011,2,0,L|235:191,1,144
276,136,39444,1,0,0:0:0:0:
155,53,39588,6,0,P|121:94|13:86,1,144
74,23,40021,1,0,0:0:0:0:
133,176,40165,2,0,P|148:212|109:305,1,144
63,230,40598,1,0,0:0:0:0:
239,278,40742,6,0,P|256:235|244:135,1,144
204,63,41175,1,0,0:0:0:0:
166,203,41319,1,0,0:0:0:0:
325,22,41463,2,0,L|420:17,1,72
500,23,41752,6,0,P|454:71|498:219,1,216
484,293,42329,1,0,0:0:0:0:
350,164,42473,2,0,B|316:134|257:124|257:124|210:154,1,144
272,217,42906,1,0,0:0:0:0:
300,36,43050,6,0,L|149:25,1,144
71,41,43482,1,0,0:0:0:0:
136,161,43627,2,0,P|152:216|95:302,1,144
70,216,44059,1,0,0:0:0:0:
230,246,44204,6,0,P|256:215|367:204,1,144
423,249,44636,1,0,0:0:0:0:
472,99,44781,2,0,L|319:78,1,144
255,34,45213,1,0,0:0:0:0:
256,208,45357,6,0,P|272:248|256:352,2,144
256,208,46223,1,0,0:0:0:0:
256,208,46511,2,0,L|174:201,1,72
131,270,46800,2,0,L|49:277,1,72
14,202,47088,2,0,P|33:160|25:45,1,144
202,33,47665,6,0,L|221:190,1,144
288,334,48242,2,0,L|307:177,1,144
383,154,48675,1,0,0:0:0:0:
461,117,48819,2,0,L|470:38,1,72
386,21,49107,2,0,P|328:44|291:38,1,72
234,28,49396,2,0,P|189:70|188:171,1,144
281,288,49973,5,0,0:0:0:0:
351,196,50165,1,0,0:0:0:0:
268,116,50357,1,0,0:0:0:0:
200,210,50550,1,0,0:0:0:0:
122,124,50742,1,0,0:0:0:0:
188,30,50934,1,0,0:0:0:0:
292,197,51127,6,0,P|347:198|385:181,1,72
486,52,51415,2,0,P|469:95|471:133,1,72
379,261,51704,2,0,P|376:225|361:192,1,72
312,89,51992,2,0,P|354:75|380:47,1,72
201,120,52281,6,0,L|195:204,1,72
378,128,52569,2,0,L|372:44,1,72
303,212,52857,2,0,P|356:234|387:234,1,72
494,319,53146,6,0,P|458:325|427:342,1,72
345,371,53434,1,0,0:0:0:0:
259,358,53579,1,0,0:0:0:0:
205,290,53723,2,0,P|186:244|186:207,1,72
226,146,54011,2,0,P|245:100|245:63,1,72
307,16,54300,1,0,0:0:0:0:
159,86,54444,6,0,P|118:95|20:20,1,144
59,175,54877,2,0,P|75:218|79:262,1,72
77,261,55093,1,0,0:0:0:0:
69,277,55165,2,0,P|53:320|49:364,1,72
132,370,55454,1,0,0:0:0:0:
132,370,55742,6,0,L|221:365,1,72
203,365,55958,1,0,0:0:0:0:
203,365,56031,1,0,0:0:0:0:
380,370,56175,2,0,L|291:365,1,72
308,365,56391,1,0,0:0:0:0:
308,365,56464,1,0,0:0:0:0:
256,120,56607,2,0,L|256:216,1,72
256,192,56824,1,0,0:0:0:0:
256,192,56896,1,0,0:0:0:0:
256,192,57184,5,0,0:0:0:0:
256,192,58050,6,0,P|219:191|153:138,1,107.999996704102
379,160,58338,2,0,P|399:216|393:278,1,107.999996704102
291,298,58627,1,0,0:0:0:0:
256,192,58771,1,0,0:0:0:0:
396,263,58915,2,0,P|448:252|488:208,1,107.999996704102
379,160,59204,5,0,0:0:0:0:
261,297,59348,2,0,P|250:263|267:168,1,107.999996704102
292,85,59636,2,0,P|222:94|177:72,1,107.999996704102
68,31,59925,1,0,0:0:0:0:
68,31,60069,1,0,0:0:0:0:
140,177,60213,6,0,L|125:307,1,107.999996704102
17,345,60502,1,0,0:0:0:0:
28,216,60646,2,0,L|13:86,1,107.999996704102
122,61,60934,1,0,0:0:0:0:
140,177,61079,1,0,0:0:0:0:
247,130,61223,2,0,L|357:122,1,107.999996704102
392,29,61511,5,0,0:0:0:0:
247,130,61656,2,0,L|237:243,1,107.999996704102
223,351,61944,2,0,P|150:324|108:328,1,107.999996704102
11,340,62232,1,0,0:0:0:0:
11,340,62377,1,0,0:0:0:0:
138,210,62521,6,0,B|173:66|173:66|131:7,1,215.999993408203
268,59,62954,2,0,P|322:78|393:71,1,107.999996704102
235,169,63242,2,0,P|160:192|124:225,1,107.999996704102
332,251,63531,2,0,P|355:186|353:134,1,107.999996704102
219,265,63819,5,0,0:0:0:0:
286,358,63963,2,0,B|446:340|446:340|501:382,1,215.999993408203
483,227,64396,2,0,L|372:214,1,107.999996704102
178,370,64684,2,0,L|289:357,1,107.999996704102
260,236,64973,6,0,L|266:173,5,53.9999983520508
172,316,65406,2,0,L|178:379,5,53.9999983520508
150,201,65838,2,0,L|156:138,5,53.9999983520508
62,281,66271,2,0,L|68:344,5,53.9999983520508
41,157,66704,1,0,0:0:0:0:
150,201,66848,1,0,0:0:0:0:
172,316,66992,1,0,0:0:0:0:
222,124,67136,6,0,P|260:61|406:60,1,215.999993408203
377,232,67569,2,0,P|338:178|335:127,1,107.999996704102
252,258,67857,2,0,P|242:310|208:351,1,107.999996704102
154,268,68146,1,0,0:0:0:0:
55,276,68290,6,0,P|64:223|98:182,1,107.999996704102
218,110,68579,2,0,B|128:99|84:23|84:23|142:30,1,215.999993408203
302,53,69011,2,0,P|319:107|303:183,1,107.999996704102
222,216,69300,1,0,0:0:0:0:
218,110,69444,1,0,0:0:0:0:
320,262,69588,6,0,P|288:307|138:295,1,215.999993408203
222,216,70021,1,0,0:0:0:0:
320,262,70165,2,0,P|350:307|360:370,1,107.999996704102
263,344,70454,1,0,0:0:0:0:
222,216,70598,1,0,0:0:0:0:
320,262,70742,5,0,0:0:0:0:
346,259,70814,1,0,0:0:0:0:
372,251,70886,1,0,0:0:0:0:
396,238,70958,1,0,0:0:0:0:
416,220,71030,1,0,0:0:0:0:
433,199,71102,1,0,0:0:0:0:
444,175,71174,1,0,0:0:0:0:
451,149,71246,1,0,0:0:0:0:
452,122,71318,1,0,0:0:0:0:
497,287,71463,1,0,0:0:0:0:
497,287,71752,6,0,L|273:266,1,215.999993408203
178,298,72184,1,0,0:0:0:0:
207,193,72329,2,0,L|431:172,1,215.999993408203
490,89,72761,1,0,0:0:0:0:
382,74,72906,1,0,0:0:0:0:
422,172,73050,6,0,L|434:284,1,107.999996704102
504,360,73338,1,0,0:0:0:0:
376,340,73482,2,0,B|316:312|316:312|153:357,1,215.999993408203
66,324,73915,1,0,0:0:0:0:
190,264,74059,6,0,B|298:234|298:234|341:103,1,215.999993408203
233,46,74492,2,0,P|170:68|109:67,1,107.999996704102
86,240,74781,2,0,P|139:244|189:263,1,107.999996704102
339,340,75069,1,0,0:0:0:0:
234,363,75213,1,0,0:0:0:0:
259,178,75357,5,0,0:0:0:0:
189,263,75502,2,0,P|141:282|78:275,1,107.999996704102
218,96,75790,2,0,P|271:91|321:110,1,107.999996704102
385,198,76079,1,0,0:0:0:0:
309,274,76223,1,0,0:0:0:0:
321,110,76367,6,0,P|357:61|506:36,1,215.999993408203
443,146,76800,2,0,P|466:195|456:268,1,107.999996704102
231,147,77088,2,0,P|229:94|252:46,1,107.999996704102
338,242,77377,2,0,P|321:301|287:340,1,107.999996704102
187,247,77665,6,0,P|120:224|88:180,1,107.999996704102
212,44,77954,2,0,P|233:106|226:165,1,107.999996704102
168,350,78242,2,0,P|167:296|186:246,1,107.999996704102
413,72,78531,2,0,P|342:87|292:79,1,107.999996704102
135,81,78819,5,0,0:0:0:0:
186,246,78963,1,0,0:0:0:0:
158,89,79107,1,0,0:0:0:0:
209,254,79251,1,0,0:0:0:0:
185,97,79396,1,0,0:0:0:0:
236,262,79540,1,0,0:0:0:0:
208,105,79684,1,0,0:0:0:0:
258,268,79829,6,0,P|300:196|450:202,1,215.999993408203
425,368,80261,2,0,P|380:317|367:270,1,107.999996704102
423,183,80550,1,0,0:0:0:0:
465,279,80694,1,0,0:0:0:0:
495,143,80838,1,0,0:0:0:0:
368,280,80982,6,0,B|299:322|223:281|223:281|184:349,1,215.999993408203
108,247,81415,2,0,P|128:188|124:125,1,107.999996704102
277,89,81704,2,0,P|278:142|296:193,1,107.999996704102
191,336,81992,2,0,P|209:285|210:231,1,107.999996704102
127,142,82281,5,0,0:0:0:0:
277,89,82425,2,0,P|346:74|389:41,1,107.999996704102
467,157,82713,2,0,P|407:163|260:60,1,215.999993408203
186,27,83146,1,0,0:0:0:0:
102,95,83290,6,0,B|145:159|133:254|133:254|87:208,1,215.999993408203
117,342,83723,2,0,P|184:328|215:280,1,107.999996704102
373,277,84011,2,0,P|306:263|275:215,1,107.999996704102
225,145,84300,1,0,0:0:0:0:
360,61,84444,6,0,L|374:296,1,215.999993408203
435,365,84877,1,0,0:0:0:0:
489,272,85021,2,0,L|496:154,1,107.999996704102
466,60,85309,1,0,0:0:0:0:
360,61,85454,2,0,P|309:84|234:78,1,107.999996704102
109,35,85742,6,0,P|127:94|119:154,1,107.999996704102
228,204,86031,2,0,P|210:263|218:323,1,107.999996704102
109,244,86319,2,0,P|62:219|7:211,1,107.999996704102
11,366,86607,2,0,L|127:345,1,107.999996704102
213,308,86896,5,0,0:0:0:0:
295,369,87040,1,0,0:0:0:0:
199,285,87184,1,0,0:0:0:0:
117,346,87328,1,0,0:0:0:0:
213,262,87473,1,0,0:0:0:0:
295,323,87617,1,0,0:0:0:0:
199,239,87761,1,0,0:0:0:0:
117,300,87905,1,0,0:0:0:0:
300,218,88050,6,0,P|316:151|309:102,1,107.999996704102
210,344,88338,2,0,P|194:277|201:228,1,107.999996704102
204,107,88627,2,0,P|149:84|88:86,1,107.999996704102
95,262,88915,2,0,P|148:260|197:238,1,107.999996704102
313,179,89204,6,0,P|330:238|328:303,1,107.999996704102
462,362,89492,2,0,P|463:308|479:256,1,107.999996704102
492,84,89781,2,0,P|425:127|384:131,1,107.999996704102
219,131,90069,2,0,P|270:144|312:178,1,107.999996704102
137,202,90357,6,0,P|114:162|117:81,1,107.999996704102
234,259,90646,2,0,P|232:312|207:359,1,107.999996704102
341,296,90934,2,0,P|403:271|457:272,1,107.999996704102
312,178,91223,2,0,P|258:174|209:151,1,107.999996704102
77,74,91511,6,0,L|70:212,1,107.999996704102
175,253,91800,2,0,L|182:391,1,107.999996704102
73,285,92088,1,0,0:0:0:0:
209,151,92232,1,0,0:0:0:0:
71,181,92377,1,0,0:0:0:0:
207,47,92521,1,0,0:0:0:0:
256,188,95982,5,0,0:0:0:0:
256,188,97857,5,0,0:0:0:0:
256,188,98146,1,0,0:0:0:0:
256,188,98434,1,0,0:0:0:0:
258,165,98506,1,0,0:0:0:0:
260,143,98578,1,0,0:0:0:0:
262,120,98650,1,0,0:0:0:0:
265,98,98722,5,0,0:0:0:0:
265,98,99011,1,0,0:0:0:0:
201,33,99156,2,0,P|155:54|111:56,1,90
26,56,99444,2,0,L|36:158,1,90
46,234,99732,1,0,0:0:0:0:
46,234,100021,5,0,0:0:0:0:
113,293,100165,1,0,0:0:0:0:
132,281,100237,1,0,0:0:0:0:
152,272,100309,1,0,0:0:0:0:
175,268,100381,1,0,0:0:0:0:
197,268,100453,1,0,0:0:0:0:
216,278,100526,1,0,0:0:0:0:
236,287,100598,1,0,0:0:0:0:
259,291,100670,1,0,0:0:0:0:
281,291,100742,5,0,0:0:0:0:
339,222,100886,1,0,0:0:0:0:
279,153,101031,1,0,0:0:0:0:
337,84,101175,1,0,0:0:0:0:
277,15,101319,2,0,P|234:31|180:32,1,90
101,20,101607,1,0,0:0:0:0:
157,117,101752,6,0,P|173:164|169:214,1,90
33,264,102040,2,0,P|32:219|47:177,1,90
135,284,102329,2,0,P|182:319|305:319,1,180
389,284,102761,1,0,0:0:0:0:
389,284,102833,1,0,0:0:0:0:
389,284,102906,1,0,0:0:0:0:
389,284,102978,1,0,0:0:0:0:
389,284,103050,6,0,P|408:242|407:196,1,90
289,67,103338,2,0,B|304:202|304:202|263:173,1,180
166,115,103771,1,0,0:0:0:0:
149,238,103915,2,0,P|199:260|256:260,1,90
362,316,104204,6,0,P|345:271|420:159,1,180
458,332,104636,1,0,0:0:0:0:
272,355,104781,1,0,0:0:0:0:
272,355,104853,1,0,0:0:0:0:
272,355,104925,1,0,0:0:0:0:
266,218,105069,2,0,P|280:169|312:123,1,90
317,121,105285,1,0,0:0:0:0:
337,111,105357,2,0,P|405:109|438:97,1,90
223,32,105646,5,0,0:0:0:0:
221,54,105718,1,0,0:0:0:0:
220,76,105790,1,0,0:0:0:0:
219,99,105862,1,0,0:0:0:0:
218,121,105934,2,0,L|213:199,3,45
130,172,106223,2,0,L|134:250,3,45
216,265,106511,5,0,0:0:0:0:
237,258,106583,1,0,0:0:0:0:
259,255,106655,1,0,0:0:0:0:
282,256,106727,1,0,0:0:0:0:
303,261,106799,1,0,0:0:0:0:
324,271,106871,1,0,0:0:0:0:
342,284,106943,1,0,0:0:0:0:
358,300,107015,1,0,0:0:0:0:
370,319,107087,5,0,0:0:0:0:
370,319,107377,1,0,0:0:0:0:
370,319,107665,6,0,P|418:336|467:337,1,90
396,141,107954,2,0,P|351:144|309:160,1,90
201,315,108242,2,0,P|216:262|205:216,1,90
204,113,108531,1,0,0:0:0:0:
309,159,108675,6,0,L|316:256,1,90
133,260,108963,2,0,L|139:170,1,90
208,42,109252,2,0,P|163:55|113:50,1,90
32,31,109540,1,0,0:0:0:0:
59,116,109684,1,0,0:0:0:0:
0,180,109829,1,0,0:0:0:0:
27,265,109973,6,0,P|61:293|108:302,1,90
230,174,110261,2,0,P|186:182|151:211,1,90
29,111,110550,2,0,L|144:126,1,90
190,61,110838,1,0,0:0:0:0:
151,211,110982,6,0,B|134:338|134:338|184:305,1,180
284,325,111415,1,0,0:0:0:0:
259,213,111559,1,0,0:0:0:0:
405,286,111704,1,0,0:0:0:0:
405,286,111776,1,0,0:0:0:0:
405,286,111848,1,0,0:0:0:0:
426,171,111992,1,0,0:0:0:0:
259,213,112136,6,0,P|201:215|107:132,1,180
290,59,112569,2,0,P|307:104|307:165,1,90
91,227,112857,2,0,P|94:182|110:140,1,90
259,213,113146,2,0,P|276:258|276:319,1,90
141,56,113434,6,0,L|239:47,1,90
348,221,113723,2,0,L|250:212,1,90
130,159,114011,1,0,0:0:0:0:
182,310,114156,1,0,0:0:0:0:
348,221,114300,2,0,P|364:169|357:126,1,90
259,51,114588,6,0,L|202:40,3,45
159,124,114877,2,0,L|102:135,3,45
263,159,115165,1,0,0:0:0:0:
273,178,115237,1,0,0:0:0:0:
282,199,115309,1,0,0:0:0:0:
289,220,115381,1,0,0:0:0:0:
293,243,115453,1,0,0:0:0:0:
294,265,115525,1,0,0:0:0:0:
293,287,115597,1,0,0:0:0:0:
290,310,115669,1,0,0:0:0:0:
285,331,115742,6,0,L|274:380,3,45
206,265,116031,2,0,L|195:216,3,45
144,343,116319,1,0,0:0:0:0:
122,350,116391,1,0,0:0:0:0:
100,352,116463,1,0,0:0:0:0:
78,349,116535,1,0,0:0:0:0:
57,340,116607,1,0,0:0:0:0:
40,326,116679,1,0,0:0:0:0:
27,308,116751,1,0,0:0:0:0:
18,287,116823,1,0,0:0:0:0:
15,263,116896,6,0,P|24:196|53:146,1,107.999996704102
128,96,117184,1,0,0:0:0:0:
167,305,117329,2,0,P|158:238|129:188,1,107.999996704102
42,160,117617,1,0,0:0:0:0:
241,166,117761,2,0,L|354:178,1,107.999996704102
470,68,118050,5,0,0:0:0:0:
473,196,118194,2,0,P|491:256|481:324,1,107.999996704102
348,177,118482,2,0,P|346:123|363:72,1,107.999996704102
399,259,118771,1,0,0:0:0:0:
312,302,118915,1,0,0:0:0:0:
258,147,119059,6,0,B|203:129|203:129|44:167,1,215.999993408203
187,318,119492,2,0,P|201:259|191:212,1,107.999996704102
49,165,119781,1,0,0:0:0:0:
97,262,119925,1,0,0:0:0:0:
143,116,120069,1,0,0:0:0:0:
49,165,120213,1,0,0:0:0:0:
191,213,120357,5,0,0:0:0:0:
42,121,120502,2,0,P|19:63|18:6,1,107.999996704102
200,105,120790,2,0,L|189:236,1,107.999996704102
70,240,121079,1,0,0:0:0:0:
42,121,121223,1,0,0:0:0:0:
191,213,121367,6,0,P|246:210|296:60,1,215.999993408203
326,262,121800,2,0,P|270:293|214:299,1,107.999996704102
111,77,122088,2,0,P|163:86|209:114,1,107.999996704102
227,299,122377,2,0,P|174:289|128:261,1,107.999996704102
118,248,122593,1,0,0:0:0:0:
112,232,122665,6,0,L|105:110,1,107.999996704102
304,43,122954,2,0,L|297:150,1,107.999996704102
193,200,123241,1,0,0:0:0:0:
211,72,123386,1,0,0:0:0:0:
379,163,123531,2,0,L|372:270,1,107.999996704102
196,253,123819,6,0,L|192:199,5,53.9999983520508
302,96,124252,2,0,L|298:149,5,53.9999983520508
290,298,124684,2,0,L|286:244,5,53.9999983520508
396,141,125117,2,0,L|392:194,5,53.9999983520508
461,56,125550,1,0,0:0:0:0:
356,30,125694,1,0,0:0:0:0:
290,115,125838,1,0,0:0:0:0:
476,183,125982,6,0,B|499:356|499:356|452:314,1,215.999993408203
310,310,126415,2,0,P|356:277|420:270,1,107.999996704102
275,179,126704,2,0,P|222:169|179:137,1,107.999996704102
258,79,126992,1,0,0:0:0:0:
202,257,127136,6,0,L|82:249,1,107.999996704102
42,93,127425,2,0,L|286:76,1,215.999993408203
395,132,127857,2,0,P|347:76|341:29,1,107.999996704102
267,182,128146,2,0,L|265:299,1,107.999996704102
169,337,128434,5,0,0:0:0:0:
147,232,128579,1,0,0:0:0:0:
265,289,128723,1,0,0:0:0:0:
267,182,128867,1,0,0:0:0:0:
69,306,129011,1,0,0:0:0:0:
147,232,129156,1,0,0:0:0:0:
169,337,129300,1,0,0:0:0:0:
265,289,129444,1,0,0:0:0:0:
339,365,129588,5,0,0:0:0:0:
365,363,129660,1,0,0:0:0:0:
392,357,129732,1,0,0:0:0:0:
416,345,129804,1,0,0:0:0:0:
437,329,129876,1,0,0:0:0:0:
454,308,129948,1,0,0:0:0:0:
467,284,130020,1,0,0:0:0:0:
475,258,130092,1,0,0:0:0:0:
477,231,130164,1,0,0:0:0:0:
328,89,130309,2,0,L|340:203,1,107.999996704102
201,360,130598,6,0,L|227:108,1,215.999993408203
160,60,131031,1,0,0:0:0:0:
83,138,131175,2,0,L|95:252,1,107.999996704102
33,348,131463,1,0,0:0:0:0:
182,294,131607,2,0,P|234:270|292:264,1,107.999996704102
261,361,131896,5,0,0:0:0:0:
360,198,132040,2,0,L|347:77,1,107.999996704102
205,79,132329,2,0,L|180:304,1,215.999993408203
84,346,132761,1,0,0:0:0:0:
46,240,132906,6,0,L|21:14,1,215.999993408203
205,79,133338,2,0,L|192:200,1,107.999996704102
57,347,133627,2,0,L|44:226,1,107.999996704102
93,136,133915,1,0,0:0:0:0:
145,289,134059,1,0,0:0:0:0:
45,239,134204,5,0,0:0:0:0:
193,186,134348,2,0,P|248:166|283:128,1,107.999996704102
405,225,134636,2,0,L|185:184,1,215.999993408203
191,87,135069,1,0,0:0:0:0:
107,236,135213,6,0,B|122:349|122:349|170:315|227:316,1,215.999993408203
111,141,135646,2,0,P|57:136|4:155,1,107.999996704102
217,316,135934,2,0,P|267:333|321:328,1,107.999996704102
245,125,136223,2,0,P|204:160|182:209,1,107.999996704102
377,190,136511,6,0,L|358:75,1,107.999996704102
262,18,136800,2,0,L|243:133,1,107.999996704102
322,344,137088,2,0,L|303:229,1,107.999996704102
140,11,137377,2,0,L|121:126,1,107.999996704102
83,271,137665,5,0,0:0:0:0:
18,167,137809,1,0,0:0:0:0:
158,235,137954,1,0,0:0:0:0:
122,117,138098,1,0,0:0:0:0:
240,224,138242,1,0,0:0:0:0:
235,100,138386,1,0,0:0:0:0:
322,229,138531,1,0,0:0:0:0:
349,107,138675,6,0,P|450:122|501:227,1,215.999993408203
388,312,139107,2,0,P|378:261|393:203,1,107.999996704102
281,100,139396,2,0,L|297:210,1,107.999996704102
457,262,139684,1,0,0:0:0:0:
314,351,139829,6,0,B|267:305|220:302|220:302|184:351|110:345,1,215.999993408203
118,149,140261,2,0,P|142:211|140:257,1,107.999996704102
15,360,140550,2,0,L|27:247,1,107.999996704102
106,41,140838,2,0,L|118:154,1,107.999996704102
221,303,141127,6,0,L|233:190,1,107.999996704102
295,83,141415,2,0,P|243:68|201:22,1,107.999996704102
117,148,141704,2,0,L|128:255,1,107.999996704102
18,361,141992,1,0,0:0:0:0:
29,253,142136,1,0,0:0:0:0:
128,255,142281,6,0,P|180:244|227:206,1,107.999996704102
352,360,142569,2,0,P|300:349|253:311,1,107.999996704102
208,114,142857,2,0,P|260:125|307:163,1,107.999996704102
162,359,143146,2,0,P|214:347|256:315,1,107.999996704102
397,201,143434,6,0,P|344:189|302:157,1,107.999996704102
165,161,143723,2,0,P|183:208|174:291,1,107.999996704102
302,157,144011,1,0,0:0:0:0:
304,130,144083,1,0,0:0:0:0:
306,103,144155,1,0,0:0:0:0:
309,76,144227,1,0,0:0:0:0:
311,49,144299,1,0,0:0:0:0:
165,161,144444,1,0,0:0:0:0:
235,277,144588,5,0,0:0:0:0:
160,255,148627,6,0,B|173:236|171:209|171:209|191:188|191:188|187:152|203:128,2,135
221,320,149204,6,0,P|277:311|361:346,1,135.000005149842
423,132,149781,2,0,L|275:148,1,135.000005149842
86,305,150357,2,0,L|234:321,2,135.000005149842
12,132,151223,1,0,0:0:0:0:
230,198,151511,6,0,P|257:153|262:53,1,135.000005149842
26,232,152088,2,0,P|30:298|62:357,1,135.000005149842
316,298,152665,2,0,L|168:287,1,135.000005149842
47,90,153242,2,0,L|158:81,2,101.250003862381
17,195,153819,6,0,P|63:233|71:309,1,135.000005149842
225,361,154396,2,0,L|243:208,1,135.000005149842
103,22,154973,2,0,L|121:175,2,135.000005149842
30,240,155838,1,0,0:0:0:0:
248,124,156127,6,0,P|295:96|381:99,1,135.000005149842
164,255,156704,2,0,L|24:239,1,135.000005149842
353,226,157281,2,0,L|369:324,2,67.5000025749208
146,105,157857,2,0,L|154:56,7,33.7500012874604
88,168,158434,6,0,L|109:301,1,135.000005149842
403,301,159011,2,0,L|424:168,1,135.000005149842
309,50,159588,2,0,P|244:91|165:93,2,135.000005149842
497,25,160454,1,0,0:0:0:0:
344,280,160742,6,0,L|352:166,2,101.250003862381
109,50,161319,2,0,L|117:164,1,101.250003862381
256,344,161752,1,0,0:0:0:0:
256,344,162617,5,0,0:0:0:0:
256,344,162689,1,0,0:0:0:0:
256,344,162761,1,0,0:0:0:0:
256,344,163050,6,0,L|247:255,1,67.5000025749208
172,115,163338,2,0,L|163:204,1,67.5000025749208
128,295,163627,2,0,P|80:264|38:261,1,90
55,350,163915,1,0,0:0:0:0:
58,167,164059,6,0,B|61:104|15:41|15:41|42:56|70:55,1,180
172,87,164492,2,0,P|221:66|269:65,1,90
332,202,164781,2,0,P|287:197|246:178,1,90
156,250,165069,2,0,P|174:300|177:345,1,90
85,312,165357,5,0,0:0:0:0:
253,288,165502,2,0,P|301:282|349:288,1,90
293,364,165790,1,0,0:0:0:0:
246,178,165934,2,0,P|251:133|267:91,1,90
335,157,166223,1,0,0:0:0:0:
157,210,166367,2,0,P|103:215|61:211,1,90
106,135,166656,1,0,0:0:0:0:
114,290,166800,2,0,P|130:331|135:376,1,90
242,335,167088,2,0,P|288:295|425:298,1,180
485,363,167521,1,0,0:0:0:0:
347,151,167665,5,0,0:0:0:0:
246,245,167809,2,0,L|240:354,1,90
441,283,168098,2,0,L|429:82,1,180
276,102,168531,1,0,0:0:0:0:
246,245,168675,2,0,P|170:250|96:162,1,180
342,191,169107,1,0,0:0:0:0:
224,353,169252,2,0,L|30:334,1,180
10,189,169684,2,0,L|124:177,1,90
284,248,169973,5,0,0:0:0:0:
257,142,170117,2,0,L|142:130,1,90
11,105,170406,2,0,P|87:96|148:2,1,180
44,6,170838,1,0,0:0:0:0:
16,191,170982,6,0,B|26:321|26:321|64:267,1,180
121,166,171415,1,0,0:0:0:0:
192,322,171559,2,0,P|276:316|368:362,1,180
478,348,171992,1,0,0:0:0:0:
485,230,172136,1,0,0:0:0:0:
303,242,172281,6,0,B|273:184|273:184|318:69,1,180
368,178,172713,1,0,0:0:0:0:
217,266,172857,2,0,P|162:275|115:266,1,90
60,192,173146,1,0,0:0:0:0:
137,47,173290,6,0,L|335:80,1,180
456,113,173723,2,0,P|431:59|430:9,1,90
368,159,174011,2,0,L|361:249,1,90
488,349,174300,2,0,L|481:259,1,90
361,248,174588,6,0,P|315:261|249:256,1,90
377,90,174877,2,0,P|421:90|464:102,1,90
302,162,175165,1,0,0:0:0:0:
209,116,175309,1,0,0:0:0:0:
273,260,175454,1,0,0:0:0:0:
99,88,175598,6,0,L|85:273,1,180
216,260,176031,2,0,L|225:383,1,90
274,170,176319,2,0,P|229:154|185:157,1,90
0,281,176607,2,0,P|44:282|86:267,1,90
101,125,176896,6,0,P|90:72|102:30,1,90
274,170,177184,2,0,P|282:213|271:257,1,90
131,336,177473,1,0,0:0:0:0:
155,216,177617,1,0,0:0:0:0:
15,295,177761,1,0,0:0:0:0:
16,103,177906,6,0,B|141:79|141:79|205:108,1,180
316,140,178338,2,0,P|294:96|293:49,1,90
431,23,178627,2,0,L|418:130,1,90
326,229,178915,2,0,L|313:122,1,90
477,179,179204,6,0,L|453:372,1,180
334,352,179636,1,0,0:0:0:0:
326,229,179781,2,0,L|313:122,2,90
210,351,180213,1,0,0:0:0:0:
210,351,180285,1,0,0:0:0:0:
210,351,180357,6,0,P|152:351|122:337,1,90
228,152,180646,2,0,P|269:136|314:139,1,90
452,229,180934,2,0,P|425:187|416:140,1,90
408,57,181223,1,0,0:0:0:0:
303,264,181367,1,0,0:0:0:0:
303,264,182665,5,0,0:0:0:0:
303,264,183819,5,0,0:0:0:0:
303,264,184396,1,0,0:0:0:0:
303,264,184829,1,0,0:0:0:0:
303,264,184901,1,0,0:0:0:0:
303,264,184973,2,0,P|236:262|183:207,2,135
433,220,185550,2,0,L|444:380,2,135
342,159,186127,6,0,L|350:39,1,90
181,128,186415,2,0,L|189:247,1,90
286,330,186704,2,0,P|239:312|200:312,1,90
94,145,186992,2,0,P|138:143|180:127,1,90
338,76,187281,6,0,P|322:135|328:182,1,90
192,216,187569,2,0,L|178:116,1,90
291,273,187857,2,0,L|278:362,1,90
81,326,188146,2,0,P|126:314|178:316,1,90
179,126,188434,6,0,P|134:126|90:114,1,90
288,143,188723,2,0,P|307:202|305:244,1,90
73,293,189011,2,0,L|91:106,1,180
204,33,189444,6,0,B|239:93|239:93|288:51|370:72,1,180
484,54,189877,2,0,P|472:99|476:144,1,90
483,162,190093,1,0,0:0:0:0:
491,182,190165,2,0,P|503:227|499:272,1,90
374,350,190454,1,0,0:0:0:0:
374,350,190742,6,0,L|351:252,1,90
353,262,190958,1,0,0:0:0:0:
353,262,191031,1,0,0:0:0:0:
138,350,191175,2,0,L|161:252,1,90
158,262,191391,1,0,0:0:0:0:
158,262,191464,1,0,0:0:0:0:
272,140,191607,2,0,L|272:256,1,90
272,230,191824,1,0,0:0:0:0:
272,230,191896,1,0,0:0:0:0:
272,230,192184,1,0,0:0:0:0:
272,230,192473,6,0,L|175:224,1,90
182,224,192689,1,0,0:0:0:0:
182,224,192761,1,0,0:0:0:0:
272,60,192906,2,0,L|175:66,1,90
182,65,193122,1,0,0:0:0:0:
182,65,193194,1,0,0:0:0:0:
26,160,193338,2,0,P|76:164|135:143,1,90
114,154,193555,1,0,0:0:0:0:
114,154,193627,1,0,0:0:0:0:
114,154,193915,1,0,0:0:0:0:
114,154,194204,6,0,P|89:225|220:171,1,315
221,163,194781,1,0,0:0:0:0:
399,291,204011,6,0,L|255:282,1,135.000005149842
206,349,204444,1,0,0:0:0:0:
179,265,204588,2,0,P|162:225|184:126,1,135.000005149842
236,72,205021,1,0,0:0:0:0:
264,154,205165,2,0,P|314:171|401:128,2,135.000005149842
176,137,205886,2,0,P|133:131|105:138,1,67.5000025749208
26,165,206175,6,0,P|46:213|43:305,1,135.000005149842
112,351,206607,2,0,P|154:331|194:331,1,67.5000025749208
259,305,206896,2,0,P|307:325|411:318,1,135.000005149842
458,270,207329,1,0,0:0:0:0:
431,186,207473,2,0,L|419:37,2,135.000005149842
370,249,208194,2,0,L|363:326,1,67.5000025749208
289,361,208482,1,0,0:0:0:0:
289,361,209204,6,0,L|280:250,2,107.999996704102
289,361,210069,1,0,0:0:0:0:
196,342,210357,2,0,L|187:231,1,107.999996704102
237,132,210934,6,0,L|240:87,5,45
279,218,211367,2,0,L|282:262,5,45
353,146,211800,2,0,L|356:101,3,45
369,235,212088,6,0,L|432:244,3,45
279,218,212377,2,0,L|216:227,3,45
353,146,212665,1,0,0:0:0:0:
374,140,212737,1,0,0:0:0:0:
397,139,212809,1,0,0:0:0:0:
419,143,212881,1,0,0:0:0:0:
439,152,212953,1,0,0:0:0:0:
457,166,213025,1,0,0:0:0:0:
472,183,213097,1,0,0:0:0:0:
483,203,213169,1,0,0:0:0:0:
488,224,213242,6,0,P|502:285|498:338,1,107.999996704102
395,362,213531,1,0,0:0:0:0:
354,160,213675,2,0,P|340:221|344:274,1,107.999996704102
488,224,213963,1,0,0:0:0:0:
488,74,214107,2,0,L|381:58,1,107.999996704102
249,40,214396,5,0,0:0:0:0:
247,175,214540,2,0,L|354:159,1,107.999996704102
61,89,214829,2,0,L|168:105,1,107.999996704102
249,40,215117,1,0,0:0:0:0:
353,159,215261,1,0,0:0:0:0:
150,236,215406,6,0,B|168:105|168:105|143:144|105:158,1,215.999993408203
152,324,215838,2,0,P|213:299|233:249,1,107.999996704102
36,227,216127,2,0,L|20:351,1,107.999996704102
150,236,216415,1,0,0:0:0:0:
105,157,216559,1,0,0:0:0:0:
22,334,216704,5,0,0:0:0:0:
231,263,216848,2,0,P|286:249|355:258,1,107.999996704102
143,355,217136,2,0,L|156:131,1,215.999993408203
232,49,217569,1,0,0:0:0:0:
234,222,217713,6,0,B|227:349|227:349|284:300|327:301,1,215.999993408203
441,214,218146,2,0,P|420:155|421:105,1,107.999996704102
302,304,218434,2,0,P|323:245|322:195,1,107.999996704102
293,68,218723,2,0,P|252:99|171:106,1,107.999996704102
93,55,219011,1,0,0:0:0:0:
27,157,219156,1,0,0:0:0:0:
198,215,219300,2,0,P|208:160|188:93,1,107.999996704102
50,253,219588,2,0,L|45:365,1,107.999996704102
189,356,219877,2,0,P|243:326|299:327,1,107.999996704102
378,333,220165,6,0,L|382:279,5,53.9999983520508
272,176,220598,2,0,L|276:229,5,53.9999983520508
284,378,221030,2,0,L|288:324,5,53.9999983520508
178,221,221463,2,0,L|182:274,5,53.9999983520508
112,136,221896,1,0,0:0:0:0:
216,116,222040,1,0,0:0:0:0:
278,198,222184,1,0,0:0:0:0:
182,274,222329,6,0,B|30:261|30:261|92:226,1,215.999993408203
64,343,222761,2,0,L|190:354,1,107.999996704102
270,179,223050,2,0,L|144:190,1,107.999996704102
30,261,223338,1,0,0:0:0:0:
53,101,223482,2,0,L|179:112,1,107.999996704102
305,56,223771,2,0,P|272:124|363:230,1,215.999993408203
366,132,224204,1,0,0:0:0:0:
273,162,224348,1,0,0:0:0:0:
256,257,224492,2,0,L|256:368,1,107.999996704102
184,195,224781,5,0,0:0:0:0:
347,227,224925,1,0,0:0:0:0:
201,102,225069,1,0,0:0:0:0:
171,283,225213,1,0,0:0:0:0:
314,117,225357,2,0,L|427:109,1,107.999996704102
476,31,225646,1,0,0:0:0:0:
494,171,225790,1,0,0:0:0:0:
314,117,225934,5,0,0:0:0:0:
297,95,226006,1,0,0:0:0:0:
277,77,226078,1,0,0:0:0:0:
254,63,226150,1,0,0:0:0:0:
229,54,226222,1,0,0:0:0:0:
202,50,226294,1,0,0:0:0:0:
175,51,226366,1,0,0:0:0:0:
149,57,226438,1,0,0:0:0:0:
125,69,226510,1,0,0:0:0:0:
256,224,226656,1,0,0:0:0:0:
256,224,226944,6,0,P|145:213|94:302,1,215.999993408203
192,302,227377,1,0,0:0:0:0:
349,264,227521,2,0,L|328:44,1,215.999993408203
202,194,227954,2,0,L|189:329,1,107.999996704102
281,336,228242,1,0,0:0:0:0:
339,157,228386,2,0,L|326:21,1,107.999996704102
216,77,228675,2,0,P|158:94|95:88,1,107.999996704102
29,28,228963,1,0,0:0:0:0:
64,183,229107,1,0,0:0:0:0:
216,77,229252,6,0,B|379:65|379:65|308:43,1,215.999993408203
166,167,229684,2,0,P|158:232|172:284,1,107.999996704102
344,156,229973,2,0,L|327:39,1,107.999996704102
181,60,230261,2,0,L|164:177,1,107.999996704102
259,231,230550,1,0,0:0:0:0:
97,235,230694,2,0,P|72:188|80:123,1,107.999996704102
274,124,230982,2,0,L|257:241,1,107.999996704102
173,308,231271,1,0,0:0:0:0:
165,166,231415,1,0,0:0:0:0:
373,133,231559,6,0,L|341:351,1,215.999993408203
180,272,231992,2,0,L|164:165,1,107.999996704102
289,17,232281,2,0,L|273:123,1,107.999996704102
164,165,232569,1,0,0:0:0:0:
145,50,232713,1,0,0:0:0:0:
273,123,232857,6,0,P|280:178|262:237,1,107.999996704102
60,230,233146,2,0,P|46:178|53:124,1,107.999996704102
354,216,233434,2,0,L|363:336,1,107.999996704102
53,124,233723,2,0,L|62:4,1,107.999996704102
158,205,234011,6,0,P|105:241|49:248,1,107.999996704102
179,90,234300,1,0,0:0:0:0:
179,90,234444,1,0,0:0:0:0:
238,250,234588,2,0,L|246:366,1,107.999996704102
300,139,234877,1,0,0:0:0:0:
300,139,235021,1,0,0:0:0:0:
94,240,235165,6,0,L|102:124,1,107.999996704102
253,33,235454,1,0,0:0:0:0:
253,33,235598,1,0,0:0:0:0:
192,241,235742,5,0,0:0:0:0:
108,42,235886,1,0,0:0:0:0:
319,97,236031,1,0,0:0:0:0:
89,195,236175,6,0,B|63:355|63:355|108:311,1,215.999993408203
293,270,236607,2,0,P|224:242|174:243,1,107.999996704102
55,89,236896,2,0,L|189:77,1,107.999996704102
373,151,237184,2,0,L|265:160,1,107.999996704102
130,177,237473,5,0,0:0:0:0:
261,70,237617,2,0,L|368:60,1,107.999996704102
454,271,237906,2,0,L|224:250,1,215.999993408203
130,177,238338,1,0,0:0:0:0:
256,176,238482,6,0,P|267:121|258:62,1,107.999996704102
134,283,238771,2,0,P|123:230|129:176,1,107.999996704102
251,371,239059,2,0,P|261:318|255:264,1,107.999996704102
130,177,239348,1,0,0:0:0:0:
42,298,239492,1,0,0:0:0:0:
255,264,239636,6,0,P|318:239|367:243,1,107.999996704102
487,356,239925,1,0,0:0:0:0:
366,342,240069,1,0,0:0:0:0:
478,235,240213,2,0,B|458:81|458:81|403:37,1,215.999993408203
277,158,240646,2,0,P|350:150|387:112,1,107.999996704102
161,83,240934,6,0,L|144:206,1,107.999996704102
239,287,241223,1,0,0:0:0:0:
277,158,241367,1,0,0:0:0:0:
146,189,241511,2,0,L|129:312,1,107.999996704102
347,352,241800,2,0,L|330:229,1,107.999996704102
369,113,242088,6,0,P|311:79|288:39,1,107.999996704102
206,221,242377,2,0,P|226:292|219:344,1,107.999996704102
107,175,242665,1,0,0:0:0:0:
315,206,242809,1,0,0:0:0:0:
117,158,242954,1,0,0:0:0:0:
325,189,243098,1,0,0:0:0:0:
167,343,243242,6,0,P|147:279|151:236,1,107.999996704102
262,29,243531,2,0,P|263:82|245:133,1,107.999996704102
245,229,243819,1,0,0:0:0:0:
185,68,243963,1,0,0:0:0:0:
233,226,244107,1,0,0:0:0:0:
173,65,244251,1,0,0:0:0:0:
374,126,244396,6,0,P|323:157|271:161,1,107.999996704102
74,29,244684,2,0,P|127:35|172:64,1,107.999996704102
171,211,244973,1,0,0:0:0:0:
254,66,245117,1,0,0:0:0:0:
180,207,245261,1,0,0:0:0:0:
263,62,245405,1,0,0:0:0:0:
369,206,245550,6,0,P|317:231|248:225,1,107.999996704102
154,107,245838,1,0,0:0:0:0:
154,107,245982,1,0,0:0:0:0:
348,99,246127,2,0,L|460:109,1,107.999996704102
267,230,246415,1,0,0:0:0:0:
267,230,246559,1,0,0:0:0:0:
266,43,246704,6,0,L|154:53,1,107.999996704102
49,187,246992,2,0,L|161:197,1,107.999996704102
281,133,247281,1,0,0:0:0:0:
153,277,247425,1,0,0:0:0:0:
158,52,247569,1,0,0:0:0:0:
253,231,247713,1,0,0:0:0:0:
343,63,247857,6,0,P|293:42|233:55,1,107.999996704102
143,177,248146,1,0,0:0:0:0:
333,167,248290,6,0,P|349:119|341:58,1,107.999996704102
190,23,248579,1,0,0:0:0:0:
241,207,248723,6,0,L|252:328,1,107.999996704102
119,328,249011,1,0,0:0:0:0:
160,156,249156,6,0,P|212:120|256:116,1,107.999996704102
326,263,249444,1,0,0:0:0:0:
105,231,249588,6,0,P|71:175|78:123,1,107.999996704102
335,92,249877,2,0,P|334:145|303:188,1,107.999996704102
175,270,250165,6,0,L|178:211,3,53.9999983520508
260,323,250454,2,0,L|263:382,3,53.9999983520508
353,287,250742,1,0,0:0:0:0:
379,280,250814,1,0,0:0:0:0:
403,268,250886,1,0,0:0:0:0:
423,250,250958,1,0,0:0:0:0:
439,228,251030,1,0,0:0:0:0:
449,203,251102,1,0,0:0:0:0:
453,177,251174,1,0,0:0:0:0:
450,150,251246,1,0,0:0:0:0:
442,124,251319,6,0,L|428:59,1,53.9999983520508
350,20,251463,2,0,L|335:85,1,53.9999983520508
258,124,251607,2,0,L|243:58,1,53.9999983520508
165,19,251751,2,0,L|150:84,1,53.9999983520508
87,194,251896,6,0,L|157:184,1,53.9999983520508
300,78,252040,2,0,L|230:68,1,53.9999983520508
71,183,252184,2,0,L|141:173,1,53.9999983520508
316,67,252328,2,0,L|246:57,1,53.9999983520508
75,39,252473,5,0,0:0:0:0:
75,39,252906,5,0,0:0:0:0:
75,39,252978,1,0,0:0:0:0:
75,39,253051,2,0,P|96:91|87:160,1,90
15,102,253338,1,0,0:0:0:0:
164,43,253482,2,0,B|183:105|168:156|168:156|201:124|252:124,1,180
365,107,253915,2,0,P|312:75|294:40,1,90
225,126,254204,5,0,0:0:0:0:
224,139,254276,1,0,0:0:0:0:
223,152,254348,1,0,0:0:0:0:
222,166,254420,1,0,0:0:0:0:
222,179,254492,1,0,0:0:0:0:
221,193,254564,1,0,0:0:0:0:
220,206,254636,1,0,0:0:0:0:
220,220,254708,1,0,0:0:0:0:
219,233,254780,1,0,0:0:0:0:
219,233,255213,5,0,0:0:0:0:
219,233,255285,1,0,0:0:0:0:
219,233,255357,2,0,P|274:251|323:242,1,90
273,158,255646,1,0,0:0:0:0:
113,235,255790,2,0,B|124:371|124:371|86:340,1,180
30,196,256223,2,0,L|39:89,1,90
159,51,256511,5,0,0:0:0:0:
200,214,256656,1,0,0:0:0:0:
207,11,256800,1,0,0:0:0:0:
207,11,257088,1,0,0:0:0:0:
207,11,257521,1,0,0:0:0:0:
207,11,257593,1,0,0:0:0:0:
207,11,257665,2,0,P|259:34|314:35,1,90
380,18,257954,1,0,0:0:0:0:
380,18,258026,1,0,0:0:0:0:
380,18,258098,1,0,0:0:0:0:
350,102,258242,6,0,L|344:254,2,120
162,102,258819,2,0,L|168:254,2,120
256,276,259396,1,0,0:0:0:0:
256,276,259829,5,0,0:0:0:0:
256,276,259901,1,0,0:0:0:0:
256,276,259973,2,0,P|187:263|164:240,1,90
179,161,260261,1,0,0:0:0:0:
348,195,260406,2,0,L|361:374,1,180
238,362,260838,1,0,0:0:0:0:
173,251,260982,2,0,L|181:131,2,90
173,251,261415,1,0,0:0:0:0:
348,195,261559,6,0,L|361:374,1,180
238,362,261992,1,0,0:0:0:0:
173,251,262136,2,0,L|181:131,2,90
173,251,262569,1,0,0:0:0:0:
361,374,262713,6,0,L|348:195,1,180
323,107,263146,1,0,0:0:0:0:
265,176,263290,1,0,0:0:0:0:
234,91,263434,1,0,0:0:0:0:
176,160,263579,1,0,0:0:0:0:
145,75,263723,1,0,0:0:0:0:
87,144,263867,1,0,0:0:0:0:
56,59,264011,6,0,L|61:10,1,45
176,160,264228,2,0,L|181:209,1,45
50,53,264444,2,0,L|55:4,1,45
182,166,264661,2,0,L|187:215,1,45
44,47,264877,1,0,0:0:0:0:
24,284,265021,6,0,B|90:301|146:254|146:254|172:318|252:330|252:330|214:274|232:181|310:163,1,450
299,170,265814,1,0,0:0:0:0:
312,172,265886,1,0,0:0:0:0:
