osu file format v14

[General]
AudioFilename: FormatFactory08_rzhfdjpjzht.mp3
AudioLeadIn: 0
PreviewTime: 57366
Countdown: 0
SampleSet: Soft
StackLeniency: 0.7
Mode: 0
LetterboxInBreaks: 0
WidescreenStoryboard: 1

[Editor]
DistanceSpacing: 1.2
BeatDivisor: 4
GridSize: 16
TimelineZoom: 3.699999

[Metadata]
Title:Pandemic Sudden Death
TitleUnicode:パンデミックサドンデス
Artist:UNISON SQUARE GARDEN
ArtistUnicode:ユニゾン・スクエア・ガーデン
Creator:-NanoRIPE-
Version:Hard
Source:
Tags:Dr Izzy ドクター・イジー Toys Factory USG
BeatmapID:1069175
BeatmapSetID:481622

[Difficulty]
HPDrainRate:5
CircleSize:4
OverallDifficulty:6
ApproachRate:8
SliderMultiplier:1.3
SliderTickRate:1

[Events]
//Background and Video events
0,0,"dark-anime-wallpaper-21.jpg",0,0
//Break Periods
2,92696,95207
2,194755,203236
//Storyboard Layer 0 (Background)
//Storyboard Layer 1 (Fail)
//Storyboard Layer 2 (Pass)
//Storyboard Layer 3 (Foreground)
//Storyboard Layer 4 (Overlay)
//Storyboard Sound Samples

[TimingPoints]
5,-100,4,2,1,50,0,0
333,288.461538461538,4,2,1,60,1,0
4948,-133.333333333333,4,2,1,60,0,0
5236,-100,4,2,1,60,0,0
6318,-111.111111111111,4,2,1,50,0,0
6679,-125,4,2,1,50,0,0
7063,-142.857142857143,4,2,1,50,0,0
7256,-100,4,2,1,60,0,0
9275,-133.333333333333,4,2,1,60,0,0
9563,-100,4,2,1,70,0,0
28025,-100,4,2,1,55,0,0
36679,-111.111111111111,4,2,1,55,0,0
37111,-133.333333333333,4,2,1,45,0,0
51102,-100,4,2,1,60,0,0
55717,-100,4,2,1,60,0,0
58025,-100,4,2,1,70,0,1
67111,-100,4,2,1,60,0,0
71727,-100,4,2,1,70,0,1
80957,-100,4,2,1,60,0,0
92496,-100,4,2,1,60,0,0
95957,-100,4,2,1,50,0,0
97832,-100,4,2,1,60,0,0
98409,-111.111111111111,4,2,1,55,0,0
107640,-100,4,2,1,60,0,0
116871,-100,4,2,1,70,0,1
125957,-100,4,2,1,60,0,0
130573,-100,4,2,1,70,0,1
139804,-100,4,2,1,60,0,0
144563,-100,4,2,1,50,0,0
149179,-111.111111111111,4,2,1,55,0,0
157832,-166.666666666667,4,2,1,55,0,0
158409,-111.111111111111,4,2,1,55,0,0
163025,-100,4,2,1,65,0,0
181342,-100,4,2,1,55,0,0
186102,-100,4,2,1,60,0,0
190717,-100,4,2,1,60,0,0
192448,288.461538461538,4,2,1,60,1,0
192448,-90.9090909090909,4,2,1,60,0,0
203986,-133.333333333333,4,2,1,50,0,0
210909,-100,4,2,1,60,0,0
213217,-90.9090909090909,4,2,1,70,0,1
222303,-90.9090909090909,4,2,1,60,0,0
226919,-90.9090909090909,4,2,1,70,0,1
236149,-100,4,2,1,60,0,0
243217,-100,4,2,1,60,0,0
247544,-100,4,2,1,60,0,0
247832,-100,4,2,1,60,0,0
252447,-100,4,2,1,60,0,0
253457,-100,4,2,1,60,0,0
257063,-133.333333333333,4,2,1,60,0,0
257351,-100,4,2,1,60,0,0
258361,-100,4,2,1,50,0,0
259371,-100,4,2,1,60,0,0
263986,-100,4,2,1,60,0,0
266005,-100,4,2,1,60,0,0

[Colours]
Combo1 : 192,192,192
Combo2 : 59,59,59
Combo3 : 128,128,128
Combo4 : 255,255,0

[HitObjects]
125,132,333,5,0,0:0:0:0:
125,132,765,2,0,L|165:150,2,32.5
96,59,1054,1,0,0:0:0:0:
39,113,1198,1,0,0:0:0:0:
176,66,1342,6,0,L|318:56,1,130
373,22,1775,2,0,P|395:53|401:93,1,65
409,156,2063,2,0,L|453:146,3,32.5
477,133,2352,2,0,L|513:144,3,32.5
503,181,2640,5,0,0:0:0:0:
486,278,3073,2,0,L|504:318,2,32.5
418,225,3361,1,0,0:0:0:0:
404,302,3506,1,0,0:0:0:0:
317,244,3650,6,0,L|330:99,1,130
280,52,4082,1,0,0:0:0:0:
256,39,4371,1,0,0:0:0:0:
178,48,4515,1,0,0:0:0:0:
100,57,4659,1,0,0:0:0:0:
100,57,4948,6,0,P|86:94|109:151,1,97.50000371933
169,190,5381,5,0,0:0:0:0:
169,190,5453,1,0,0:0:0:0:
169,190,5525,1,0,0:0:0:0:
226,137,5669,1,0,0:0:0:0:
296,175,5813,2,0,P|285:227|274:309,1,130
216,355,6246,6,0,B|176:341|176:341|83:357|83:357|42:338|6:341,2,195
293,368,7256,5,0,0:0:0:0:
293,368,7977,2,0,L|301:316,2,32.5
275,267,8554,5,0,0:0:0:0:
197,273,8698,1,0,0:0:0:0:
119,278,8842,1,0,0:0:0:0:
41,285,8986,1,0,0:0:0:0:
41,285,9275,6,0,P|31:245|56:201,1,73.1250027894975
64,188,9563,6,0,L|47:41,1,130
174,20,9996,1,0,0:0:0:0:
174,20,10140,2,0,L|159:149,1,130
197,217,10573,6,0,P|249:186|325:197,1,130
370,249,11006,1,0,0:0:0:0:
430,199,11150,1,0,0:0:0:0:
385,135,11294,2,0,P|371:92|381:51,1,65
286,1,11582,2,0,P|286:33|273:63,1,65
201,127,11871,6,0,L|173:-1,2,130
155,190,12592,2,0,L|84:178,1,65
24,248,12881,6,0,L|177:273,1,130
227,287,13313,1,0,0:0:0:0:
283,341,13457,1,0,0:0:0:0:
302,265,13602,2,0,P|290:218|303:178,1,65
388,141,13890,2,0,P|389:173|378:203,1,65
311,127,14179,6,0,B|241:113|251:178|162:147,1,130
135,96,14611,1,0,0:0:0:0:
135,96,14756,2,0,P|149:155|149:244,1,130
107,288,15188,6,0,P|149:257|245:276,1,130
296,290,15621,1,0,0:0:0:0:
237,341,15765,1,0,0:0:0:0:
306,376,15909,2,0,L|377:366,1,65
446,298,16198,2,0,L|375:288,1,65
356,207,16486,6,0,P|426:205|482:144,2,130
277,211,17207,2,0,P|282:259|284:283,1,65
190,312,17496,6,0,P|198:202|199:154,1,130
143,126,17929,1,0,0:0:0:0:
143,126,18073,1,0,0:0:0:0:
90,68,18217,2,0,P|55:55|24:57,1,65
16,185,18506,2,0,P|48:185|78:173,1,65
143,126,18794,6,0,L|188:128,3,32.5
214,128,19082,2,0,P|224:165|214:209,1,65
157,240,19371,1,0,0:0:0:0:
162,265,19659,1,0,0:0:0:0:
230,303,19804,6,0,B|346:288|346:288|370:265,2,130
255,148,20669,1,0,0:0:0:0:
310,93,20813,2,0,L|416:84,1,97.5
439,107,21102,6,0,L|430:160,3,32.5
455,171,21390,2,0,P|463:210|450:250,1,65
398,285,21679,1,0,0:0:0:0:
404,314,21967,1,0,0:0:0:0:
316,336,22111,6,0,B|326:224|326:224|303:183,2,130
161,364,22977,1,0,0:0:0:0:
118,298,23121,2,0,L|106:184,1,97.5
106,162,23409,6,0,P|141:167|180:155,1,65
231,112,23698,1,0,0:0:0:0:
226,81,23986,1,0,0:0:0:0:
280,24,24131,2,0,P|315:18|367:34,1,65
410,84,24419,6,0,L|424:0,1,65
485,124,24707,2,0,L|499:40,1,65
418,167,24996,2,0,L|430:239,1,65
437,308,25284,1,0,0:0:0:0:
378,360,25429,2,0,L|271:345,1,97.5
240,343,25717,6,0,P|227:303|238:262,1,65
281,222,26006,1,0,0:0:0:0:
277,193,26294,1,0,0:0:0:0:
220,139,26438,1,0,0:0:0:0:
220,139,26582,2,0,L|146:134,1,65
96,83,26871,6,0,P|119:119|96:205,1,130
89,277,27304,2,0,L|182:272,1,65
231,264,27592,1,0,0:0:0:0:
308,258,27736,1,0,0:0:0:0:
308,258,28025,6,0,L|313:302,3,32.5
320,328,28313,2,0,P|363:332|398:313,1,65
444,276,28602,2,0,L|456:131,1,130
422,75,29034,6,0,P|396:36|396:4,1,65
327,97,29323,2,0,P|347:121|354:153,1,65
242,147,29611,2,0,P|253:82|265:8,1,130
186,34,30044,2,0,B|131:57|140:19|73:40,1,97.5
51,55,30332,6,0,L|46:99,3,32.5
33,124,30621,2,0,P|19:152|17:197,1,65
76,233,30909,2,0,L|226:249,1,130
274,210,31342,6,0,P|263:168|268:135,1,65
361,220,31631,1,0,0:0:0:0:
361,220,31775,2,0,L|344:293,1,65
281,356,32063,2,0,L|266:292,1,65
205,246,32352,1,0,0:0:0:0:
172,346,32496,6,0,B|107:330|114:381|34:356,1,130
70,284,32929,2,0,P|85:243|83:204,1,65
36,161,33217,2,0,P|25:109|35:70,1,65
87,49,33506,2,0,L|166:42,1,65
268,23,33794,6,0,P|248:67|252:112,1,65
307,143,34082,2,0,P|322:114|328:82,1,65
381,24,34371,2,0,L|454:33,1,65
475,104,34659,2,0,L|402:113,1,65
348,209,34948,6,0,P|395:193|483:308,2,195
346,365,36102,1,0,0:0:0:0:
283,317,36246,6,0,L|135:326,1,130
78,339,36679,2,0,P|55:286|80:228,1,116.999996429443
148,199,37111,6,0,L|136:79,1,97.50000371933
193,46,37544,1,0,0:0:0:0:
215,34,37832,2,0,P|253:52|320:52,1,97.50000371933
461,105,38409,6,0,P|412:106|368:125,1,97.50000371933
281,278,38986,2,0,L|291:172,1,97.50000371933
198,146,39419,6,0,L|207:243,1,97.50000371933
164,307,39852,1,0,0:0:0:0:
151,328,40140,2,0,P|109:312|54:318,1,97.50000371933
0,179,40717,6,0,P|48:184|93:167,1,97.50000371933
192,46,41294,1,0,0:0:0:0:
192,46,41438,2,0,L|183:156,1,97.50000371933
230,206,41871,5,0,0:0:0:0:
238,227,42159,2,0,P|273:213|295:211,1,48.750001859665
337,307,42448,2,0,P|302:293|280:291,1,48.750001859665
371,229,42736,2,0,P|406:215|428:213,1,48.750001859665
473,142,43025,6,0,P|436:139|369:101,1,97.50000371933
251,46,43602,2,0,P|288:43|355:5,1,97.50000371933
155,30,44179,6,0,L|171:133,1,97.50000371933
61,245,44756,2,0,L|75:148,1,97.50000371933
174,240,45332,6,0,P|226:219|276:218,1,97.50000371933
455,196,45909,2,0,P|406:192|362:172,1,97.50000371933
336,98,46342,5,0,0:0:0:0:
353,74,46631,2,0,L|360:23,2,48.750001859665
249,45,47063,2,0,P|264:132|267:160,1,97.50000371933
128,227,47640,6,0,P|134:178|144:130,1,97.50000371933
236,222,48217,1,0,0:0:0:0:
236,222,48361,2,0,P|276:208|339:212,1,97.50000371933
395,253,48794,5,0,0:0:0:0:
414,274,49082,2,0,L|478:266,1,48.750001859665
389,366,49371,2,0,B|352:356|352:356|326:368|326:368|273:359,1,97.50000371933
230,237,49948,6,0,B|221:280|221:280|197:311,2,73.1250027894975
175,180,50525,2,0,B|157:156|157:156|148:113,2,73.1250027894975
249,156,51102,6,0,L|320:146,1,65
349,78,51390,2,0,L|429:94,1,65
484,122,51679,2,0,L|479:209,1,65
410,221,51967,2,0,L|416:303,1,65
369,350,52256,6,0,B|298:330|324:379|233:363,1,130
129,258,52832,2,0,B|200:238|174:287|265:271,1,130
235,196,53265,1,0,0:0:0:0:
310,177,53409,6,0,L|335:36,1,130
254,39,53842,1,0,0:0:0:0:
254,39,53986,2,0,P|209:49|172:41,1,65
115,23,54275,1,0,0:0:0:0:
13,92,54419,6,0,P|30:163|41:227,1,130
27,296,54852,2,0,P|55:256|133:247,1,130
197,287,55284,1,0,0:0:0:0:
260,241,55429,1,0,0:0:0:0:
260,241,55717,6,0,L|265:203,5,32.5
241,176,56150,2,0,L|236:138,5,32.5
241,102,56582,6,0,P|285:112|346:78,1,97.5
355,61,56871,1,0,0:0:0:0:
355,61,57159,1,0,0:0:0:0:
355,61,58025,6,0,L|382:214,1,130
247,225,58457,2,0,L|269:96,1,130
248,21,58890,1,0,0:0:0:0:
248,21,59034,1,0,0:0:0:0:
176,52,59179,6,0,P|131:65|106:63,1,65
44,26,59467,1,0,0:0:0:0:
16,98,59611,2,0,P|43:153|28:238,1,130
18,296,60044,1,0,0:0:0:0:
93,313,60188,6,0,B|166:328|144:278|244:288,1,130
240,211,60621,2,0,L|220:134,1,65
336,207,60909,1,0,0:0:0:0:
336,207,61054,2,0,L|319:269,1,65
384,313,61342,1,0,0:0:0:0:
441,260,61486,5,0,0:0:0:0:
441,260,61631,2,0,P|443:212|430:174,1,65
434,118,61919,2,0,P|348:114|274:101,1,130
260,43,62352,1,0,0:0:0:0:
201,92,62496,6,0,B|186:153|235:143|209:236,1,130
140,189,62929,2,0,L|73:181,1,65
20,286,63217,2,0,P|110:274|158:269,2,130
148,374,64082,5,0,0:0:0:0:
226,238,64371,2,0,P|232:190|219:156,1,65
160,135,64659,2,0,P|154:87|167:53,1,65
225,32,64948,6,0,L|263:40,5,32.5
293,54,65381,2,0,L|324:47,5,32.5
359,29,65813,2,0,L|390:35,5,32.5
414,67,66246,2,0,L|448:60,5,32.5
484,51,66679,6,0,P|471:92|480:128,1,65
505,184,66967,1,0,0:0:0:0:
421,252,67111,6,0,P|357:242|281:232,1,130
240,174,67544,2,0,P|226:127|236:92,1,65
176,53,67832,2,0,P|148:69|116:73,1,65
39,59,68121,1,0,0:0:0:0:
61,133,68265,6,0,L|38:269,1,130
82,326,68698,2,0,L|221:307,1,130
287,291,69131,1,0,0:0:0:0:
287,291,69275,2,0,P|322:306|350:343,1,65
403,370,69563,6,0,P|381:327|424:246,1,130
498,126,70140,2,0,L|490:203,2,65
455,60,70573,1,0,0:0:0:0:
383,91,70717,6,0,L|376:138,2,32.5
314,53,71006,2,0,L|309:20,2,32.5
244,87,71294,1,0,0:0:0:0:
282,154,71438,1,0,0:0:0:0:
272,176,71727,6,0,L|285:309,1,130
224,360,72159,1,0,0:0:0:0:
183,292,72304,2,0,B|116:280|137:328|40:314,1,130
13,252,72736,2,0,P|4:207|16:174,1,65
97,111,73025,5,0,0:0:0:0:
97,111,73169,2,0,L|87:191,1,65
175,209,73457,2,0,L|171:132,1,65
238,103,73746,1,0,0:0:0:0:
238,103,73890,1,0,0:0:0:0:
287,163,74034,6,0,L|438:156,1,130
472,212,74467,2,0,P|453:242|453:280,1,65
395,346,74756,1,0,0:0:0:0:
395,346,74900,2,0,P|380:315|355:296,1,65
278,298,75188,1,0,0:0:0:0:
197,356,75332,5,0,0:0:0:0:
197,356,75477,2,0,L|209:204,2,130
118,359,76198,1,0,0:0:0:0:
45,331,76342,6,0,P|21:280|54:186,1,130
80,146,76775,2,0,P|123:171|152:169,1,65
210,122,77063,2,0,P|171:173|185:241,1,130
207,308,77496,1,0,0:0:0:0:
277,273,77640,6,0,L|435:263,1,130
458,209,78073,1,0,0:0:0:0:
393,165,78217,2,0,P|372:129|371:92,1,65
306,5,78506,2,0,P|300:36|282:63,1,65
176,12,78794,6,0,P|191:74|204:146,1,130
131,170,79227,1,0,0:0:0:0:
222,252,79371,2,0,B|291:262|275:216|366:232,1,130
371,154,79804,6,0,P|359:111|370:67,2,65
436,112,80236,2,0,P|459:74|499:53,2,65
509,139,80669,1,0,0:0:0:0:
503,216,80813,1,0,0:0:0:0:
493,293,80957,6,0,B|452:288|452:288|423:298|423:298|366:293,1,130
301,247,81390,2,0,P|279:208|281:167,1,65
230,125,81679,2,0,P|196:143|159:143,1,65
96,119,81967,2,0,P|62:101|25:101,1,65
28,185,82256,6,0,B|37:223|37:223|32:265|32:265|41:320,1,130
96,365,82688,2,0,L|236:345,1,130
256,274,83121,1,0,0:0:0:0:
317,335,83265,6,0,P|298:288|339:204,1,130
398,191,83698,2,0,L|465:198,1,65
439,98,83986,2,0,P|336:107|301:109,1,130
232,19,84419,6,0,P|266:52|256:143,1,130
230,200,84852,1,0,0:0:0:0:
230,200,84996,1,0,0:0:0:0:
166,155,85140,2,0,P|132:142|96:140,1,65
107,218,85429,2,0,P|58:241|41:259,1,65
68,323,85717,6,0,L|205:300,1,130
269,272,86150,1,0,0:0:0:0:
340,240,86294,2,0,P|291:246|227:194,1,130
188,132,86727,1,0,0:0:0:0:
233,68,86871,6,0,B|301:77|301:77|351:56,1,97.5
365,71,87159,2,0,L|379:155,1,65
443,174,87448,2,0,L|432:246,1,65
373,287,87736,1,0,0:0:0:0:
348,299,88025,6,0,P|297:290|271:258,1,65
230,335,88313,2,0,P|208:288|219:248,1,65
130,278,88602,2,0,P|141:227|174:203,1,65
91,167,88890,2,0,P|134:139|175:145,1,65
139,60,89179,6,0,P|190:67|217:98,1,65
254,19,89467,2,0,P|278:64|269:104,1,65
356,75,89756,2,0,P|337:123|301:142,1,65
386,183,90044,2,0,P|340:208|300:199,1,65
256,192,90332,12,0,92496,0:0:0:0:
256,190,95957,5,0,0:0:0:0:
256,190,97832,1,0,0:0:0:0:
256,190,98121,1,0,0:0:0:0:
131,95,98409,6,0,L|139:55,3,29.2499991073609
149,30,98698,2,0,P|183:25|225:36,1,58.4999982147217
265,76,98986,2,0,L|396:67,1,116.999996429443
449,102,99419,6,0,L|436:172,1,58.4999982147217
367,187,99707,2,0,L|381:263,1,58.4999982147217
325,300,99996,1,0,0:0:0:0:
259,337,100140,2,0,L|221:328,3,29.2499991073609
206,300,100429,2,0,L|177:306,3,29.2499991073609
161,340,100717,2,0,L|114:329,3,29.2499991073609
97,317,101006,6,0,P|106:277|96:241,1,58.4999982147217
68,193,101294,1,0,0:0:0:0:
47,205,101582,1,0,0:0:0:0:
11,137,101727,6,0,L|28:16,1,116.999996429443
53,13,102304,1,0,0:0:0:0:
111,60,102448,2,0,L|143:48,7,29.2499991073609
171,70,103025,6,0,L|166:148,1,58.4999982147217
262,179,103313,2,0,L|254:56,1,116.999996429443
319,21,103746,2,0,L|452:29,1,116.999996429443
504,115,104179,6,0,L|371:123,1,116.999996429443
337,184,104611,1,0,0:0:0:0:
384,243,104756,2,0,L|390:291,3,29.2499991073609
392,309,105044,1,0,0:0:0:0:
343,367,105188,5,0,0:0:0:0:
343,367,105260,1,0,0:0:0:0:
343,367,105332,2,0,P|293:373|267:359,1,58.4999982147217
241,308,105621,1,0,0:0:0:0:
241,308,105693,1,0,0:0:0:0:
241,308,105765,2,0,P|191:302|165:316,1,58.4999982147217
120,346,106054,2,0,L|126:381,4,29.2499991073609
73,285,106486,6,0,L|79:228,7,29.2499991073609
80,217,107063,1,0,0:0:0:0:
83,192,107352,1,0,0:0:0:0:
86,165,107640,6,0,L|226:149,1,130
256,83,108073,1,0,0:0:0:0:
322,123,108217,2,0,P|345:165|307:254,1,130
376,298,108650,6,0,L|450:291,1,65
449,369,108938,2,0,L|375:376,1,65
311,345,109227,2,0,B|241:329|266:373|164:359,1,130
132,303,109659,1,0,0:0:0:0:
132,303,109804,1,0,0:0:0:0:
69,256,109948,6,0,P|83:217|81:179,1,65
50,122,110236,2,0,P|36:83|38:45,1,65
102,18,110525,2,0,L|237:25,1,130
263,95,110957,6,0,P|225:139|231:217,1,130
290,253,111390,2,0,L|373:245,1,65
432,238,111679,1,0,0:0:0:0:
482,178,111823,1,0,0:0:0:0:
420,129,111967,1,0,0:0:0:0:
474,73,112111,6,0,P|435:81|343:89,1,130
278,47,112544,2,0,L|201:35,1,65
143,71,112832,2,0,L|69:76,1,65
19,127,113121,2,0,L|32:203,1,65
86,247,113409,6,0,B|164:267|140:209|218:221,1,130
354,165,113986,2,0,B|276:185|300:127|222:139,1,130
156,118,114419,1,0,0:0:0:0:
96,31,114563,6,0,P|107:85|111:183,1,130
72,227,114996,1,0,0:0:0:0:
121,287,115140,2,0,L|256:273,1,130
323,302,115573,1,0,0:0:0:0:
389,262,115717,6,0,L|396:217,3,32.5
356,218,116006,2,0,L|349:173,3,32.5
381,161,116294,2,0,L|388:119,3,32.5
352,110,116582,2,0,L|345:68,3,32.5
345,38,116871,6,0,P|256:68|210:61,1,130
128,160,117304,2,0,P|192:159|251:186,1,130
296,249,117736,1,0,0:0:0:0:
296,249,117881,1,0,0:0:0:0:
230,291,118025,6,0,L|155:283,1,65
96,320,118313,1,0,0:0:0:0:
36,269,118457,2,0,P|56:211|26:126,1,130
18,70,118890,1,0,0:0:0:0:
122,28,119034,6,0,B|201:17|178:71|269:46,1,130
320,76,119467,2,0,L|311:150,1,65
226,208,119756,1,0,0:0:0:0:
226,208,119900,2,0,L|218:143,1,65
147,111,120188,1,0,0:0:0:0:
96,169,120332,5,0,0:0:0:0:
96,169,120477,2,0,P|87:209|100:248,1,65
116,305,120765,2,0,B|204:289|169:340|264:315,1,130
226,242,121198,1,0,0:0:0:0:
340,280,121342,6,0,P|327:217|316:144,1,130
360,86,121775,2,0,P|410:99|448:96,1,65
318,16,122063,2,0,B|255:8|266:53|186:31,1,130
114,23,122496,1,0,0:0:0:0:
138,97,122640,6,0,P|157:145|154:186,1,65
234,219,122929,2,0,P|239:187|253:158,1,65
337,149,123217,2,0,L|321:287,1,130
328,356,123650,1,0,0:0:0:0:
247,363,123794,6,0,L|209:357,5,32.5
193,324,124227,2,0,L|160:329,5,32.5
132,355,124659,2,0,L|99:349,5,32.5
68,325,125092,2,0,L|35:330,5,32.5
7,303,125525,6,0,P|32:263|33:221,1,65
17,170,125813,1,0,0:0:0:0:
120,237,125957,6,0,L|276:217,1,130
326,212,126390,2,0,P|355:241|363:278,1,65
437,322,126679,2,0,P|449:292|473:270,1,65
501,198,126967,1,0,0:0:0:0:
434,157,127111,6,0,B|448:48|448:48|420:10,1,130
365,66,127544,2,0,P|329:78|292:75,1,65
242,27,127832,2,0,P|206:15|169:18,1,65
106,44,128121,1,0,0:0:0:0:
106,44,128265,1,0,0:0:0:0:
191,104,128409,6,0,P|180:162|170:235,1,130
289,333,128986,2,0,P|277:288|272:258,2,65
360,366,129419,1,0,0:0:0:0:
414,309,129563,6,0,L|459:302,2,32.5
380,237,129852,2,0,L|335:230,2,32.5
442,191,130140,1,0,0:0:0:0:
420,116,130284,1,0,0:0:0:0:
427,87,130573,6,0,P|380:89|311:35,1,130
256,94,131006,1,0,0:0:0:0:
201,38,131150,2,0,P|152:79|88:82,1,130
29,133,131582,2,0,P|46:170|40:207,1,65
16,294,131871,5,0,0:0:0:0:
16,294,132015,2,0,L|108:278,1,65
131,375,132304,2,0,L|39:359,1,65
169,306,132592,1,0,0:0:0:0:
169,306,132736,1,0,0:0:0:0:
241,276,132881,6,0,P|250:211|249:146,1,130
210,78,133313,2,0,P|166:89|143:83,1,65
259,19,133602,1,0,0:0:0:0:
259,19,133746,2,0,P|290:15|321:25,1,65
376,80,134034,1,0,0:0:0:0:
456,21,134179,6,0,P|426:59|451:138,1,130
502,185,134611,2,0,L|489:333,1,130
437,372,135044,1,0,0:0:0:0:
387,278,135188,6,0,B|310:262|332:314|250:287,1,130
212,228,135621,2,0,P|232:191|234:156,1,65
189,80,135909,2,0,P|225:125|321:120,1,130
356,86,136342,1,0,0:0:0:0:
423,46,136486,6,0,P|462:79|458:175,1,130
411,206,136919,1,0,0:0:0:0:
369,272,137063,2,0,L|377:338,1,65
267,384,137352,2,0,L|274:319,1,65
246,227,137640,6,0,B|187:219|191:268|108:247,1,130
74,186,138073,1,0,0:0:0:0:
20,264,138217,2,0,P|40:210|46:127,1,130
115,101,138650,6,0,P|157:130|182:132,2,65
70,37,139082,2,0,P|46:15|15:5,2,65
147,27,139515,1,0,0:0:0:0:
224,21,139659,1,0,0:0:0:0:
293,57,139804,6,0,L|279:193,1,130
226,242,140236,2,0,P|186:262|166:293,1,65
96,264,140525,2,0,P|100:308|122:338,1,65
175,368,140813,2,0,L|256:358,1,65
283,295,141102,6,0,B|355:279|341:327|423:313,1,130
500,188,141679,2,0,B|428:172|442:220|360:206,1,130
335,140,142111,1,0,0:0:0:0:
272,209,142256,6,0,P|216:192|186:189,1,65
157,248,142544,2,0,P|101:265|71:268,1,65
28,225,142832,2,0,L|38:151,1,65
105,123,143121,2,0,L|102:48,1,65
176,33,143409,6,0,P|216:43|261:44,1,65
307,118,143698,2,0,P|274:121|243:129,1,65
202,195,143986,2,0,L|196:243,3,32.5
171,256,144275,2,0,L|188:327,1,65
256,351,144563,5,0,0:0:0:0:
256,351,148602,6,0,L|356:339,2,97.5
185,321,149179,6,0,B|165:288|165:288|182:187,1,116.999996429443
185,100,149756,2,0,B|198:177|198:177|178:210,1,116.999996429443
68,87,150332,6,0,L|205:102,1,116.999996429443
294,197,150909,2,0,L|157:212,1,116.999996429443
339,294,151486,6,0,P|296:249|300:181,1,116.999996429443
438,49,152063,2,0,P|433:106|392:146,1,116.999996429443
245,84,152640,6,0,B|281:65|281:65|376:75,1,116.999996429443
281,243,153217,2,0,P|292:194|304:147,2,87.7499973220826
229,299,153794,6,0,P|196:281|112:280,1,116.999996429443
23,158,154371,2,0,P|80:160|133:137,1,116.999996429443
174,72,154804,1,0,0:0:0:0:
244,101,154948,6,0,P|297:124|354:121,1,116.999996429443
470,23,155525,2,0,L|461:86,1,58.4999982147217
454,156,155813,1,0,0:0:0:0:
454,156,156102,6,0,P|415:175|396:247,1,116.999996429443
299,361,156679,2,0,P|288:305|239:275,1,116.999996429443
87,277,157256,2,0,P|116:256|133:222,1,58.4999982147217
109,163,157544,1,0,0:0:0:0:
247,30,157832,6,0,P|236:88|233:152,1,116.999996429443
265,215,158409,6,0,L|384:198,1,116.999996429443
501,337,158986,2,0,L|382:320,1,116.999996429443
316,285,159419,1,0,0:0:0:0:
284,354,159563,6,0,L|168:370,2,116.999996429443
177,244,160429,1,0,0:0:0:0:
64,142,160717,6,0,P|75:201|78:237,2,87.7499973220826
132,108,161294,2,0,P|136:64|145:21,2,87.7499973220826
132,108,162592,6,0,L|179:103,1,29.2499991073609
198,101,162736,1,0,0:0:0:0:
198,101,163025,6,0,B|241:106|241:106|285:93|285:93|338:100,1,130
436,208,163602,2,0,B|393:203|393:203|349:216|349:216|296:209,1,130
234,186,164034,6,0,P|270:237|246:307,1,130
196,352,164467,2,0,L|121:341,1,65
119,265,164756,2,0,L|37:249,1,65
17,184,165044,2,0,P|16:137|39:107,1,65
90,82,165332,6,0,L|79:5,2,65
146,136,165765,2,0,L|136:200,2,65
209,90,166198,1,0,0:0:0:0:
313,115,166342,6,0,P|300:168|290:254,1,130
336,306,166775,2,0,B|410:295|395:348|473:328,2,130
269,347,167496,1,0,0:0:0:0:
218,288,167640,6,0,B|153:273|171:331|87:307,1,130
27,269,168073,2,0,P|0:225|27:150,1,130
88,112,168506,1,0,0:0:0:0:
148,160,168650,6,0,P|135:100|133:12,2,130
274,68,169515,1,0,0:0:0:0:
274,68,169659,2,0,L|263:135,1,65
313,192,169948,6,0,P|354:180|385:186,1,65
450,202,170236,1,0,0:0:0:0:
497,264,170381,2,0,P|480:215|516:141,1,130
510,68,170813,1,0,0:0:0:0:
439,34,170957,6,0,L|361:29,1,65
312,77,171246,2,0,L|227:81,1,65
183,34,171534,2,0,P|138:35|93:107,1,130
119,173,171967,1,0,0:0:0:0:
148,186,172256,6,0,B|222:169|193:222|288:202,2,130
97,246,172977,2,0,L|15:233,1,65
4,163,173265,6,0,P|30:124|38:77,1,65
86,47,173554,2,0,L|165:57,1,65
209,4,173842,2,0,L|297:14,1,65
331,63,174131,1,0,0:0:0:0:
406,42,174275,2,0,P|447:29|476:32,1,65
506,98,174563,6,0,P|497:140|486:255,1,130
384,344,175140,2,0,P|377:279|364:215,1,130
364,137,175573,6,0,B|286:139|325:186|238:179,1,130
178,139,176006,1,0,0:0:0:0:
108,174,176150,2,0,P|125:244|135:331,1,130
184,359,176582,2,0,P|234:343|262:344,1,65
322,358,176871,6,0,B|364:351|364:351|415:364|415:364|464:356,1,130
353,234,177448,2,0,B|311:241|311:241|260:228|260:228|211:236,1,130
175,293,177881,6,0,P|196:256|165:161,1,130
121,121,178313,2,0,L|130:57,1,65
202,25,178602,2,0,L|213:95,1,65
264,146,178890,1,0,0:0:0:0:
281,163,179179,6,0,B|356:151|331:211|432:181,1,130
449,251,179611,1,0,0:0:0:0:
398,311,179756,2,0,B|323:299|348:359|247:329,1,130
211,289,180188,5,0,0:0:0:0:
211,289,180260,1,0,0:0:0:0:
211,289,180332,2,0,P|222:246|210:222,1,65
144,193,180621,2,0,P|122:198|67:183,2,65
203,141,181054,2,0,L|193:76,1,65
252,26,181342,1,0,0:0:0:0:
252,26,182640,5,0,0:0:0:0:
252,26,183794,5,0,0:0:0:0:
209,122,184371,1,0,0:0:0:0:
191,154,184948,6,0,B|160:144|160:144|83:154,2,97.5
262,186,185525,2,0,B|293:196|293:196|370:186,2,97.5
204,239,186102,6,0,L|224:313,1,65
289,357,186390,2,0,L|305:294,1,65
376,256,186679,2,0,L|392:318,1,65
462,362,186967,2,0,L|477:293,1,65
499,223,187256,6,0,L|476:85,1,130
348,8,187832,2,0,L|326:136,1,130
311,213,188265,1,0,0:0:0:0:
241,177,188409,6,0,B|167:164|201:209|110:197,1,130
70,347,188986,2,0,P|110:327|141:328,1,65
199,362,189275,1,0,0:0:0:0:
254,306,189419,6,0,L|240:170,1,130
190,116,189852,1,0,0:0:0:0:
236,53,189996,1,0,0:0:0:0:
236,53,190068,1,0,0:0:0:0:
236,53,190140,2,0,P|272:45|309:58,1,65
361,98,190429,1,0,0:0:0:0:
376,117,190717,6,0,L|371:164,5,32.5
401,175,191150,2,0,L|406:222,5,32.5
370,225,191582,2,0,L|365:272,3,32.5
361,296,191871,6,0,P|316:288|256:315,1,97.5
245,336,192159,1,0,0:0:0:0:
245,336,192448,6,0,L|192:328,5,35.7500010910034
174,306,192880,2,0,L|138:311,5,35.7500010910034
95,311,193313,2,0,P|80:262|116:194,1,107.25000327301
135,189,193601,5,0,0:0:0:0:
253,241,193890,1,0,0:0:0:0:
259,193,203986,6,0,L|247:310,1,97.50000371933
113,367,204563,2,0,L|103:270,1,97.50000371933
55,207,204996,5,0,0:0:0:0:
55,207,205068,1,0,0:0:0:0:
55,207,205140,2,0,L|68:102,2,97.50000371933
209,230,206005,1,0,0:0:0:0:
182,75,206294,6,0,P|220:94|283:90,1,97.50000371933
344,60,206726,1,0,0:0:0:0:
344,60,206798,1,0,0:0:0:0:
344,60,206871,2,0,P|321:97|331:167,1,97.50000371933
365,299,207447,6,0,B|426:285|415:326|481:299,1,97.50000371933
477,229,207880,1,0,0:0:0:0:
413,184,208024,2,0,P|411:144|416:124,2,48.750001859665
312,229,208457,1,0,0:0:0:0:
312,229,210909,6,0,P|262:215|171:205,1,130
123,156,211342,2,0,P|144:93|151:17,1,130
228,21,211774,2,0,P|271:37|303:35,1,65
366,23,212063,6,0,L|379:65,3,32.5
363,90,212351,2,0,L|350:132,3,32.5
377,152,212640,2,0,L|386:183,3,32.5
360,211,212928,2,0,L|350:242,3,32.5
360,284,213217,6,0,L|201:275,1,143.000004364014
111,184,213649,2,0,L|270:175,1,143.000004364014
289,105,214082,1,0,0:0:0:0:
289,105,214226,1,0,0:0:0:0:
262,30,214371,6,0,P|211:24|169:38,1,71.5000021820069
116,50,214659,1,0,0:0:0:0:
40,28,214803,2,0,P|71:60|66:156,1,143.000004364014
29,222,215236,1,0,0:0:0:0:
81,279,215380,6,0,P|131:278|198:186,1,143.000004364014
217,139,215813,2,0,L|209:67,1,71.5000021820069
313,117,216101,1,0,0:0:0:0:
313,117,216246,2,0,L|305:189,1,71.5000021820069
293,277,216534,5,0,0:0:0:0:
293,277,216678,2,0,P|333:262|375:262,1,71.5000021820069
397,330,216967,1,0,0:0:0:0:
461,284,217111,2,0,B|489:211|429:233|454:114,1,143.000004364014
492,79,217544,1,0,0:0:0:0:
391,22,217688,6,0,P|337:32|241:36,1,143.000004364014
171,51,218121,2,0,P|146:97|166:187,1,143.000004364014
223,232,218553,1,0,0:0:0:0:
283,182,218697,2,0,L|360:175,1,71.5000021820069
455,200,218986,6,0,P|428:239|426:269,1,71.5000021820069
415,363,219274,2,0,P|391:336|357:325,1,71.5000021820069
278,384,219563,2,0,L|126:371,1,143.000004364014
107,298,219996,1,0,0:0:0:0:
164,244,220140,6,0,L|173:201,5,35.7500010910034
145,179,220572,2,0,L|136:136,5,35.7500010910034
166,116,221005,2,0,L|175:73,5,35.7500010910034
135,68,221438,2,0,L|126:25,5,35.7500010910034
91,15,221871,6,0,P|47:17|15:38,1,71.5000021820069
1,105,222159,1,0,0:0:0:0:
68,207,222303,6,0,P|50:342|49:372,1,143.000004364014
122,379,222736,2,0,P|166:357|206:359,1,71.5000021820069
258,323,223024,2,0,P|309:347|343:339,1,71.5000021820069
379,291,223313,1,0,0:0:0:0:
403,216,223457,6,0,B|321:201|351:252|248:230,1,143.000004364014
234,159,223890,2,0,L|220:84,1,71.5000021820069
149,55,224178,2,0,L|135:125,1,71.5000021820069
122,203,224467,1,0,0:0:0:0:
122,203,224611,1,0,0:0:0:0:
72,324,224755,6,0,P|126:296|216:300,1,143.000004364014
346,370,225332,2,0,P|288:366|269:357,2,71.5000021820069
412,326,225765,1,0,0:0:0:0:
358,268,225909,6,0,L|316:261,2,35.7500010910034
430,237,226197,2,0,L|472:230,2,35.7500010910034
374,181,226486,1,0,0:0:0:0:
411,111,226630,1,0,0:0:0:0:
411,80,226919,6,0,P|324:112|262:100,1,143.000004364014
203,74,227351,1,0,0:0:0:0:
206,152,227496,2,0,P|234:240|220:301,1,143.000004364014
269,361,227928,2,0,P|309:337|338:336,1,71.5000021820069
432,366,228217,5,0,0:0:0:0:
432,366,228361,2,0,L|417:279,1,71.5000021820069
512,215,228649,2,0,L|499:285,1,71.5000021820069
434,203,228938,1,0,0:0:0:0:
434,203,229082,1,0,0:0:0:0:
390,137,229226,6,0,B|317:130|342:186|227:165,1,143.000004364014
194,116,229659,2,0,P|170:74|171:46,1,71.5000021820069
69,15,229947,1,0,0:0:0:0:
69,15,230092,2,0,P|65:50|44:79,1,71.5000021820069
5,147,230380,1,0,0:0:0:0:
58,204,230524,6,0,L|139:197,2,71.5000021820069
12,288,230957,2,0,L|157:276,1,143.000004364014
228,302,231390,1,0,0:0:0:0:
290,349,231534,6,0,P|264:298|304:216,1,143.000004364014
370,201,231967,2,0,P|411:223|444:222,1,71.5000021820069
391,121,232255,2,0,B|306:105|345:159|237:137,1,143.000004364014
188,95,232688,1,0,0:0:0:0:
239,33,232832,6,0,P|293:9|386:21,1,143.000004364014
451,37,233265,1,0,0:0:0:0:
497,99,233409,2,0,L|506:170,1,71.5000021820069
511,267,233697,2,0,P|464:251|417:258,1,71.5000021820069
327,281,233986,6,0,P|340:206|342:132,1,143.000004364014
286,83,234419,1,0,0:0:0:0:
226,196,234563,2,0,P|228:267|241:337,1,143.000004364014
169,370,234996,1,0,0:0:0:0:
136,298,235140,6,0,L|49:286,1,71.5000021820069
11,217,235428,2,0,L|98:205,1,71.5000021820069
131,146,235717,1,0,0:0:0:0:
195,93,235861,1,0,0:0:0:0:
142,34,236005,1,0,0:0:0:0:
195,93,236149,6,0,B|271:82|249:132|344:110,1,130
397,125,236582,2,0,L|384:200,1,65
309,208,236871,2,0,L|322:283,1,65
393,298,237159,2,0,P|438:281|475:287,1,65
421,380,237447,6,0,L|280:362,1,130
244,300,237880,2,0,L|115:316,1,130
47,276,238313,1,0,0:0:0:0:
51,198,238457,6,0,P|106:167|181:183,1,130
243,204,238890,2,0,L|316:196,1,65
360,139,239178,2,0,L|349:290,1,130
402,373,239611,6,0,P|457:371|458:296,1,130
447,231,240044,1,0,0:0:0:0:
508,183,240188,2,0,P|503:121|510:44,1,130
439,15,240621,2,0,P|398:33|353:37,1,65
260,23,240909,6,0,P|297:62|295:143,1,130
244,192,241342,1,0,0:0:0:0:
172,223,241486,2,0,P|131:271|133:335,1,130
196,381,241919,1,0,0:0:0:0:
246,302,242063,6,0,B|311:289|311:289|371:301,1,97.5
381,301,242351,2,0,L|460:289,1,65
404,219,242640,2,0,L|468:209,1,65
485,133,242928,1,0,0:0:0:0:
465,111,243217,6,0,L|382:99,1,65
362,33,243505,2,0,L|297:42,1,65
253,106,243794,2,0,L|163:94,1,65
140,36,244082,2,0,L|75:44,1,65
40,114,244371,6,0,P|72:148|71:252,1,130
175,352,244947,2,0,P|176:288|216:237,1,130
283,196,245380,1,0,0:0:0:0:
348,237,245524,6,0,P|384:231|412:206,1,65
351,157,245813,2,0,P|377:132|387:96,1,65
311,86,246101,2,0,P|315:49|300:15,1,65
235,59,246390,2,0,P|210:32|174:22,1,65
164,98,246678,6,0,P|127:95|94:112,1,65
139,175,246967,2,0,P|106:191|86:223,1,65
73,289,247255,1,0,0:0:0:0:
73,289,247399,1,0,0:0:0:0:
120,351,247544,1,0,0:0:0:0:
120,351,247688,1,0,0:0:0:0:
188,314,247832,6,0,B|233:304|233:304|265:311|265:311|321:298,1,130
306,221,248265,2,0,B|261:231|261:231|229:224|229:224|173:237,1,130
185,157,248697,2,0,B|230:147|230:147|262:154|262:154|318:141,1,130
311,64,249130,6,0,B|261:75|261:75|229:68|229:68|184:78,1,130
108,58,249563,2,0,P|66:36|36:32,1,65
44,166,249851,2,0,P|75:157|102:140,1,65
256,192,250140,12,0,252447,0:0:0:0:
62,90,252880,6,0,L|21:64,2,32.5
136,66,253169,1,0,0:0:0:0:
136,143,253313,1,0,0:0:0:0:
205,26,253457,6,0,L|338:31,1,130
343,108,253890,2,0,P|328:144|332:185,1,65
385,222,254178,2,0,L|421:227,3,32.5
445,198,254467,2,0,L|486:192,3,32.5
499,161,254755,5,0,0:0:0:0:
451,92,255188,2,0,L|486:62,2,32.5
381,57,255476,1,0,0:0:0:0:
374,135,255621,1,0,0:0:0:0:
271,47,255765,6,0,L|285:184,1,130
250,246,256197,1,0,0:0:0:0:
238,263,256486,1,0,0:0:0:0:
160,252,256630,1,0,0:0:0:0:
83,239,256774,1,0,0:0:0:0:
83,239,257063,6,0,P|96:193|71:134,1,97.50000371933
31,86,257496,6,0,L|-7:78,2,32.5
92,38,257784,1,0,0:0:0:0:
168,24,257928,2,0,P|212:28|248:109,1,130
296,160,258361,6,0,B|351:153|351:153|403:173|403:173|438:147|508:154,2,195
241,216,259371,5,0,0:0:0:0:
241,216,259803,2,0,L|237:263,2,32.5
169,183,260092,1,0,0:0:0:0:
140,255,260236,1,0,0:0:0:0:
51,196,260380,5,0,0:0:0:0:
51,196,261390,1,0,0:0:0:0:
136,124,261534,5,0,0:0:0:0:
136,124,262544,1,0,0:0:0:0:
43,59,262688,6,0,P|52:116|58:201,1,130
43,265,263121,1,0,0:0:0:0:
43,265,263265,1,0,0:0:0:0:
112,300,263409,2,0,L|178:293,1,65
243,252,263697,2,0,P|232:209|261:153,1,97.5
288,146,263986,5,0,0:0:0:0:
288,146,264058,2,0,L|376:153,1,65
389,136,264274,2,0,L|461:127,1,65
492,130,264491,2,0,P|472:173|478:220,1,65
490,223,264707,1,0,0:0:0:0:
453,291,264851,1,0,0:0:0:0:
256,192,264996,12,0,266005,0:0:0:0:
