osu file format v14

[General]
AudioFilename: FormatFactory08_rzhfdjpjzht.mp3
AudioLeadIn: 0
PreviewTime: 57366
Countdown: 0
SampleSet: None
StackLeniency: 0.7
Mode: 0
LetterboxInBreaks: 0
WidescreenStoryboard: 1

[Editor]
Bookmarks: 323,95947,149169,194745
DistanceSpacing: 1
BeatDivisor: 4
GridSize: 32
TimelineZoom: 4.699997

[Metadata]
Title:Pandemic Sudden Death
TitleUnicode:パンデミックサドンデス
Artist:UNISON SQUARE GARDEN
ArtistUnicode:ユニゾン・スクエア・ガーデン
Creator:-NanoRIPE-
Version:HS
Source:
Tags:Dr Izzy ドクター・イジー Toys Factory USG
BeatmapID:2892379
BeatmapSetID:481622

[Difficulty]
HPDrainRate:6.5
CircleSize:3.8
OverallDifficulty:6
ApproachRate:8
SliderMultiplier:1.7
SliderTickRate:1

[Events]
//Background and Video events
0,0,"dark-anime-wallpaper-21.jpg",0,0
//Break Periods
//Storyboard Layer 0 (Background)
//Storyboard Layer 1 (Fail)
//Storyboard Layer 2 (Pass)
//Storyboard Layer 3 (Foreground)
//Storyboard Layer 4 (Overlay)
//Storyboard Sound Samples

[TimingPoints]
333,288.461538461538,4,2,1,60,1,0
6102,-83.3333333333333,4,2,1,60,0,0
6198,-83.3333333333333,4,2,1,5,0,0
6294,-83.3333333333333,4,2,1,60,0,0
6390,-83.3333333333333,4,2,1,5,0,0
6486,-83.3333333333333,4,2,1,60,0,0
6582,-83.3333333333333,4,2,1,5,0,0
6679,-83.3333333333333,4,2,1,60,0,0
6775,-83.3333333333333,4,2,1,5,0,0
6871,-83.3333333333333,4,2,1,60,0,0
6967,-83.3333333333333,4,2,1,5,0,0
7063,-83.3333333333333,4,2,1,60,0,0
7159,-83.3333333333333,4,2,1,5,0,0
7256,-100,4,2,1,60,0,0
19371,-142.857142857143,4,2,1,60,0,0
21102,-100,4,2,1,60,0,0
21679,-142.857142857143,4,2,1,60,0,0
23409,-100,4,2,1,60,0,0
23986,-142.857142857143,4,2,1,60,0,0
25717,-100,4,2,1,60,0,0
26294,-142.857142857143,4,2,1,60,0,0
28025,-111.111111111111,4,2,1,60,0,0
37111,-142.857142857143,4,2,1,60,0,0
49948,-111.111111111111,4,2,1,60,0,0
50044,-111.111111111111,4,2,1,5,0,0
50140,-111.111111111111,4,2,1,60,0,0
50236,-111.111111111111,4,2,1,5,0,0
50332,-111.111111111111,4,2,1,60,0,0
50429,-111.111111111111,4,2,1,5,0,0
50525,-111.111111111111,4,2,1,60,0,0
50621,-111.111111111111,4,2,1,5,0,0
50717,-111.111111111111,4,2,1,60,0,0
50813,-111.111111111111,4,2,1,5,0,0
50909,-111.111111111111,4,2,1,60,0,0
51006,-111.111111111111,4,2,1,5,0,0
51102,-100,4,2,1,60,0,0
57448,-333.333333333333,4,2,1,60,0,0
57953,-333.333333333333,4,2,1,5,0,0
58025,-83.3333333333333,4,2,1,60,0,1
71438,-333.333333333333,4,2,1,60,0,0
71655,-333.333333333333,4,2,1,5,0,0
71727,-83.3333333333333,4,2,1,60,0,1
85933,-83.3333333333333,4,2,1,5,0,1
86006,-83.3333333333333,4,2,1,60,0,1
92496,-83.3333333333333,4,2,1,60,0,0
92929,-142.857142857143,4,2,1,60,0,0
97832,-100,4,2,1,60,0,0
98409,-142.857142857143,4,2,1,60,0,0
107063,-200,4,2,1,60,0,0
107640,-100,4,2,1,60,0,0
116871,-83.3333333333333,4,2,1,60,0,1
125957,-83.3333333333333,4,2,1,60,0,0
130284,-250,4,2,1,60,0,0
130573,-83.3333333333333,4,2,1,60,0,1
139804,-83.3333333333333,4,2,1,60,0,0
149179,-125,4,2,1,60,0,0
153217,-83.3333333333333,4,2,1,60,0,0
153794,-125,4,2,1,60,0,0
157832,-250,4,2,1,60,0,0
158409,-125,4,2,1,60,0,0
163025,-90.9090909090909,4,2,1,60,0,0
181342,-111.111111111111,4,2,1,60,0,0
186102,-100,4,2,1,60,0,0
192448,288.461538461538,4,2,1,60,1,0
192448,-90.9090909090909,4,2,1,60,0,0
203986,-125,4,2,1,60,0,0
210909,-100,4,2,1,60,0,0
213217,-76.9230769230769,4,2,1,60,0,1
222303,-90.9090909090909,4,2,1,60,0,0
226630,-250,4,2,1,60,0,0
226919,-76.9230769230769,4,2,1,60,0,1
236149,-83.3333333333333,4,2,1,60,0,0
247832,-76.9230769230769,4,2,1,60,0,0
253457,-83.3333333333333,4,2,1,60,0,0

[Colours]
Combo1 : 192,192,192
Combo2 : 59,59,59
Combo3 : 128,128,128
Combo4 : 255,255,0

[HitObjects]
252,191,333,5,4,0:0:0:0:
152,193,765,1,2,0:0:0:0:
152,193,837,1,2,0:0:0:0:
152,193,909,1,2,0:0:0:0:
152,193,1054,1,2,0:0:0:0:
371,194,1198,1,10,0:0:0:0:
256,268,1342,1,4,0:0:0:0:
152,193,1631,5,2,0:0:0:0:
371,194,1775,1,8,0:0:0:0:
152,193,1919,1,0,0:0:0:0:
254,109,2063,1,8,3:0:0:0:
254,109,2207,1,8,3:0:0:0:
254,109,2280,1,8,3:0:0:0:
254,109,2352,1,8,3:0:0:0:
254,109,2424,1,8,3:0:0:0:
254,109,2496,1,8,3:0:0:0:
254,109,2568,1,8,3:0:0:0:
371,194,2640,1,2,0:3:0:0:
146,196,3073,5,2,0:0:0:0:
146,196,3145,1,2,0:0:0:0:
146,196,3217,1,2,0:0:0:0:
146,196,3361,1,2,0:0:0:0:
362,188,3506,1,8,0:0:0:0:
251,267,3650,1,4,0:0:0:0:
358,280,3938,1,2,0:0:0:0:
358,280,4082,1,2,0:0:0:0:
358,280,4371,1,6,0:0:0:0:
362,283,4515,1,6,0:0:0:0:
358,280,4659,1,6,0:0:0:0:
363,187,4948,5,2,3:0:0:0:
154,197,5381,1,2,0:0:0:0:
154,197,5453,1,2,0:0:0:0:
154,197,5525,1,2,0:0:0:0:
154,197,5669,1,8,3:0:0:0:
255,104,5813,1,8,3:0:0:0:
255,104,5885,1,8,3:0:0:0:
255,104,6102,5,0,0:0:0:0:
337,193,6294,1,0,0:0:0:0:
255,104,6390,1,0,0:0:0:0:
255,104,6486,1,0,0:0:0:0:
255,104,6582,1,0,0:0:0:0:
337,193,6679,1,0,0:0:0:0:
255,104,6775,1,0,0:0:0:0:
337,193,6871,1,0,0:0:0:0:
255,104,6967,1,0,0:0:0:0:
337,193,7063,1,0,0:0:0:0:
255,104,7159,1,0,0:0:0:0:
256,281,7256,5,0,0:0:0:0:
369,190,7977,1,0,0:0:0:0:
369,190,8049,1,0,0:0:0:0:
369,190,8121,1,0,0:0:0:0:
369,190,8554,1,0,0:0:0:0:
369,190,8698,1,0,0:0:0:0:
369,190,8842,1,0,0:0:0:0:
369,190,8986,1,0,0:0:0:0:
165,193,9275,5,0,0:0:0:0:
