osu file format v14

[General]
AudioFilename: FormatFactory08_rzhfdjpjzht.mp3
AudioLeadIn: 0
PreviewTime: 57366
Countdown: 0
SampleSet: Soft
StackLeniency: 0.4
Mode: 0
LetterboxInBreaks: 0
WidescreenStoryboard: 1

[Editor]
Bookmarks: 333,95957,148602,156679,194755
DistanceSpacing: 0.4
BeatDivisor: 4
GridSize: 4
TimelineZoom: 3.199999

[Metadata]
Title:Pandemic Sudden Death
TitleUnicode:パンデミックサドンデス
Artist:UNISON SQUARE GARDEN
ArtistUnicode:ユニゾン・スクエア・ガーデン
Creator:-NanoRIPE-
Version:Collab Insane
Source:
Tags:Dr Izzy ドクター・イジー Toys Factory USG
BeatmapID:2756073
BeatmapSetID:481622

[Difficulty]
HPDrainRate:6
CircleSize:4
OverallDifficulty:7
ApproachRate:9
SliderMultiplier:1
SliderTickRate:1

[Events]
//Background and Video events
0,0,"dark-anime-wallpaper-21.jpg",0,0
//Break Periods
2,144763,148002
2,194954,202809
//Storyboard Layer 0 (Background)
//Storyboard Layer 1 (Fail)
//Storyboard Layer 2 (Pass)
//Storyboard Layer 3 (Foreground)
//Storyboard Layer 4 (Overlay)
//Storyboard Sound Samples

[TimingPoints]
333,288.461538461538,4,2,1,60,1,0
333,-55.5555555555556,4,2,1,60,0,0
4876,-55.5555555555556,4,2,1,5,0,0
4948,-55.5555555555556,4,2,1,60,0,0
6102,-142.857142857143,4,2,1,60,0,0
6486,-58.8235294117647,4,2,1,60,0,0
6871,-37.037037037037,4,2,1,60,0,0
9275,-55.5555555555556,4,2,1,60,0,0
9491,-55.5555555555556,4,2,1,5,0,0
9563,-55.5555555555556,4,2,1,60,0,0
23409,-55.5555555555556,4,2,1,60,0,0
23986,-55.5555555555556,4,2,1,60,0,0
25717,-55.5555555555556,4,2,1,60,0,0
26294,-55.5555555555556,4,2,1,60,0,0
28025,-55.5555555555556,4,2,1,60,0,0
35381,-62.5,4,2,1,60,0,0
35813,-71.4285714285714,4,2,1,60,0,0
37111,-71.4285714285714,4,2,1,60,0,0
49948,-62.5,4,2,1,60,0,0
51102,-55.5555555555556,4,2,1,60,0,0
56799,-55.5555555555556,4,2,1,5,0,0
56871,-55.5555555555556,4,2,1,60,0,0
57448,-200,4,2,1,60,0,0
57953,-200,4,2,1,5,0,0
58025,-50,4,2,1,60,0,1
67111,-55.5555555555556,4,2,1,60,0,0
70717,-71.4285714285714,4,2,1,60,0,0
71006,-55.5555555555556,4,2,1,60,0,0
71438,-55.5555555555556,4,2,1,60,0,0
71727,-50,4,2,1,60,0,1
80957,-55.5555555555556,4,2,1,60,0,0
85933,-55.5555555555556,4,2,1,5,0,1
86006,-55.5555555555556,4,2,1,60,0,1
92496,-55.5555555555556,4,2,1,60,0,0
92929,-62.5,4,2,1,60,0,0
98409,-55.5555555555556,4,2,1,60,0,0
107063,-100,4,2,1,60,0,0
107640,-55.5555555555556,4,2,1,60,0,0
116871,-50,4,2,1,60,0,0
149179,-71.4285714285714,4,2,1,60,0,0
153217,-71.4285714285714,4,2,1,60,0,0
153794,-71.4285714285714,4,2,1,60,0,0
157832,-71.4285714285714,4,2,1,60,0,0
158409,-71.4285714285714,4,2,1,60,0,0
160717,-67.5675675675676,4,2,1,60,0,0
163025,-45.4545454545455,4,2,1,60,0,0
163241,-45.4545454545455,4,2,1,5,0,0
163313,-45.4545454545455,4,2,1,60,0,0
166558,-45.4545454545455,4,2,1,5,0,0
166631,-45.4545454545455,4,2,1,60,0,0
168866,-45.4545454545455,4,2,1,5,0,0
168938,-45.4545454545455,4,2,1,60,0,0
169876,-45.4545454545455,4,2,1,5,0,0
169948,-45.4545454545455,4,2,1,60,0,0
171174,-45.4545454545455,4,2,1,5,0,0
171246,-45.4545454545455,4,2,1,60,0,0
172760,-45.4545454545455,4,2,1,5,0,0
172832,-45.4545454545455,4,2,1,60,0,0
179179,-50,4,2,1,60,0,0
180332,-55.5555555555556,4,2,1,60,0,0
181342,-55.5555555555556,4,2,1,60,0,0
184948,-62.5,4,2,1,60,0,0
186102,-55.5555555555556,4,2,1,60,0,0
192448,288.461538461538,4,2,1,60,1,0
192448,-55.5555555555556,4,2,1,60,0,0
194178,-200,4,2,1,60,0,0
203409,-250,4,2,1,60,0,0
203986,-71.4285714285714,4,2,1,60,0,0
210909,-55.5555555555556,4,2,1,60,0,0

[Colours]
Combo1 : 192,192,192
Combo2 : 59,59,59
Combo3 : 128,128,128
Combo4 : 255,255,0

[HitObjects]
50,35,333,5,0,0:0:0:0:
270,88,765,1,0,0:0:0:0:
270,88,837,1,0,0:0:0:0:
270,88,909,2,0,L|288:190,1,89.9999972534181
168,106,1198,1,0,0:0:0:0:
163,274,1342,6,0,B|225:262|225:262|273:286|273:286|335:274,1,179.999994506836
350,261,1703,1,0,0:0:0:0:
365,248,1775,1,0,0:0:0:0:
460,166,1919,1,0,0:0:0:0:
460,166,1991,1,0,0:0:0:0:
460,166,2063,2,0,L|475:222,3,44.999998626709
380,113,2352,2,0,L|367:156,3,44.999998626709
337,27,2640,5,0,0:0:0:0:
149,154,3073,1,0,0:0:0:0:
149,154,3145,1,0,0:0:0:0:
149,154,3217,2,0,L|251:135,1,89.9999972534181
380,113,3506,1,0,0:0:0:0:
335,274,3650,6,0,B|273:262|273:262|225:286|225:286|163:274,1,179.999994506836
35,175,4082,2,0,L|50:263,1,89.9999972534181
43,282,4299,1,0,0:0:0:0:
35,300,4371,1,0,0:0:0:0:
141,172,4515,1,0,0:0:0:0:
249,274,4659,2,0,B|265:173|265:173|224:110,1,134.999995880127
236,129,4948,5,0,0:0:0:0:
459,282,5381,1,0,0:0:0:0:
459,282,5453,1,0,0:0:0:0:
459,282,5525,2,0,L|442:370,1,89.9999972534181
354,278,5813,2,0,L|342:344,2,44.999998626709
249,274,6102,6,0,L|260:206,1,46.6666652425131
144,270,6486,6,0,L|165:147,1,113.333335494995
39,266,6871,6,0,L|68:88,1,180.000000686646
68,88,7256,5,0,0:0:0:0:
249,274,7977,5,0,0:0:0:0:
245,293,8049,1,0,0:0:0:0:
241,312,8121,1,0,0:0:0:0:
241,312,8554,5,0,0:0:0:0:
155,235,8698,1,0,0:0:0:0:
265,198,8842,1,0,0:0:0:0:
352,274,8986,1,0,0:0:0:0:
351,274,9275,6,0,P|371:322|325:297,1,134.999995880127
357,243,9563,6,0,L|375:140,1,89.9999972534181
277,21,9852,2,0,L|293:110,1,89.9999972534181
464,78,10140,2,0,L|376:63,1,89.9999972534181
265,198,10429,1,0,0:0:0:0:
462,169,10573,6,0,B|450:231|450:231|474:279|474:279|462:341,1,179.999994506836
449,356,10934,1,0,0:0:0:0:
436,371,11006,2,0,L|348:356,1,89.9999972534181
252,213,11294,2,0,L|340:198,1,89.9999972534181
247,337,11582,2,0,L|159:322,1,89.9999972534181
5,209,11871,6,0,B|-6:253|-6:253|5:296,1,89.9999972534181
151,232,12159,2,0,B|166:185|166:185|152:146,1,89.9999972534181
4,31,12448,2,0,B|-7:75|-7:75|4:118,1,89.9999972534181
149,53,12736,1,0,0:0:0:0:
169,224,12881,6,0,B|181:162|181:162|157:114|157:114|169:52,1,179.999994506836
182,37,13241,1,0,0:0:0:0:
195,22,13313,2,0,L|283:37,1,89.9999972534181
340,198,13602,5,0,0:0:0:0:
451,68,13746,1,0,0:0:0:0:
265,133,13890,1,0,0:0:0:0:
433,164,14034,1,0,0:0:0:0:
283,37,14179,6,0,L|195:22,1,89.9999972534181
88,163,14467,2,0,L|176:148,1,89.9999972534181
283,289,14756,2,0,L|195:274,1,89.9999972534181
61,349,15044,1,0,0:0:0:0:
88,163,15188,6,0,B|207:142|207:142|150:127,1,179.999994506836
130,123,15549,1,0,0:0:0:0:
111,118,15621,2,0,L|96:30,1,89.9999972534181
279,61,15909,2,0,L|191:46,1,89.9999972534181
329,155,16198,2,0,L|373:77,1,89.9999972534181
512,188,16486,6,0,L|424:173,1,89.9999972534181
284,235,16775,2,0,L|372:250,1,89.9999972534181
482,356,17063,2,0,L|394:339,1,89.9999972534181
239,315,17352,1,0,0:0:0:0:
329,155,17496,6,0,L|152:121,1,179.999994506836
0,173,17929,5,0,0:0:0:0:
29,259,18073,1,0,0:0:0:0:
152,121,18217,5,0,0:0:0:0:
89,189,18361,1,0,0:0:0:0:
40,50,18506,6,0,L|128:33,1,89.9999972534181
292,2,18794,6,0,L|284:46,3,44.999998626709
268,124,19082,1,0,0:0:0:0:
436,72,19371,1,0,0:0:0:0:
436,72,19515,1,0,0:0:0:0:
376,250,19804,6,0,P|335:230|290:226,1,89.9999972534181
190,195,20092,2,0,P|193:239|212:280,1,89.9999972534181
235,383,20381,2,0,P|271:357|297:321,1,89.9999972534181
291,225,20669,1,0,0:0:0:0:
149,347,20813,2,0,P|104:343|64:323,1,89.9999972534181
113,146,21102,6,0,L|120:97,1,44.999998626709
195,75,21246,2,0,L|202:31,1,44.999998626709
277,5,21390,2,0,L|374:21,1,89.9999972534181
512,50,21679,1,0,0:0:0:0:
512,50,21823,1,0,0:0:0:0:
291,225,22111,6,0,P|335:230|376:250,1,89.9999972534181
212,280,22399,2,0,P|193:239|190:195,1,89.9999972534181
297,320,22688,2,0,P|271:356|235:383,1,89.9999972534181
149,347,22977,1,0,0:0:0:0:
291,226,23121,2,0,P|309:185|313:140,1,89.9999972534181
190,0,23409,5,0,0:0:0:0:
190,194,23554,1,0,0:0:0:0:
286,40,23698,1,0,0:0:0:0:
286,40,23986,5,0,0:0:0:0:
313,140,24131,2,0,P|309:184|291:226,1,89.9999972534181
104,217,24419,2,0,P|145:198|190:194,1,89.9999972534181
276,359,24707,2,0,P|239:333|212:297,1,89.9999972534181
313,140,24996,2,0,P|309:184|291:226,1,89.9999972534181
190,194,25284,1,0,0:0:0:0:
286,40,25429,2,0,P|326:21|371:16,1,89.9999972534181
499,140,25717,5,0,0:0:0:0:
313,140,25861,1,0,0:0:0:0:
472,40,26006,1,0,0:0:0:0:
472,40,26294,5,0,0:0:0:0:
404,138,26438,2,0,P|408:182|426:223,1,89.9999972534181
512,344,26727,5,0,0:0:0:0:
363,322,26871,1,0,0:0:0:0:
426,224,27015,1,0,0:0:0:0:
267,257,27159,1,0,0:0:0:0:
332,161,27304,5,0,0:0:0:0:
332,161,27376,1,0,0:0:0:0:
332,161,27448,1,0,0:0:0:0:
408,228,27592,1,0,0:0:0:0:
286,253,27736,1,0,0:0:0:0:
104,85,28024,6,0,L|146:69,1,44.999998626709
34,28,28168,2,0,L|0:0,1,44.999998626709
20,117,28313,2,0,L|1:228,1,89.9999972534181
151,257,28602,2,0,L|136:169,1,89.9999972534181
230,37,28890,1,0,0:0:0:0:
332,161,29034,6,0,P|291:181|246:185,1,89.9999972534181
104,85,29323,2,0,P|141:110|167:147,1,89.9999972534181
152,320,29611,2,0,P|155:275|174:234,1,89.9999972534181
292,181,29900,1,0,0:0:0:0:
141,110,30044,2,0,P|96:114|56:134,1,89.9999972534181
155,276,30332,5,0,0:0:0:0:
155,276,30404,1,0,0:0:0:0:
155,276,30477,1,0,0:0:0:0:
155,276,30549,1,0,0:0:0:0:
155,276,30621,2,0,P|200:280|240:300,1,89.9999972534181
101,384,30909,2,0,P|56:380|16:360,1,89.9999972534181
12,198,31198,1,0,0:0:0:0:
12,198,31342,6,0,P|99:200|149:129,1,179.999994506836
42,28,31775,2,0,L|58:117,1,89.9999972534181
182,0,32063,1,0,0:0:0:0:
148,129,32207,1,0,0:0:0:0:
273,0,32352,1,0,0:0:0:0:
323,172,32496,6,0,B|371:180|407:148|407:148|443:180|493:172,1,179.999994506836
343,81,32929,2,0,P|298:85|258:105,1,89.9999972534181
169,43,33217,2,0,P|150:84|148:129,1,89.9999972534181
48,174,33506,2,0,P|75:211|112:236,1,89.9999972534181
307,188,33794,6,0,P|262:191|223:212,1,89.9999972534181
103,344,34082,2,0,P|147:339|187:319,1,89.9999972534181
133,150,34371,2,0,P|115:191|112:235,1,89.9999972534181
278,382,34659,2,0,P|295:340|299:296,1,89.9999972534181
298,276,34876,1,0,0:0:0:0:
293,257,34948,6,0,B|388:241|367:318|459:301,1,179.999994506836
438,212,35381,2,0,B|427:128|489:144|477:63,1,160
388,76,35813,2,0,P|353:77|321:62,1,69.9999978637696
306,50,36030,1,0,0:0:0:0:
296,33,36102,5,0,0:0:0:0:
246,164,36246,1,0,0:0:0:0:
0,7,36679,5,0,0:0:0:0:
32,93,36823,1,0,0:0:0:0:
32,93,37111,6,0,B|64:161|0:160|34:226,1,139.999995727539
67,313,37544,1,0,0:0:0:0:
236,384,37832,1,0,0:0:0:0:
212,202,38121,1,0,0:0:0:0:
381,273,38409,6,0,B|449:305|448:241|514:275,1,139.999995727539
362,174,38986,1,0,0:0:0:0:
296,236,39131,2,0,P|262:246|228:237,1,69.9999978637696
163,173,39419,6,0,P|137:237|163:301,1,139.999995727539
247,338,39852,1,0,0:0:0:0:
262,153,40140,1,0,0:0:0:0:
429,72,40429,1,0,0:0:0:0:
415,257,40717,6,0,P|349:274|289:241,1,139.999995727539
234,65,41294,1,0,0:0:0:0:
151,22,41438,2,0,P|117:12|84:21,1,69.9999978637696
2,66,41727,6,0,P|27:129|3:192,1,139.999995727539
0,285,42159,1,0,0:0:0:0:
116,143,42448,1,0,0:0:0:0:
258,258,42736,1,0,0:0:0:0:
374,116,43025,5,0,0:0:0:0:
232,0,43313,1,0,0:0:0:0:
203,181,43602,1,0,0:0:0:0:
384,210,43890,1,0,0:0:0:0:
269,353,44179,5,0,0:0:0:0:
87,324,44467,1,0,0:0:0:0:
116,142,44756,1,0,0:0:0:0:
298,171,45044,1,0,0:0:0:0:
363,343,45332,6,0,B|431:375|430:311|496:345,1,139.999995727539
330,257,45909,1,0,0:0:0:0:
266,85,46198,1,0,0:0:0:0:
207,155,46342,6,0,P|186:128|176:95,1,69.9999978637696
213,11,46631,1,0,0:0:0:0:
213,11,46775,1,0,0:0:0:0:
35,48,47063,1,0,0:0:0:0:
0,227,47352,1,0,0:0:0:0:
147,334,47640,6,0,B|220:347|203:285|275:301,1,139.999995727539
440,384,48217,1,0,0:0:0:0:
377,318,48361,2,0,P|367:284|376:251,1,69.9999978637696
442,186,48650,6,0,P|467:123|443:60,1,139.999995727539
372,0,49082,1,0,0:0:0:0:
314,71,49227,1,0,0:0:0:0:
256,141,49371,1,0,0:0:0:0:
140,0,49659,1,0,0:0:0:0:
76,170,49948,6,0,B|90:118|90:118|76:66,2,106.666666666667
256,141,50525,2,0,B|242:193|242:193|256:245,2,106.666666666667
512,0,51102,5,0,0:0:0:0:
512,0,51390,2,0,L|415:25,1,89.9999972534181
512,133,51679,2,0,L|415:158,1,89.9999972534181
512,266,51967,1,0,0:0:0:0:
512,266,52111,1,0,0:0:0:0:
337,178,52256,6,0,L|362:275,1,89.9999972534181
213,210,52544,2,0,L|238:307,1,89.9999972534181
89,242,52832,1,0,0:0:0:0:
89,242,52977,2,0,L|114:339,2,89.9999972534181
144,95,53409,6,0,L|57:118,1,89.9999972534181
120,0,53698,1,0,0:0:0:0:
120,0,53842,1,0,0:0:0:0:
240,72,53986,2,0,L|327:49,1,89.9999972534181
265,168,54275,1,0,0:0:0:0:
447,114,54419,6,0,B|413:174|413:174|441:282,1,179.999994506836
352,384,54852,2,0,L|329:297,1,89.9999972534181
334,278,55068,1,0,0:0:0:0:
341,259,55140,1,0,0:0:0:0:
265,168,55284,1,0,0:0:0:0:
173,243,55429,1,0,0:0:0:0:
173,243,55717,6,0,L|129:231,5,44.999998626709
54,162,56150,2,0,L|98:151,5,44.999998626709
161,74,56582,2,0,B|60:58|60:58|-3:99,1,134.999995880127
16,87,56871,5,0,0:0:0:0:
16,87,57159,1,0,0:0:0:0:
91,237,57448,6,0,L|176:214,1,87.5
196,209,58025,6,0,B|182:257|182:257|196:309,1,100
334,384,58313,1,0,0:0:0:0:
290,209,58457,1,0,0:0:0:0:
290,209,58530,1,0,0:0:0:0:
290,209,58602,2,0,B|276:257|276:257|290:309,1,100
428,384,58890,1,0,0:0:0:0:
370,257,59034,1,0,0:0:0:0:
512,340,59179,5,0,0:0:0:0:
454,212,59323,2,0,B|419:175|419:175|372:164,1,100
246,130,59611,2,0,B|294:118|294:118|332:80,1,100
413,0,59900,1,0,0:0:0:0:
372,164,60044,1,0,0:0:0:0:
251,35,60188,6,0,B|122:69|122:69|54:35,1,200
158,154,60621,1,0,0:0:0:0:
21,123,60765,1,0,0:0:0:0:
21,123,60837,1,0,0:0:0:0:
21,123,60909,1,0,0:0:0:0:
122,69,61054,1,0,3:0:0:0:
57,208,61198,2,0,B|43:256|43:256|57:308,1,100
158,154,61486,5,0,0:0:0:0:
247,257,61631,2,0,B|199:271|199:271|151:259,1,100
249,165,61919,2,0,B|297:152|297:152|345:166,1,100
476,203,62207,1,0,0:0:0:0:
376,81,62352,1,0,0:0:0:0:
338,257,62496,6,0,B|312:354|312:354|409:328,1,200
476,203,62929,2,0,L|364:171,1,100
376,81,63217,2,0,L|264:112,1,100
226,30,63506,2,0,L|148:116,1,100
0,152,63794,6,0,L|98:173,1,100
218,286,64082,2,0,L|187:190,1,100
60,333,64371,2,0,L|157:353,1,100
98,173,64659,2,0,L|31:247,1,100
187,190,64948,6,0,L|272:206,5,50
327,93,65381,2,0,L|295:131,5,50
342,263,65813,2,0,L|325:215,5,50
399,150,66246,6,0,L|432:245,2,100
412,135,66607,1,0,0:0:0:0:
425,120,66679,1,0,0:0:0:0:
382,0,66823,1,0,0:0:0:0:
314,78,66967,1,0,0:0:0:0:
246,156,67111,6,0,P|166:151|110:73,1,179.999994506836
39,0,67544,2,0,P|13:41|9:87,1,89.9999972534181
110,75,67832,2,0,P|126:116|159:147,1,89.9999972534181
212,58,68121,1,0,0:0:0:0:
350,141,68265,6,0,P|305:135|263:148,1,89.9999972534181
134,250,68554,1,0,0:0:0:0:
134,250,68698,2,0,P|214:255|270:333,1,179.999994506836
168,348,69131,2,0,P|123:342|81:355,2,89.9999972534181
343,384,69563,6,0,B|454:364|454:364|464:333|442:300,1,179.999994506836
345,197,69996,1,0,0:0:0:0:
345,197,70140,2,0,P|301:203|259:190,1,89.9999972534181
413,117,70429,2,0,P|440:152|450:195,1,89.9999972534181
310,98,70717,5,0,0:0:0:0:
277,86,70789,1,0,0:0:0:0:
242,86,70861,1,0,0:0:0:0:
209,98,70933,1,0,0:0:0:0:
182,119,71006,2,0,L|153:169,3,44.999998626709
120,227,71294,5,0,0:0:0:0:
105,48,71438,1,0,0:0:0:0:
105,48,71727,6,0,B|40:10|40:10|72:130,1,200
108,265,72159,1,0,0:0:0:0:
189,126,72304,1,0,0:0:0:0:
189,126,72377,1,0,0:0:0:0:
189,126,72449,2,0,B|237:112|237:112|285:124,1,100
379,286,72736,1,0,0:0:0:0:
237,207,72881,1,0,0:0:0:0:
381,126,73025,5,0,0:0:0:0:
285,288,73169,2,0,B|237:302|237:302|185:288,1,100
92,127,73457,2,0,B|140:113|140:113|189:126,1,100
332,206,73746,1,0,0:0:0:0:
254,57,73890,1,0,0:0:0:0:
430,46,74034,6,0,B|466:82|466:82|466:182|466:182|428:220,1,200
285,288,74467,1,0,0:0:0:0:
251,160,74611,1,0,0:0:0:0:
251,160,74683,1,0,0:0:0:0:
251,160,74756,1,0,0:0:0:0:
193,263,74900,1,0,0:0:0:0:
159,135,75044,2,0,B|111:121|111:121|62:134,1,100
28,264,75332,5,0,0:0:0:0:
173,355,75477,2,0,B|187:307|187:307|174:258,1,100
62,134,75765,2,0,B|110:148|110:148|159:135,1,100
270,49,76054,1,0,0:0:0:0:
110,53,76198,1,0,0:0:0:0:
270,165,76342,6,0,B|296:262|296:262|270:358,1,200
377,214,76775,2,0,B|391:262|391:262|378:311,1,100
481,141,77063,2,0,B|467:189|467:189|480:238,1,100
390,26,77352,2,0,B|404:74|404:74|391:123,1,100
186,214,77640,6,0,B|221:178|221:178|270:165,1,100
70,64,77929,2,0,B|106:100|106:100|155:112,1,100
82,286,78217,2,0,B|95:237|95:237|81:189,1,100
269,68,78506,2,0,B|256:117|256:117|270:165,1,100
185,370,78794,6,0,B|233:384|233:384|282:371,2,100
82,286,79227,1,0,0:0:0:0:
172,137,79371,2,0,B|269:163|269:163|365:137,1,200
462,16,79804,6,0,L|269:68,1,200
269,258,80236,2,0,L|462:206,1,200
268,162,80669,1,0,0:0:0:0:
365,137,80813,1,0,0:0:0:0:
268,258,80957,6,0,P|191:216|179:130,1,179.999994506836
295,67,81390,1,0,0:0:0:0:
203,35,81534,1,0,0:0:0:0:
105,68,81679,2,0,P|85:107|84:152,1,89.9999972534181
4,206,81967,2,0,P|37:236|81:248,1,89.9999972534181
179,131,82256,5,0,0:0:0:0:
170,277,82400,2,0,P|147:316|110:340,1,89.9999972534181
79,248,82688,2,0,P|36:236|4:206,1,89.9999972534181
85,152,82977,2,0,P|127:139|160:109,1,89.9999972534181
3,12,83265,6,0,P|36:42|79:55,1,89.9999972534181
242,56,83554,2,0,P|209:26|167:14,2,89.9999972534181
155,206,83986,2,0,P|112:194|80:164,1,89.9999972534181
161,110,84275,1,0,0:0:0:0:
162,303,84419,6,0,P|204:290|237:260,1,89.9999972534181
324,196,84707,2,0,P|281:184|249:153,2,89.9999972534181
331,100,85140,1,0,0:0:0:0:
331,100,85284,1,0,0:0:0:0:
407,250,85429,2,0,P|375:281|332:294,1,89.9999972534181
255,345,85645,1,0,0:0:0:0:
237,345,85717,6,0,P|194:333|162:302,1,89.9999972534181
75,344,86006,2,0,P|64:301|75:258,1,89.9999972534181
232,163,86294,6,0,P|200:194|158:207,1,89.9999972534181
154,111,86582,2,0,P|111:99|79:68,1,89.9999972534181
238,69,86871,6,0,L|326:53,1,89.9999972534181
325,149,87159,2,0,L|414:134,1,89.9999972534181
512,241,87448,6,0,L|424:225,1,89.9999972534181
425,321,87736,2,0,L|336:306,1,89.9999972534181
119,270,88025,5,0,0:0:0:0:
119,270,88313,2,0,L|134:359,1,89.9999972534181
107,183,88602,5,0,0:0:0:0:
107,183,88746,1,0,0:0:0:0:
269,103,88890,1,0,0:0:0:0:
270,109,89034,1,0,0:0:0:0:
386,249,89179,6,0,L|371:338,1,89.9999972534181
197,290,89467,2,0,L|212:201,1,89.9999972534181
380,117,89756,5,0,0:0:0:0:
378,131,89900,1,0,0:0:0:0:
512,261,90044,1,0,0:0:0:0:
498,277,90188,1,0,0:0:0:0:
283,326,90332,5,0,0:0:0:0:
283,326,90621,2,0,L|372:341,1,89.9999972534181
459,182,90909,5,0,0:0:0:0:
471,159,91053,1,0,0:0:0:0:
306,213,91198,1,0,0:0:0:0:
323,240,91342,1,0,0:0:0:0:
329,66,91486,5,0,0:0:0:0:
289,67,91630,1,0,0:0:0:0:
168,194,91775,1,0,0:0:0:0:
219,192,91919,1,0,0:0:0:0:
59,87,92063,5,0,0:0:0:0:
94,141,92207,1,0,0:0:0:0:
64,198,92352,1,0,0:0:0:0:
99,252,92496,1,0,0:0:0:0:
60,87,92929,5,0,0:0:0:0:
95,141,93506,1,0,0:0:0:0:
65,198,94082,1,0,0:0:0:0:
100,252,94659,1,0,0:0:0:0:
70,309,95236,1,0,0:0:0:0:
105,363,95813,1,0,0:0:0:0:
0,384,95957,5,0,0:0:0:0:
0,384,97832,6,0,L|86:371,1,80
145,265,98121,2,0,L|161:362,1,80
226,237,98409,2,0,L|239:306,3,44.999998626709
261,357,98698,6,0,B|303:364|303:364|364:343,1,89.9999972534181
416,192,98986,2,0,L|448:380,1,179.999994506836
347,349,99419,1,0,0:0:0:0:
347,349,99707,6,0,L|334:248,1,89.9999972534181
321,164,99996,1,0,0:0:0:0:
255,280,100140,6,0,L|262:358,3,44.999998626709
184,236,100429,6,0,L|179:191,3,44.999998626709
126,299,100717,6,0,L|81:303,3,44.999998626709
28,244,101006,6,0,L|19:154,1,89.9999972534181
101,104,101294,1,0,0:0:0:0:
21,43,101438,1,0,0:0:0:0:
21,43,101727,2,0,P|61:12|128:11,1,89.9999972534181
178,66,102015,2,0,P|138:97|71:98,1,89.9999972534181
274,20,102304,6,0,L|257:145,1,89.9999972534181
185,216,102592,2,0,L|177:158,4,44.999998626709
305,197,103025,6,0,L|287:304,1,89.9999972534181
404,188,103313,6,0,L|374:387,1,179.999994506836
478,339,103746,5,0,0:0:0:0:
478,339,103890,2,0,L|491:232,1,89.9999972534181
434,111,104179,2,0,P|385:106|343:127,1,89.9999972534181
292,186,104467,1,0,0:0:0:0:
292,186,104611,1,0,0:0:0:0:
212,76,104756,6,0,L|221:141,3,44.999998626709
155,24,105044,2,0,B|110:17|110:17|62:38,1,89.9999972534181
49,53,105260,1,0,0:0:0:0:
39,78,105332,2,0,L|51:175,1,89.9999972534181
144,265,105621,1,0,0:0:0:0:
147,233,105693,1,0,0:0:0:0:
151,202,105765,1,0,0:0:0:0:
54,261,105909,5,0,0:0:0:0:
91,338,106054,1,0,0:0:0:0:
183,343,106198,1,0,0:0:0:0:
236,265,106342,1,0,0:0:0:0:
318,107,106486,5,0,0:0:0:0:
322,138,106558,1,0,0:0:0:0:
326,169,106630,1,0,0:0:0:0:
330,200,106702,1,0,0:0:0:0:
334,231,106774,1,0,0:0:0:0:
338,263,106846,1,0,0:0:0:0:
342,294,106918,1,0,0:0:0:0:
346,325,106990,1,0,0:0:0:0:
352,361,107063,6,0,P|399:370|453:348,1,100
511,209,107640,6,0,L|391:226,1,89.9999972534181
344,136,107929,1,0,0:0:0:0:
445,139,108073,6,0,L|432:49,2,89.9999972534181
344,136,108506,1,0,0:0:0:0:
330,258,108650,6,0,L|237:240,1,89.9999972534181
341,360,108938,2,0,L|248:342,1,89.9999972534181
142,256,109227,2,0,B|171:182|171:182|150:119,1,134.999995880127
146,94,109515,1,0,0:0:0:0:
58,118,109659,1,0,0:0:0:0:
79,27,109804,1,0,0:0:0:0:
153,129,109948,6,0,L|246:112,1,89.9999972534181
320,70,110236,1,0,0:0:0:0:
238,35,110381,1,0,0:0:0:0:
365,1,110525,2,0,B|409:39|409:39|383:142,1,134.999995880127
380,148,110813,1,0,0:0:0:0:
326,260,110957,6,0,L|414:243,1,89.9999972534181
297,359,111246,2,0,L|385:342,1,89.9999972534181
239,282,111534,5,0,0:0:0:0:
239,282,111679,2,0,L|144:267,1,89.9999972534181
91,208,111967,1,0,0:0:0:0:
255,192,112111,6,0,B|280:146|280:146|246:14,1,179.999994506836
371,111,112544,2,0,L|341:12,1,89.9999972534181
476,86,112832,2,0,L|446:-13,1,89.9999972534181
508,192,113121,2,0,P|456:176|409:198,1,89.9999972534181
338,276,113409,6,0,L|426:293,1,89.9999972534181
270,365,113698,2,0,L|358:382,1,89.9999972534181
251,258,113986,2,0,B|201:300|201:300|102:279,1,134.999995880127
113,254,114275,6,0,L|131:353,1,89.9999972534181
188,193,114563,6,0,L|201:124,5,44.999998626709
125,117,114996,2,0,L|116:72,4,44.999998626709
225,29,115429,6,0,P|275:17|322:37,1,89.9999972534181
336,158,115717,6,0,L|321:215,3,44.999998626709
393,245,116006,6,0,L|408:302,3,44.999998626709
339,343,116294,1,0,0:0:0:0:
339,343,116366,1,0,0:0:0:0:
339,343,116438,1,0,0:0:0:0:
339,343,116510,1,0,0:0:0:0:
339,343,116582,6,0,L|281:331,1,44.999998626709
209,263,116727,2,0,L|267:251,1,44.999998626709
181,345,116871,6,0,B|137:368|137:368|17:333,1,150
13,311,117159,1,0,0:0:0:0:
121,228,117304,2,0,B|140:185|140:185|120:107,2,100
34,145,117736,1,0,0:0:0:0:
34,145,117881,1,0,0:0:0:0:
69,52,118025,5,0,0:0:0:0:
69,52,118169,6,0,L|167:31,1,100
303,154,118457,2,0,B|262:108|262:108|124:134,1,200
185,219,118890,5,0,0:0:0:0:
9,108,119034,2,0,B|-9:156|-9:156|10:259,1,150
24,290,119323,1,0,0:0:0:0:
98,213,119467,5,0,0:0:0:0:
98,213,119611,1,0,0:0:0:0:
128,308,119756,1,0,0:0:0:0:
128,308,119900,6,0,L|236:285,2,100
225,190,120332,5,0,0:0:0:0:
225,190,120477,2,0,L|333:203,1,100
394,55,120765,2,0,B|349:113|349:113|230:98,1,150
233,95,121054,1,0,0:0:0:0:
183,28,121198,1,0,0:0:0:0:
99,159,121342,6,0,B|135:285|135:285|202:248,1,200
267,326,121775,2,0,L|157:387,1,100
289,228,122063,2,0,L|399:289,1,100
361,159,122352,1,0,0:0:0:0:
361,159,122496,1,0,0:0:0:0:
239,52,122640,6,0,P|264:102|264:153,1,100
93,220,122929,2,0,P|136:196|186:193,1,100
266,324,123217,2,0,L|283:219,1,100
156,279,123506,2,0,L|171:377,1,100
63,297,123794,6,0,L|71:365,5,50
13,229,124227,6,0,L|18:179,5,50
104,155,124659,6,0,L|98:105,5,50
24,66,125092,6,0,L|29:16,5,50
112,22,125525,5,0,0:0:0:0:
194,31,125669,1,0,0:0:0:0:
276,42,125813,1,0,0:0:0:0:
190,181,125957,6,0,L|396:138,1,200
319,246,126390,2,0,L|206:271,1,100
99,214,126679,1,0,0:0:0:0:
99,214,126823,2,0,L|120:311,1,100
244,356,127111,6,0,L|356:328,1,100
377,177,127400,2,0,B|357:233|357:233|212:269,1,200
189,182,127832,5,0,0:0:0:0:
257,117,127977,1,0,0:0:0:0:
257,117,128121,2,0,L|278:19,1,100
458,83,128409,6,0,B|410:72|410:72|351:103,1,100
331,228,128698,2,0,B|379:239|379:239|423:215,1,100
243,201,128986,1,0,0:0:0:0:
243,201,129131,1,0,0:0:0:0:
169,251,129275,6,0,L|188:364,1,100
98,205,129563,6,0,L|31:194,3,50
151,138,129852,6,0,L|218:127,3,50
75,97,130140,1,0,0:0:0:0:
141,21,130284,1,0,0:0:0:0:
141,21,130573,6,0,B|197:47|197:47|335:21,1,200
375,103,131006,5,0,0:0:0:0:
459,10,131150,2,0,B|516:40|516:40|483:158,1,150
484,161,131438,1,0,0:0:0:0:
407,272,131582,2,0,L|517:245,1,100
359,183,131871,1,0,0:0:0:0:
359,183,132015,2,0,L|249:156,1,100
162,287,132304,2,0,B|211:237|211:237|329:270,1,150
322,278,132592,1,0,0:0:0:0:
306,356,132736,1,0,0:0:0:0:
162,287,132881,6,0,L|182:109,1,150
174,98,133169,1,0,0:0:0:0:
101,46,133313,1,0,0:0:0:0:
101,46,133457,1,0,0:0:0:0:
77,128,133602,5,0,0:0:0:0:
77,128,133746,2,0,L|61:236,2,100
181,18,134179,6,0,B|252:7|252:7|338:79,1,150
337,88,134467,1,0,0:0:0:0:
237,213,134611,6,0,L|423:174,1,150
423,176,134900,1,0,0:0:0:0:
450,250,135044,1,0,0:0:0:0:
366,351,135188,6,0,L|164:316,1,200
49,240,135621,2,0,L|171:207,1,100
262,135,135909,2,0,L|140:102,1,100
80,74,136198,1,0,0:0:0:0:
80,74,136342,1,0,0:0:0:0:
33,146,136486,6,0,P|28:202|56:247,1,100
180,202,136775,2,0,P|186:153|164:108,1,100
143,304,137063,2,0,L|286:273,1,100
321,205,137352,2,0,L|352:348,1,100
480,356,137640,2,0,B|442:321|442:321|413:168,1,200
488,122,138073,1,0,0:0:0:0:
360,28,138217,6,0,B|287:24|287:24|226:105,1,150
242,125,138506,1,0,0:0:0:0:
157,97,138650,6,0,L|50:71,1,100
38,159,138938,1,0,0:0:0:0:
38,159,139082,2,0,L|136:183,2,100
23,247,139515,1,0,0:0:0:0:
40,330,139659,1,0,0:0:0:0:
208,302,139804,6,0,B|239:198|239:198|206:117,1,150
212,121,140092,1,0,0:0:0:0:
255,43,140236,6,0,L|363:23,1,100
422,139,140525,1,0,0:0:0:0:
422,139,140669,2,0,L|317:120,1,100
255,241,140957,2,0,B|294:203|294:203|449:233,1,200
299,322,141390,2,0,P|238:328|188:307,1,100
158,234,141679,2,0,P|219:228|269:249,1,100
57,263,141967,2,0,L|84:144,1,100
157,40,142256,6,0,L|177:164,1,100
249,6,142544,6,0,L|269:130,1,100
188,229,142832,6,0,L|286:213,1,100
151,329,143121,2,0,L|249:313,1,100
462,361,143409,6,0,P|413:335|336:345,1,100
286,213,143698,2,0,P|329:237|378:240,1,100
487,168,143986,1,0,0:0:0:0:
482,133,144058,1,0,0:0:0:0:
478,98,144130,1,0,0:0:0:0:
474,63,144203,1,0,0:0:0:0:
468,28,144275,2,0,B|396:14|396:14|338:63,1,150
335,145,144563,5,0,0:0:0:0:
256,46,148602,6,0,L|388:22,2,120
105,206,149179,6,0,L|79:349,1,139.999995727539
130,69,149756,2,0,L|105:206,1,139.999995727539
143,1,150332,2,0,L|130:69,2,69.9999978637696
105,206,150909,2,0,L|130:69,1,139.999995727539
267,44,151486,6,0,L|130:69,1,139.999995727539
405,20,152063,2,0,L|267:44,1,139.999995727539
474,8,152640,2,0,L|405:20,2,69.9999978637696
301,38,153217,2,0,L|405:20,2,104.999996795654
185,192,153794,6,0,L|209:55,1,139.999995727539
185,192,154371,2,0,L|161:329,1,139.999995727539
256,302,154804,1,0,0:0:0:0:
351,329,154948,2,0,L|327:192,1,139.999995727539
351,329,155525,1,0,0:0:0:0:
446,302,155669,1,0,0:0:0:0:
469,206,155813,2,0,L|445:69,1,139.999995727539
469,206,156390,5,0,0:0:0:0:
374,179,156534,1,0,0:0:0:0:
303,247,156679,1,0,0:0:0:0:
208,220,156823,1,0,0:0:0:0:
137,288,156967,1,0,0:0:0:0:
137,288,157256,6,0,L|53:302,1,69.9999978637696
113,193,157544,2,0,L|29:207,1,69.9999978637696
183,124,157832,1,0,0:0:0:0:
320,148,158409,6,0,L|183:124,2,139.999995727539
320,148,159275,1,0,0:0:0:0:
417,165,159419,1,0,0:0:0:0:
354,241,159563,5,0,0:0:0:0:
257,224,159707,1,0,0:0:0:0:
223,131,159852,1,0,0:0:0:0:
286,55,159996,1,0,0:0:0:0:
383,72,160140,1,0,0:0:0:0:
383,72,160429,1,0,0:0:0:0:
383,72,160717,6,0,L|416:164,2,98.6666690755209
286,55,161294,2,0,L|319:147,1,98.6666690755209
189,38,161679,1,0,0:0:0:0:
189,38,162592,5,0,0:0:0:0:
189,38,162664,1,0,0:0:0:0:
189,38,162736,1,0,0:0:0:0:
46,330,163025,6,0,B|78:322|102:338|102:338|150:322|150:322|174:338|203:330,1,165.000005035401
308,330,163313,2,0,B|254:314|254:314|203:330,1,110.000003356934
105,240,163602,1,0,0:0:0:0:
204,186,163746,2,0,B|258:170|258:170|309:186,1,110.000003356934
494,235,164034,6,0,B|454:273|392:270|392:270|421:164,1,220.000006713867
466,2,164467,2,0,L|494:108,1,110.000003356934
348,107,164756,2,0,L|376:0,1,110.000003356934
421,164,165044,5,0,0:0:0:0:
325,197,165188,1,0,0:0:0:0:
259,120,165332,1,0,0:0:0:0:
376,0,165477,2,0,L|348:107,1,110.000003356934
226,216,165765,5,0,0:0:0:0:
109,96,165909,2,0,L|137:203,1,110.000003356934
292,293,166198,1,0,0:0:0:0:
348,107,166342,6,0,B|401:93|401:93|450:121|450:121|502:107,1,165.000005035401
512,90,166631,1,0,0:0:0:0:
388,191,166775,2,0,B|372:242|372:242|388:296,1,110.000003356934
512,378,167063,5,0,0:0:0:0:
480,191,167207,2,0,B|496:242|496:242|480:296,1,110.000003356934
356,378,167496,1,0,0:0:0:0:
296,191,167640,5,0,0:0:0:0:
292,293,167784,1,0,0:0:0:0:
383,246,167929,1,0,0:0:0:0:
204,238,168073,2,0,B|151:235|151:235|103:265,1,110.000003356934
0,329,168361,1,0,0:0:0:0:
133,378,168506,1,0,0:0:0:0:
15,238,168650,6,0,B|-11:190|-11:190|16:83,1,165.000005035401
22,65,168938,2,0,B|75:68|75:68|123:38,1,110.000003356934
226,117,169227,2,0,B|173:114|173:114|125:144,1,110.000003356934
15,238,169515,1,0,0:0:0:0:
196,207,169659,2,0,B|304:187|304:187|350:216,1,165.000005035401
370,212,169948,5,0,0:0:0:0:
248,287,170092,2,0,B|196:303|196:303|143:287,1,110.000003356934
321,340,170381,2,0,B|372:356|372:356|426:340,1,110.000003356934
512,263,170669,1,0,0:0:0:0:
370,212,170813,1,0,0:0:0:0:
512,145,170957,6,0,B|482:34|482:34|468:89,1,165.000005035401
462,101,171246,2,0,B|411:117|411:117|357:101,1,110.000003356934
180,44,171534,2,0,B|231:60|231:60|285:44,1,110.000003356934
409,116,171823,5,0,0:0:0:0:
285,44,171967,1,0,0:0:0:0:
238,151,172111,1,0,0:0:0:0:
410,25,172256,6,0,P|487:163|328:159,1,385.000011749268
323,141,172832,2,0,B|272:125|272:125|218:141,1,110.000003356934
95,176,173121,1,0,0:0:0:0:
271,220,173265,6,0,B|285:273|285:273|257:322|257:322|271:374,1,165.000005035401
288,384,173554,2,0,B|326:368|326:368|393:384,1,110.000003356934
512,294,173842,2,0,B|474:278|474:278|407:294,1,110.000003356934
271,220,174131,5,0,0:0:0:0:
390,203,174275,1,0,0:0:0:0:
323,141,174419,1,0,0:0:0:0:
182,233,174563,6,0,B|102:255|102:255|22:234,1,165.000005035401
3,230,174852,2,0,B|-19:150|-19:150|1:70,1,165.000005035401
6,51,175140,2,0,B|57:35|57:35|111:51,1,110.000003356934
247,90,175429,1,0,0:0:0:0:
182,233,175573,6,0,B|133:220|133:220|244:190,1,165.000005035401
264,186,175861,2,0,B|280:135|280:135|264:81,1,110.000003356934
318,260,176150,2,0,B|302:311|302:311|318:365,1,110.000003356934
420,384,176438,1,0,0:0:0:0:
460,236,176582,2,0,L|502:76,1,165.000005035401
510,58,176871,6,0,L|441:76,3,55.0000016784668
425,0,177159,2,0,L|371:14,3,55.0000016784668
369,95,177448,5,0,0:0:0:0:
231,51,177592,1,0,0:0:0:0:
371,14,177736,1,0,0:0:0:0:
229,132,177881,6,0,B|121:160|121:160|17:132,1,220.000006713867
123,251,178313,2,0,L|229:222,1,110.000003356934
360,191,178602,6,0,L|307:177,3,55.0000016784668
229,132,178890,2,0,L|175:117,3,55.0000016784668
97,72,179179,5,0,0:0:0:0:
97,72,179467,1,0,0:0:0:0:
176,27,179611,1,0,0:0:0:0:
265,48,179756,6,0,L|362:70,1,100
316,154,180044,2,0,L|447:184,1,100
433,181,180260,1,0,0:0:0:0:
453,186,180332,1,0,0:0:0:0:
357,257,180477,6,0,L|259:279,2,89.9999972534181
306,363,180909,2,0,L|218:383,2,89.9999972534181
393,342,181342,5,0,0:0:0:0:
473,191,182640,1,0,0:0:0:0:
382,46,183794,5,0,0:0:0:0:
342,122,184371,1,0,0:0:0:0:
302,198,184948,6,0,B|250:184|250:184|198:198,2,106.666666666667
124,95,185525,2,0,B|175:109|175:109|227:95,2,106.666666666667
382,46,186102,5,0,0:0:0:0:
382,46,186390,2,0,L|404:133,1,89.9999972534181
302,198,186679,2,0,L|327:295,1,89.9999972534181
222,350,186967,1,0,0:0:0:0:
222,350,187111,1,0,0:0:0:0:
142,198,187256,6,0,L|117:295,1,89.9999972534181
62,46,187544,2,0,L|37:143,1,89.9999972534181
222,46,187832,1,0,0:0:0:0:
222,46,187977,2,0,L|247:143,2,89.9999972534181
404,133,188409,6,0,L|379:230,1,89.9999972534181
207,270,188698,2,0,L|293:245,1,89.9999972534181
422,372,188986,2,0,L|357:308,1,89.9999972534181
304,154,189275,1,0,0:0:0:0:
453,274,189419,6,0,B|481:165|481:165|469:145,1,134.999995880127
459,128,189707,1,0,0:0:0:0:
327,67,189852,2,0,L|304:154,1,89.9999972534181
309,173,190068,1,0,0:0:0:0:
316,192,190140,1,0,0:0:0:0:
226,263,190284,1,0,0:0:0:0:
296,352,190429,1,0,0:0:0:0:
296,352,190717,6,0,L|308:308,5,44.999998626709
383,249,191150,2,0,L|394:293,5,44.999998626709
504,384,191582,2,0,B|480:284|480:284|517:218,1,134.999995880127
505,237,191871,5,0,0:0:0:0:
505,237,192159,1,0,0:0:0:0:
505,237,192448,6,0,L|461:248,5,44.999998626709
376,157,192880,2,0,L|420:169,5,44.999998626709
512,51,193313,2,0,B|412:75|412:75|346:38,1,134.999995880127
365,50,193601,5,0,0:0:0:0:
365,50,193890,1,0,0:0:0:0:
251,210,194178,6,0,L|278:114,1,100
331,298,203409,6,0,L|398:288,1,60
251,273,203986,6,0,L|235:103,2,139.999995727539
208,347,204707,1,0,0:0:0:0:
208,347,204851,2,0,L|108:353,1,69.9999978637696
78,293,205140,2,0,B|66:264|66:264|75:198,1,69.9999978637696
152,129,205428,2,0,B|164:158|164:158|158:196,1,69.9999978637696
269,280,205717,2,0,B|242:231|242:231|254:130,1,139.999995727539
319,93,206149,1,0,0:0:0:0:
378,232,206294,6,0,L|523:198,1,139.999995727539
503,119,206726,1,0,0:0:0:0:
458,52,206871,6,0,L|375:41,1,69.9999978637696
318,143,207159,2,0,L|401:132,1,69.9999978637696
255,78,207447,2,0,L|266:0,2,69.9999978637696
192,133,207880,1,0,0:0:0:0:
123,89,208024,5,0,0:0:0:0:
123,89,208169,1,0,0:0:0:0:
164,11,208313,1,0,0:0:0:0:
122,169,208457,1,0,0:0:0:0:
122,169,210909,6,0,L|136:240,5,44.999998626709
195,122,211342,6,0,L|209:51,5,44.999998626709
257,184,211774,6,0,L|265:228,3,44.999998626709
308,119,212063,1,0,0:0:0:0:
325,115,212135,1,0,0:0:0:0:
342,111,212207,1,0,0:0:0:0:
359,109,212279,1,0,0:0:0:0:
376,106,212351,2,0,L|450:116,3,44.999998626709
448,194,212640,2,0,L|522:204,3,44.999998626709
379,238,212928,6,0,L|369:296,1,44.999998626709
289,359,213072,6,0,L|281:314,1,44.999998626709
238,188,213217,6,0,B|205:246|205:246|85:231,1,179.999994506836
