osu file format v14

[General]
AudioFilename: FormatFactory08_rzhfdjpjzht.mp3
AudioLeadIn: 0
PreviewTime: 57366
Countdown: 0
SampleSet: Soft
StackLeniency: 0.7
Mode: 0
LetterboxInBreaks: 0
WidescreenStoryboard: 1

[Editor]
Bookmarks: 323,95947,149169,194745
DistanceSpacing: 1
BeatDivisor: 4
GridSize: 32
TimelineZoom: 4.699997

[Metadata]
Title:Pandemic Sudden Death
TitleUnicode:パンデミックサドンデス
Artist:UNISON SQUARE GARDEN
ArtistUnicode:ユニゾン・スクエア・ガーデン
Creator:-NanoRIPE-
Version:Collab Extra
Source:
Tags:Dr Izzy ドクター・イジー Toys Factory USG
BeatmapID:2763757
BeatmapSetID:481622

[Difficulty]
HPDrainRate:6.5
CircleSize:3.8
OverallDifficulty:8.5
ApproachRate:9.3
SliderMultiplier:1.7
SliderTickRate:1

[Events]
//Background and Video events
0,0,"dark-anime-wallpaper-21.jpg",0,0
//Break Periods
2,194755,203432
//Storyboard Layer 0 (Background)
//Storyboard Layer 1 (Fail)
//Storyboard Layer 2 (Pass)
//Storyboard Layer 3 (Foreground)
//Storyboard Layer 4 (Overlay)
//Storyboard Sound Samples

[TimingPoints]
333,288.461538461538,4,2,1,60,1,0
6102,-83.3333333333333,4,2,1,60,0,0
6198,-83.3333333333333,4,2,1,5,0,0
6294,-83.3333333333333,4,2,1,60,0,0
6390,-83.3333333333333,4,2,1,5,0,0
6486,-83.3333333333333,4,2,1,60,0,0
6582,-83.3333333333333,4,2,1,5,0,0
6679,-83.3333333333333,4,2,1,60,0,0
6775,-83.3333333333333,4,2,1,5,0,0
6871,-83.3333333333333,4,2,1,60,0,0
6967,-83.3333333333333,4,2,1,5,0,0
7063,-83.3333333333333,4,2,1,60,0,0
7159,-83.3333333333333,4,2,1,5,0,0
7256,-100,4,2,1,60,0,0
19371,-142.857142857143,4,2,1,60,0,0
21102,-100,4,2,1,60,0,0
21679,-142.857142857143,4,2,1,60,0,0
23409,-100,4,2,1,60,0,0
23986,-142.857142857143,4,2,1,60,0,0
25717,-100,4,2,1,60,0,0
26294,-142.857142857143,4,2,1,60,0,0
28025,-111.111111111111,4,2,1,60,0,0
37111,-142.857142857143,4,2,1,60,0,0
49948,-111.111111111111,4,2,1,60,0,0
50044,-111.111111111111,4,2,1,5,0,0
50140,-111.111111111111,4,2,1,60,0,0
50236,-111.111111111111,4,2,1,5,0,0
50332,-111.111111111111,4,2,1,60,0,0
50429,-111.111111111111,4,2,1,5,0,0
50525,-111.111111111111,4,2,1,60,0,0
50621,-111.111111111111,4,2,1,5,0,0
50717,-111.111111111111,4,2,1,60,0,0
50813,-111.111111111111,4,2,1,5,0,0
50909,-111.111111111111,4,2,1,60,0,0
51006,-111.111111111111,4,2,1,5,0,0
51102,-100,4,2,1,60,0,0
57448,-333.333333333333,4,2,1,60,0,0
57953,-333.333333333333,4,2,1,5,0,0
58025,-83.3333333333333,4,2,1,60,0,1
71438,-333.333333333333,4,2,1,60,0,0
71655,-333.333333333333,4,2,1,5,0,0
71727,-83.3333333333333,4,2,1,60,0,1
85933,-83.3333333333333,4,2,1,5,0,1
86006,-83.3333333333333,4,2,1,60,0,1
92496,-83.3333333333333,4,2,1,60,0,0
92929,-142.857142857143,4,2,1,60,0,0
97832,-100,4,2,1,60,0,0
98409,-142.857142857143,4,2,1,60,0,0
107063,-200,4,2,1,60,0,0
107640,-100,4,2,1,60,0,0
116871,-83.3333333333333,4,2,1,60,0,1
125957,-83.3333333333333,4,2,1,60,0,0
130284,-250,4,2,1,60,0,0
130573,-83.3333333333333,4,2,1,60,0,1
139804,-83.3333333333333,4,2,1,60,0,0
149179,-125,4,2,1,60,0,0
153217,-83.3333333333333,4,2,1,60,0,0
153794,-125,4,2,1,60,0,0
157832,-250,4,2,1,60,0,0
158409,-125,4,2,1,60,0,0
163025,-90.9090909090909,4,2,1,60,0,0
181342,-111.111111111111,4,2,1,60,0,0
186102,-100,4,2,1,60,0,0
192448,288.461538461538,4,2,1,60,1,0
192448,-90.9090909090909,4,2,1,60,0,0
203986,-125,4,2,1,60,0,0
210909,-100,4,2,1,60,0,0
213217,-76.9230769230769,4,2,1,60,0,1
222303,-90.9090909090909,4,2,1,60,0,0
226630,-250,4,2,1,60,0,0
226919,-76.9230769230769,4,2,1,60,0,1
236149,-83.3333333333333,4,2,1,60,0,0
247832,-76.9230769230769,4,2,1,60,0,0
253457,-83.3333333333333,4,2,1,60,0,0

[Colours]
Combo1 : 192,192,192
Combo2 : 59,59,59
Combo3 : 128,128,128
Combo4 : 255,255,0

[HitObjects]
146,109,333,5,0,0:0:0:0:
250,312,765,1,0,0:0:0:0:
250,312,837,1,0,0:0:0:0:
250,312,909,1,0,0:0:0:0:
302,233,1054,1,0,0:0:0:0:
157,305,1198,1,0,0:0:0:0:
344,358,1342,6,0,B|449:333|449:333|468:355|507:363,1,170
392,179,1775,1,0,0:0:0:0:
332,337,1919,1,0,0:0:0:0:
215,213,2063,5,0,0:0:0:0:
217,191,2135,1,0,0:0:0:0:
220,170,2207,1,0,0:0:0:0:
223,149,2279,1,0,0:0:0:0:
240,136,2352,1,0,0:0:0:0:
237,115,2424,1,0,0:0:0:0:
235,94,2496,1,0,0:0:0:0:
232,73,2568,1,0,0:0:0:0:
215,59,2640,5,0,0:0:0:0:
36,203,3073,1,0,0:0:0:0:
36,203,3145,1,0,0:0:0:0:
36,203,3217,1,0,0:0:0:0:
115,251,3361,1,0,0:0:0:0:
70,94,3506,1,0,0:0:0:0:
260,137,3650,6,0,B|290:127|290:127|358:139,1,85
507,240,3938,1,0,0:0:0:0:
343,346,4082,2,0,B|290:355|290:355|260:345,1,85
138,169,4371,1,0,0:0:0:0:
337,240,4515,1,0,0:0:0:0:
133,299,4659,2,0,P|69:282|30:274,1,85
256,109,4948,5,0,0:0:0:0:
430,274,5381,1,0,0:0:0:0:
430,274,5453,1,0,0:0:0:0:
430,274,5525,1,0,0:0:0:0:
472,191,5669,1,0,0:0:0:0:
321,269,5813,2,0,P|296:275|274:280,2,42.5
380,109,6102,6,0,P|348:93|293:88,1,67.9999979248048
235,14,6294,2,0,P|205:33|173:78,1,67.9999979248048
77,78,6486,2,0,P|79:113|102:163,1,67.9999979248048
134,244,6679,6,0,P|124:280|116:309,1,67.9999979248048
271,261,6871,2,0,P|244:234|223:212,1,67.9999979248048
194,372,7063,2,0,P|230:362|259:355,1,67.9999979248048
409,314,7256,5,0,0:0:0:0:
55,63,7977,1,0,0:0:0:0:
45,86,8049,1,0,0:0:0:0:
37,110,8121,1,0,0:0:0:0:
37,110,8554,5,0,0:0:0:0:
200,217,8698,1,0,0:0:0:0:
6,238,8842,1,0,0:0:0:0:
186,83,8986,2,0,B|255:96|255:96|278:120|278:120|350:134,1,170
343,132,9563,6,0,B|328:166|328:166|348:223,1,85
229,381,9852,2,0,P|238:335|248:279,1,85
64,202,10140,1,0,0:0:0:0:
117,363,10284,1,0,0:0:0:0:
193,172,10429,1,0,0:0:0:0:
338,314,10573,6,0,B|463:300|463:300|423:260,1,170
378,209,10933,1,0,0:0:0:0:
378,209,11006,2,0,P|385:171|394:124,1,85
213,13,11294,1,0,0:0:0:0:
269,217,11438,1,0,0:0:0:0:
89,105,11582,1,0,0:0:0:0:
302,70,11727,1,0,0:0:0:0:
140,207,11871,6,0,B|151:236|151:236|137:304,1,85
322,379,12159,2,0,P|313:331|302:274,1,85
394,125,12448,1,0,0:0:0:0:
453,310,12592,1,0,0:0:0:0:
282,191,12736,1,0,0:0:0:0:
184,361,12881,6,0,B|134:356|92:375|92:375|53:358|61:311,1,170
81,233,13241,1,0,0:0:0:0:
81,233,13313,2,0,P|121:240|168:226,1,85
297,42,13602,1,0,0:0:0:0:
79,113,13746,1,0,0:0:0:0:
299,185,13890,1,0,0:0:0:0:
164,0,14034,1,0,0:0:0:0:
383,34,14179,6,0,P|423:28|475:19,1,85
285,160,14467,2,0,P|243:152|201:146,1,85
37,270,14756,1,0,0:0:0:0:
240,277,14900,1,0,0:0:0:0:
93,135,15044,1,0,0:0:0:0:
155,346,15188,6,0,B|206:353|257:368|257:368|291:360|311:324,1,170
350,256,15549,1,0,0:0:0:0:
350,256,15621,2,0,P|394:268|442:252,1,85
334,60,15909,1,0,0:0:0:0:
224,253,16054,1,0,0:0:0:0:
415,144,16198,1,0,0:0:0:0:
203,76,16343,1,0,0:0:0:0:
414,17,16486,6,0,P|450:24|504:32,1,85
273,154,16775,2,0,P|230:160|189:168,1,85
8,73,17063,1,0,0:0:0:0:
208,38,17207,1,0,0:0:0:0:
71,191,17352,1,0,0:0:0:0:
249,289,17496,6,0,P|297:289|354:260,1,85
477,134,17784,1,0,0:0:0:0:
273,154,17929,2,0,P|279:115|288:70,1,85
438,231,18217,1,0,0:0:0:0:
249,290,18361,1,0,0:0:0:0:
390,118,18506,2,0,P|384:79|375:34,1,85
155,12,18794,5,0,0:0:0:0:
121,20,18866,1,0,0:0:0:0:
88,28,18938,1,0,0:0:0:0:
55,36,19010,1,0,0:0:0:0:
22,44,19082,2,0,B|8:87|8:87|30:141,1,85
71,251,19371,5,0,0:0:0:0:
71,251,19515,2,0,P|128:238|142:235,1,59.4999981842042
210,219,19804,2,0,P|223:246|227:279,1,59.4999981842042
233,138,20092,2,0,P|203:135|172:122,1,59.4999981842042
291,198,20381,2,0,P|307:173|334:153,1,59.4999981842042
411,132,20669,1,0,0:0:0:0:
475,184,20813,2,0,P|471:213|465:255,1,59.4999981842042
305,339,21102,5,0,0:0:0:0:
271,343,21174,1,0,0:0:0:0:
237,348,21246,1,0,0:0:0:0:
203,352,21318,1,0,0:0:0:0:
170,357,21390,2,0,B|128:369|128:369|82:353,1,85
28,238,21679,5,0,0:0:0:0:
28,238,21823,2,0,P|70:229|95:226,1,59.4999981842042
133,158,22111,2,0,P|137:128|128:100,1,59.4999981842042
215,181,22400,2,0,P|243:169|263:147,1,59.4999981842042
240,264,22688,2,0,P|263:281|292:288,1,59.4999981842042
375,279,22977,1,0,0:0:0:0:
430,216,23121,2,0,P|424:185|418:158,1,59.4999981842042
300,34,23409,5,0,0:0:0:0:
215,181,23554,1,0,0:0:0:0:
117,42,23698,2,0,P|74:47|24:53,1,85
11,168,23986,5,0,0:0:0:0:
11,168,24131,2,0,P|45:171|77:188,1,59.4999981842042
134,231,24419,1,0,0:0:0:0:
82,296,24563,1,0,0:0:0:0:
82,296,24635,1,0,0:0:0:0:
82,296,24707,2,0,P|92:344|95:356,1,59.4999981842042
184,374,24996,1,0,0:0:0:0:
184,374,25068,1,0,0:0:0:0:
184,374,25140,1,0,0:0:0:0:
227,303,25284,1,0,0:0:0:0:
295,350,25429,2,0,P|332:348|357:336,1,59.4999981842042
445,197,25717,5,0,0:0:0:0:
495,359,25861,1,0,0:0:0:0:
363,249,26006,2,0,P|315:241|265:233,1,85
200,155,26294,5,0,0:0:0:0:
200,155,26438,2,0,P|241:139|261:137,1,59.4999981842042
354,146,26727,1,0,0:0:0:0:
222,53,26871,1,0,0:0:0:0:
253,228,27015,1,0,0:0:0:0:
103,170,27159,2,0,P|110:133|115:111,1,59.4999981842042
119,85,27376,1,0,0:0:0:0:
119,85,27448,2,0,P|74:69|42:71,1,59.4999981842042
222,53,27736,2,0,P|251:48|278:36,1,59.4999981842042
437,10,28025,5,0,0:0:0:0:
432,44,28097,1,0,0:0:0:0:
427,78,28169,1,0,0:0:0:0:
422,112,28241,1,0,0:0:0:0:
417,146,28313,2,0,P|428:190|434:225,1,76.4999976654053
357,350,28602,1,0,0:0:0:0:
343,200,28746,1,0,0:0:0:0:
440,311,28890,1,0,0:0:0:0:
296,278,29034,6,0,P|235:287|212:301,1,76.4999976654053
107,370,29323,2,0,P|129:312|129:285,1,76.4999976654053
121,161,29611,2,0,P|159:209|182:222,1,76.4999976654053
243,98,29900,1,0,0:0:0:0:
76,74,30044,1,0,0:0:0:0:
192,1,30188,1,0,0:0:0:0:
265,185,30332,5,0,0:0:0:0:
299,180,30404,1,0,0:0:0:0:
333,175,30476,1,0,0:0:0:0:
367,170,30548,1,0,0:0:0:0:
401,165,30621,2,0,P|437:173|482:183,1,76.4999976654053
326,259,30909,1,0,0:0:0:0:
328,89,31054,1,0,0:0:0:0:
233,189,31198,1,0,0:0:0:0:
118,87,31342,6,0,P|126:50|137:11,1,76.4999976654053
20,146,31631,2,0,P|29:183|38:220,1,76.4999976654053
138,335,31919,1,0,0:0:0:0:
201,196,32063,1,0,0:0:0:0:
293,317,32207,1,0,0:0:0:0:
356,178,32351,1,0,0:0:0:0:
173,204,32496,6,0,B|141:162|141:162|182:59,1,152.999995330811
390,42,32929,2,0,P|409:74|411:113,1,76.4999976654053
306,232,33217,2,0,P|324:198|356:177,1,76.4999976654053
512,213,33506,2,0,P|473:213|439:196,1,76.4999976654053
328,101,33794,6,0,P|261:114|235:120,1,76.4999976654053
111,191,34082,2,0,P|148:198|186:205,1,76.4999976654053
318,266,34371,1,0,0:0:0:0:
178,305,34515,1,0,0:0:0:0:
272,190,34659,2,0,P|262:152|253:115,1,76.4999976654053
95,211,34948,6,0,B|52:252|50:310|50:310|78:340,1,152.999995330811
226,379,35381,2,0,P|265:340|354:356,1,152.999995330811
482,272,35813,2,0,P|425:264|393:237,1,76.4999976654053
409,254,36030,1,0,0:0:0:0:
409,254,36102,5,0,0:0:0:0:
306,141,36246,2,0,P|375:120|467:107,1,152.999995330811
287,30,36679,1,0,0:0:0:0:
220,103,36823,2,0,P|211:146|223:184,1,76.4999976654053
266,323,37111,6,0,B|229:298|229:298|135:320,1,118.999996368408
69,336,37544,1,0,0:0:0:0:
19,164,37832,2,0,B|91:180|91:180|128:155,1,118.999996368408
266,42,38409,6,0,P|317:38|379:78,1,118.999996368408
503,194,38986,2,0,P|453:225|395:223,1,118.999996368408
220,183,39563,6,0,P|206:253|198:310,1,118.999996368408
23,335,40140,1,0,0:0:0:0:
127,190,40429,1,0,0:0:0:0:
284,351,40717,6,0,B|361:344|341:370|421:364,1,118.999996368408
493,211,41294,2,0,P|442:163|380:172,1,118.999996368408
220,182,41871,6,0,P|228:124|233:64,2,118.999996368408
188,358,42736,1,0,0:0:0:0:
43,251,43025,6,0,P|28:194|50:137,2,118.999996368408
188,358,43890,1,0,0:0:0:0:
335,256,44179,6,0,P|418:271|469:280,1,118.999996368408
508,107,44756,2,0,P|449:117|390:128,1,118.999996368408
213,141,45332,6,0,P|194:97|210:31,1,118.999996368408
388,17,45909,2,0,P|407:61|391:127,1,118.999996368408
330,194,46342,1,0,0:0:0:0:
330,194,46486,6,0,B|349:234|349:234|326:313,1,118.999996368408
166,381,47063,1,0,0:0:0:0:
212,208,47352,1,0,0:0:0:0:
50,284,47640,6,0,P|41:223|32:146,1,118.999996368408
197,92,48217,2,0,P|189:151|181:209,1,118.999996368408
316,326,48794,6,0,P|359:338|433:309,1,118.999996368408
495,149,49371,1,0,0:0:0:0:
337,232,49659,2,0,P|303:226|273:220,1,59.4999981842042
148,209,49948,6,0,P|128:230|117:265,1,50.9999984436036
32,249,50140,2,0,P|23:221|0:194,1,50.9999984436036
54,129,50332,2,0,P|82:135|117:127,1,50.9999984436036
186,103,50525,6,0,P|192:76|202:33,1,50.9999984436036
270,7,50717,2,0,P|290:25|322:55,1,50.9999984436036
320,127,50909,2,0,P|293:135|251:148,1,50.9999984436036
148,209,51102,6,0,B|163:239|163:239|151:300,1,85
330,347,51390,2,0,P|319:297|308:242,1,85
486,192,51679,2,0,P|477:233|468:275,1,85
326,153,51967,1,0,0:0:0:0:
504,98,52111,1,0,0:0:0:0:
332,20,52256,6,0,P|279:21|238:43,1,85
144,187,52544,2,0,P|183:202|225:200,1,85
415,125,52832,1,0,0:0:0:0:
342,298,52977,1,0,0:0:0:0:
239,117,53121,1,0,0:0:0:0:
397,216,53265,1,0,0:0:0:0:
216,309,53409,6,0,B|184:321|184:321|105:308,1,85
6,152,53698,1,0,0:0:0:0:
185,202,53842,1,0,0:0:0:0:
6,299,53986,1,0,0:0:0:0:
103,138,54131,1,0,0:0:0:0:
131,339,54275,1,0,0:0:0:0:
292,214,54419,6,0,B|363:228|363:228|381:253|381:253|457:271,1,170
262,335,54852,1,0,0:0:0:0:
262,335,54924,1,0,0:0:0:0:
262,335,54996,1,0,0:0:0:0:
262,335,55068,1,0,0:0:0:0:
262,335,55140,1,0,0:0:0:0:
198,177,55284,1,0,0:0:0:0:
84,304,55429,2,0,P|43:314|2:304,1,85
2,137,55718,6,0,L|66:126,1,42.5
117,53,55862,1,0,0:0:0:0:
150,57,55934,1,0,0:0:0:0:
184,62,56006,1,0,0:0:0:0:
217,67,56078,1,0,0:0:0:0:
252,74,56151,6,0,P|257:100|259:120,1,42.5
268,221,56295,1,0,0:0:0:0:
297,238,56367,1,0,0:0:0:0:
330,244,56439,1,0,0:0:0:0:
363,240,56511,1,0,0:0:0:0:
394,226,56583,6,0,B|406:184|406:184|383:137,1,85
151,58,56871,1,0,0:0:0:0:
300,362,57159,1,0,0:0:0:0:
306,336,57448,6,0,P|349:340|397:346,1,89.2499972763062
415,361,58025,6,0,B|428:329|428:329|410:258,1,101.999996887207
274,86,58313,1,0,0:0:0:0:
137,263,58457,2,0,P|205:274|250:251,1,101.999996887207
52,129,58746,1,0,0:0:0:0:
107,367,58890,1,0,0:0:0:0:
184,167,59034,1,0,0:0:0:0:
0,243,59179,5,0,0:0:0:0:
234,262,59323,2,0,P|286:249|340:239,1,101.999996887207
505,96,59611,2,0,P|454:86|405:74,1,101.999996887207
189,138,59900,1,0,0:0:0:0:
409,177,60044,1,0,0:0:0:0:
230,41,60188,6,0,B|175:18|130:39|130:39|105:82|43:89,1,203.999993774414
208,273,60621,1,0,0:0:0:0:
322,80,60765,1,0,0:0:0:0:
114,189,60909,1,0,0:0:0:0:
333,240,61054,1,0,0:0:0:0:
237,14,61198,1,0,0:0:0:0:
216,247,61342,1,0,0:0:0:0:
415,146,61486,5,0,0:0:0:0:
164,90,61631,2,0,P|103:103|63:113,1,101.999996887207
315,225,61919,2,0,P|364:237|414:247,1,101.999996887207
261,128,62207,1,0,0:0:0:0:
307,338,62352,1,0,0:0:0:0:
481,152,62496,6,0,B|509:21|509:21|473:43|432:53,1,203.999993774414
233,126,62929,2,0,P|179:118|122:111,1,101.999996887207
324,19,63217,1,0,0:0:0:0:
290,240,63361,1,0,0:0:0:0:
179,31,63506,2,0,P|121:20|71:40,1,101.999996887207
20,248,63794,5,0,0:0:0:0:
224,155,63938,1,0,0:0:0:0:
277,351,64082,2,0,P|328:355|385:326,1,101.999996887207
348,131,64371,2,0,P|319:173|315:237,1,101.999996887207
501,300,64659,2,0,P|478:253|425:218,1,101.999996887207
207,177,64948,6,0,L|199:231,1,50.9999984436036
183,343,65092,1,0,0:0:0:0:
148,363,65164,1,0,0:0:0:0:
108,371,65236,1,0,0:0:0:0:
68,364,65308,1,0,0:0:0:0:
32,344,65381,6,0,L|24:293,1,50.9999984436036
3,178,65525,1,0,0:0:0:0:
11,138,65597,1,0,0:0:0:0:
19,98,65669,1,0,0:0:0:0:
27,58,65741,1,0,0:0:0:0:
35,18,65813,6,0,P|74:11|105:15,1,50.9999984436036
187,67,65957,1,0,0:0:0:0:
224,83,66029,1,0,0:0:0:0:
264,87,66101,1,0,0:0:0:0:
304,78,66173,1,0,0:0:0:0:
339,58,66246,6,0,P|364:53|395:56,1,50.9999984436036
484,122,66390,1,0,0:0:0:0:
453,148,66462,1,0,0:0:0:0:
431,183,66534,1,0,0:0:0:0:
421,222,66606,1,0,0:0:0:0:
421,262,66679,6,0,P|431:298|445:318,1,50.9999984436036
335,366,66823,1,0,0:0:0:0:
279,223,66967,1,0,0:0:0:0:
169,329,67111,6,0,B|95:370|27:317|27:317|50:260,1,203.999993774414
123,78,67544,1,0,0:0:0:0:
253,233,67688,1,0,0:0:0:0:
333,45,67832,1,0,0:0:0:0:
253,233,67977,1,0,0:0:0:0:
123,78,68121,1,0,0:0:0:0:
334,152,68265,6,0,P|404:144|440:127,1,101.999996887207
243,50,68554,1,0,0:0:0:0:
233,253,68698,2,0,P|274:309|307:332,1,101.999996887207
326,125,68986,1,0,0:0:0:0:
137,206,69131,1,0,0:0:0:0:
375,258,69275,2,0,P|459:238|497:230,1,101.999996887207
337,20,69563,6,0,B|303:38|303:38|227:21,1,101.999996887207
43,133,69852,1,0,0:0:0:0:
246,226,69996,1,0,0:0:0:0:
137,41,70140,1,0,0:0:0:0:
116,253,70284,1,0,0:0:0:0:
310,120,70429,1,0,0:0:0:0:
289,332,70573,1,0,0:0:0:0:
116,145,70717,5,0,0:0:0:0:
116,145,70789,1,0,0:0:0:0:
116,145,70861,2,0,L|56:155,1,50.9999984436036
143,262,71006,2,0,L|121:318,1,50.9999984436036
257,293,71150,2,0,L|295:339,1,50.9999984436036
414,377,71294,5,0,0:0:0:0:
403,239,71438,2,0,L|365:248,1,38.2499988327027
341,254,71727,6,0,B|401:277|401:277|353:116,1,203.999993774414
181,8,72159,1,0,0:0:0:0:
139,229,72304,2,0,P|195:238|248:217,1,101.999996887207
39,118,72592,1,0,0:0:0:0:
114,348,72736,1,0,0:0:0:0:
184,133,72881,1,0,0:0:0:0:
0,261,73025,5,0,0:0:0:0:
236,224,73169,2,0,P|287:231|337:240,1,101.999996887207
234,30,73457,2,0,P|183:39|133:46,1,101.999996887207
114,240,73746,1,0,0:0:0:0:
302,118,73890,1,0,0:0:0:0:
394,344,74034,6,0,B|471:358|471:358|494:215,1,203.999993774414
390,31,74467,1,0,0:0:0:0:
301,236,74611,1,0,0:0:0:0:
211,6,74756,1,0,0:0:0:0:
388,143,74900,1,0,0:0:0:0:
148,189,75044,1,0,0:0:0:0:
303,21,75188,1,0,0:0:0:0:
297,265,75332,5,0,0:0:0:0:
158,86,75477,2,0,P|96:90|60:108,1,101.999996887207
10,325,75765,2,0,P|56:345|107:346,1,101.999996887207
301,236,76054,1,0,0:0:0:0:
58,206,76198,1,0,0:0:0:0:
251,354,76342,6,0,B|292:340|334:343|334:343|366:311|366:311|399:315|448:300,1,203.999993774414
437,76,76775,2,0,P|397:136|402:185,1,101.999996887207
242,326,77063,1,0,0:0:0:0:
213,103,77207,1,0,0:0:0:0:
59,266,77352,2,0,P|69:315|81:373,1,101.999996887207
268,210,77640,6,0,P|197:209|161:233,1,101.999996887207
385,345,77929,2,0,P|431:364|481:358,1,101.999996887207
404,126,78217,1,0,0:0:0:0:
274,333,78361,1,0,0:0:0:0:
143,124,78506,2,0,P|154:71|168:14,1,101.999996887207
297,217,78794,5,0,0:0:0:0:
64,242,78938,1,0,0:0:0:0:
260,76,79083,1,0,0:0:0:0:
27,101,79227,1,0,0:0:0:0:
183,275,79371,2,0,P|167:337|157:379,1,101.999996887207
30,242,79659,1,0,0:0:0:0:
281,194,79804,6,0,B|405:181|363:266|498:238,1,203.999993774414
365,45,80236,2,0,P|281:71|245:85,1,101.999996887207
183,275,80525,1,0,0:0:0:0:
387,184,80669,1,0,0:0:0:0:
161,118,80813,1,0,0:0:0:0:
273,384,80957,6,0,B|412:419|412:419|375:350,1,203.999993774414
256,200,81390,1,0,0:0:0:0:
176,365,81534,1,0,0:0:0:0:
30,251,81679,2,0,P|36:206|48:149,1,101.999996887207
169,13,81967,2,0,P|179:62|186:113,1,101.999996887207
212,284,82256,5,0,0:0:0:0:
367,187,82400,2,0,P|428:192|468:215,1,101.999996887207
282,89,82688,2,0,P|236:111|185:113,1,101.999996887207
3,84,82977,1,0,0:0:0:0:
167,2,83121,1,0,0:0:0:0:
85,165,83265,6,0,P|95:228|102:279,1,101.999996887207
250,373,83554,1,0,0:0:0:0:
189,199,83698,1,0,0:0:0:0:
107,363,83842,1,0,0:0:0:0:
296,264,83986,2,0,P|347:284|408:278,1,101.999996887207
506,136,84275,1,0,0:0:0:0:
334,71,84419,6,0,P|319:139|310:186,1,101.999996887207
185,303,84707,1,0,0:0:0:0:
155,120,84852,1,0,0:0:0:0:
23,248,84996,2,0,P|13:298|28:349,1,101.999996887207
194,273,85284,1,0,0:0:0:0:
51,155,85429,1,0,0:0:0:0:
252,99,85573,1,0,0:0:0:0:
252,99,85645,1,0,0:0:0:0:
252,99,85717,6,0,B|289:134|289:134|404:101,1,152.999995330811
472,83,86006,2,0,P|495:146|490:187,1,101.999996887207
459,360,86294,1,0,0:0:0:0:
355,208,86438,1,0,0:0:0:0:
292,380,86582,2,0,P|231:368|179:358,1,101.999996887207
19,231,86871,6,0,B|54:240|54:240|126:222,1,101.999996887207
293,170,87159,1,0,0:0:0:0:
120,105,87304,1,0,0:0:0:0:
245,265,87448,1,0,0:0:0:0:
297,68,87592,1,0,0:0:0:0:
430,221,87736,2,0,P|412:276|403:327,1,101.999996887207
148,343,88025,6,0,B|160:315|160:315|133:238,1,101.999996887207
286,41,88313,1,0,0:0:0:0:
273,264,88457,1,0,0:0:0:0:
98,76,88602,5,0,0:0:0:0:
309,149,88746,1,0,0:0:0:0:
57,187,88890,1,0,0:0:0:0:
197,12,89034,1,0,0:0:0:0:
273,264,89179,5,0,0:0:0:0:
406,83,89323,1,0,0:0:0:0:
180,201,89467,1,0,0:0:0:0:
395,263,89611,1,0,0:0:0:0:
307,22,89756,5,0,0:0:0:0:
284,240,89900,1,0,0:0:0:0:
110,53,90044,1,0,0:0:0:0:
87,271,90188,1,0,0:0:0:0:
309,149,90332,6,0,P|368:162|428:175,1,101.999996887207
188,338,90621,1,0,0:0:0:0:
191,113,90765,1,0,0:0:0:0:
391,301,90909,5,0,0:0:0:0:
170,217,91054,1,0,0:0:0:0:
406,77,91198,1,0,0:0:0:0:
278,273,91342,1,0,0:0:0:0:
195,10,91486,5,0,0:0:0:0:
346,190,91631,1,0,0:0:0:0:
93,81,91775,1,0,0:0:0:0:
317,15,91919,1,0,0:0:0:0:
172,272,92063,5,0,0:0:0:0:
24,16,92207,1,0,0:0:0:0:
172,272,92352,1,0,0:0:0:0:
24,16,92496,1,0,0:0:0:0:
328,103,92929,5,0,0:0:0:0:
315,125,93506,5,0,0:0:0:0:
304,145,94082,5,0,0:0:0:0:
291,167,94659,5,0,0:0:0:0:
279,189,95236,5,0,0:0:0:0:
266,211,95813,5,0,0:0:0:0:
201,97,95957,1,0,0:0:0:0:
196,115,97832,6,0,L|191:169,1,42.5
196,115,98121,2,0,L|191:171,1,42.5
41,356,98409,5,0,0:0:0:0:
70,353,98482,1,0,0:0:0:0:
100,350,98554,1,0,0:0:0:0:
129,348,98626,1,0,0:0:0:0:
159,346,98698,6,0,L|149:270,1,59.4999981842042
256,197,98986,1,0,0:0:0:0:
256,197,99131,2,0,L|248:255,1,59.4999981842042
393,338,99419,6,0,P|355:312|346:281,1,59.4999981842042
480,223,99707,2,0,P|463:247|436:259,1,59.4999981842042
359,179,99996,1,0,0:0:0:0:
483,97,100140,5,0,0:0:0:0:
453,93,100212,1,0,0:0:0:0:
423,90,100284,1,0,0:0:0:0:
394,87,100356,1,0,0:0:0:0:
342,28,100429,5,0,0:0:0:0:
312,31,100501,1,0,0:0:0:0:
282,34,100573,1,0,0:0:0:0:
253,37,100645,1,0,0:0:0:0:
175,67,100717,5,0,0:0:0:0:
184,85,100789,1,0,0:0:0:0:
189,105,100861,1,0,0:0:0:0:
188,126,100933,1,0,0:0:0:0:
183,146,101006,6,0,L|188:217,1,59.4999981842042
80,98,101294,1,0,0:0:0:0:
80,98,101438,2,0,L|75:157,1,59.4999981842042
28,276,101727,6,0,P|69:253|99:252,1,59.4999981842042
146,361,102015,2,0,P|117:353|93:336,1,59.4999981842042
226,330,102304,1,0,0:0:0:0:
187,229,102448,2,0,L|181:271,7,29.7499990921021
187,229,103025,6,0,L|180:161,1,59.4999981842042
275,40,103313,2,0,L|268:99,1,59.4999981842042
305,225,103602,1,0,0:0:0:0:
354,160,103746,2,0,P|389:144|431:144,1,59.4999981842042
489,274,104034,1,0,0:0:0:0:
435,340,104179,6,0,P|405:335|379:321,1,59.4999981842042
227,282,104467,1,0,0:0:0:0:
305,225,104611,1,0,0:0:0:0:
187,178,104756,2,0,L|196:220,3,29.7499990921021
187,178,105044,6,0,L|199:93,1,59.4999981842042
203,90,105260,1,0,0:0:0:0:
209,60,105332,1,0,0:0:0:0:
99,20,105477,1,0,0:0:0:0:
12,108,105621,5,0,0:0:0:0:
17,137,105693,1,0,0:0:0:0:
22,166,105765,1,0,0:0:0:0:
27,195,105837,1,0,0:0:0:0:
31,224,105909,5,0,0:0:0:0:
114,163,106054,1,0,0:0:0:0:
173,297,106198,1,0,0:0:0:0:
62,339,106342,1,0,0:0:0:0:
197,211,106486,5,0,0:0:0:0:
229,212,106558,1,0,0:0:0:0:
261,215,106630,1,0,0:0:0:0:
293,215,106702,1,0,0:0:0:0:
325,216,106774,1,0,0:0:0:0:
357,219,106846,1,0,0:0:0:0:
389,220,106918,1,0,0:0:0:0:
421,223,106990,1,0,0:0:0:0:
444,225,107063,6,0,B|435:268|435:268|450:315,1,85
494,151,107640,6,0,P|443:135|408:143,1,85
279,275,107929,1,0,0:0:0:0:
415,317,108073,1,0,0:0:0:0:
321,168,108217,2,0,L|308:83,1,85
225,23,108506,1,0,0:0:0:0:
60,118,108650,6,0,P|107:100|144:103,1,85
239,246,108938,2,0,P|196:246|158:230,1,85
308,83,109227,2,0,L|324:178,1,85
263,336,109515,1,0,0:0:0:0:
391,272,109659,1,0,0:0:0:0:
250,225,109804,1,0,0:0:0:0:
373,360,109948,6,0,L|469:348,1,85
495,176,110236,2,0,L|399:188,1,85
230,246,110525,2,0,P|253:198|251:157,1,85
131,222,110813,1,0,0:0:0:0:
339,134,110957,6,0,P|318:97|315:55,1,85
216,84,111246,1,0,0:0:0:0:
350,164,111390,2,0,L|441:154,1,85
313,262,111679,1,0,0:0:0:0:
468,236,111823,1,0,0:0:0:0:
287,264,111967,1,0,0:0:0:0:
496,232,112111,6,0,P|504:288|417:362,1,170
143,355,112544,2,0,L|227:346,1,85
371,272,112832,2,0,L|286:263,1,85
153,185,113121,2,0,L|237:176,1,85
367,20,113409,6,0,P|352:67|348:126,1,85
471,288,113698,2,0,P|465:245|451:205,1,85
274,11,113986,2,0,P|260:51|254:93,1,85
387,305,114275,2,0,P|381:262|367:222,1,85
267,358,114563,5,0,0:0:0:0:
239,349,114635,1,0,0:0:0:0:
209,346,114707,1,0,0:0:0:0:
180,350,114779,1,0,0:0:0:0:
153,360,114851,1,0,0:0:0:0:
126,373,114924,5,0,0:0:0:0:
93,383,114996,1,0,0:0:0:0:
60,379,115068,1,0,0:0:0:0:
30,363,115140,1,0,0:0:0:0:
9,337,115212,1,0,0:0:0:0:
0,304,115284,1,0,0:0:0:0:
4,271,115356,1,0,0:0:0:0:
13,232,115429,1,0,0:0:0:0:
102,163,115573,5,0,0:0:0:0:
102,163,115645,1,0,0:0:0:0:
102,163,115717,2,0,L|120:260,1,85
218,331,115933,5,0,0:0:0:0:
218,331,116006,2,0,L|233:247,1,85
315,108,116222,5,0,0:0:0:0:
315,108,116294,2,0,L|331:192,1,85
412,343,116510,5,0,0:0:0:0:
412,343,116582,2,0,L|430:247,1,85
498,142,116799,1,0,0:0:0:0:
498,142,116871,6,0,P|444:152|405:188,1,101.999996887207
512,276,117159,1,0,0:0:0:0:
324,384,117304,2,0,P|283:372|241:326,1,101.999996887207
261,115,117592,1,0,0:0:0:0:
160,303,117736,2,0,P|126:328|66:340,1,101.999996887207
80,91,118025,5,0,0:0:0:0:
227,186,118169,1,0,0:0:0:0:
33,271,118313,1,0,0:0:0:0:
250,97,118457,2,0,P|290:118|322:176,1,101.999996887207
229,342,118746,1,0,0:0:0:0:
351,167,118890,1,0,0:0:0:0:
314,362,119034,6,0,B|362:351|362:351|444:369|444:369|513:348,1,203.999993774414
282,241,119467,1,0,0:0:0:0:
172,361,119611,1,0,0:0:0:0:
167,141,119756,1,0,0:0:0:0:
306,360,119900,1,0,0:0:0:0:
125,266,120044,1,0,0:0:0:0:
294,153,120188,1,0,0:0:0:0:
69,197,120332,6,0,P|85:142|80:87,1,101.999996887207
125,266,120621,1,0,0:0:0:0:
156,57,120765,2,0,P|209:73|262:65,1,101.999996887207
512,74,121054,1,0,0:0:0:0:
372,10,121198,1,0,0:0:0:0:
224,196,121342,6,0,B|258:227|258:227|419:208,1,203.999993774414
495,38,121775,2,0,P|468:73|465:129,1,101.999996887207
480,263,122063,1,0,0:0:0:0:
349,136,122207,1,0,0:0:0:0:
306,311,122352,2,0,L|197:294,1,101.999996887207
97,93,122640,6,0,P|129:133|134:204,1,101.999996887207
111,361,122929,1,0,0:0:0:0:
213,261,123073,1,0,0:0:0:0:
29,273,123217,2,0,L|42:163,1,101.999996887207
210,23,123506,2,0,L|221:126,1,101.999996887207
322,272,123794,2,0,L|333:208,1,50.9999984436036
433,176,123938,5,0,0:0:0:0:
437,214,124010,1,0,0:0:0:0:
441,252,124082,1,0,0:0:0:0:
445,290,124154,1,0,0:0:0:0:
445,322,124227,2,0,L|437:389,1,50.9999984436036
298,375,124371,5,0,0:0:0:0:
262,360,124443,1,0,0:0:0:0:
224,355,124515,1,0,0:0:0:0:
187,361,124587,1,0,0:0:0:0:
150,358,124659,2,0,P|132:312|132:285,1,50.9999984436036
155,168,124804,5,0,0:0:0:0:
189,153,124876,1,0,0:0:0:0:
227,151,124948,1,0,0:0:0:0:
263,164,125020,1,0,0:0:0:0:
295,179,125092,2,0,P|329:190|364:188,1,50.9999984436036
501,83,125236,5,0,0:0:0:0:
466,99,125308,1,0,0:0:0:0:
429,105,125380,1,0,0:0:0:0:
391,98,125452,1,0,0:0:0:0:
354,87,125525,2,0,P|316:68|292:37,1,50.9999984436036
186,2,125669,1,0,0:0:0:0:
74,86,125813,1,0,0:0:0:0:
295,179,125957,6,0,B|322:222|322:222|296:380,1,203.999993774414
96,266,126391,2,0,P|151:236|212:244,1,101.999996887207
263,380,126679,1,0,0:0:0:0:
131,343,126823,1,0,0:0:0:0:
276,203,126967,1,0,0:0:0:0:
153,122,127111,6,0,P|101:144|49:141,1,101.999996887207
223,30,127400,2,0,P|274:8|329:13,1,101.999996887207
341,153,127688,1,0,0:0:0:0:
427,31,127832,1,0,0:0:0:0:
512,120,127977,1,0,0:0:0:0:
341,153,128121,2,0,P|257:173|219:181,1,101.999996887207
49,176,128409,6,0,P|17:130|26:72,1,101.999996887207
135,222,128698,1,0,0:0:0:0:
204,30,128842,1,0,0:0:0:0:
277,185,128986,1,0,0:0:0:0:
98,112,129131,1,0,0:0:0:0:
222,260,129275,2,0,B|266:278|266:278|322:269,1,101.999996887207
477,103,129563,5,0,0:0:0:0:
477,103,129635,1,0,0:0:0:0:
477,103,129707,2,0,L|489:166,1,50.9999984436036
383,11,129852,2,0,L|371:74,1,50.9999984436036
288,154,129996,2,0,L|278:103,1,50.9999984436036
226,26,130140,1,0,0:0:0:0:
383,142,130284,6,0,L|373:198,1,51
374,192,130573,6,0,B|424:216|424:216|397:373,1,203.999993774414
276,187,131006,1,0,0:0:0:0:
213,364,131150,2,0,P|166:378|101:362,1,101.999996887207
21,212,131438,1,0,0:0:0:0:
197,245,131582,1,0,0:0:0:0:
81,367,131727,1,0,0:0:0:0:
96,162,131871,6,0,L|198:146,1,101.999996887207
322,260,132159,1,0,0:0:0:0:
386,101,132304,2,0,L|272:84,1,101.999996887207
97,30,132592,1,0,0:0:0:0:
262,82,132736,1,0,0:0:0:0:
24,111,132881,6,0,P|10:162|38:223,1,101.999996887207
127,353,133169,1,0,0:0:0:0:
246,180,133313,1,0,0:0:0:0:
301,327,133457,1,0,0:0:0:0:
163,143,133602,1,0,0:0:0:0:
70,277,133746,1,0,0:0:0:0:
304,241,133890,2,0,L|410:229,1,101.999996887207
304,113,134179,5,0,0:0:0:0:
301,327,134323,2,0,L|195:315,1,101.999996887207
134,117,134611,2,0,P|178:166|177:213,1,101.999996887207
135,381,134900,1,0,0:0:0:0:
100,191,135044,1,0,0:0:0:0:
312,218,135188,6,0,B|384:209|384:209|437:224|437:224|519:210,1,203.999993774414
284,132,135621,2,0,P|238:162|220:215,1,101.999996887207
346,346,135909,1,0,0:0:0:0:
229,239,136054,1,0,0:0:0:0:
118,373,136198,2,0,P|48:388|7:366,1,101.999996887207
229,239,136486,6,0,L|242:343,1,101.999996887207
11,252,136775,2,0,L|23:150,1,101.999996887207
238,92,137063,1,0,0:0:0:0:
114,13,137207,1,0,0:0:0:0:
219,200,137352,2,0,L|324:185,1,101.999996887207
485,80,137640,5,0,0:0:0:0:
337,181,137784,1,0,0:0:0:0:
501,271,137929,1,0,0:0:0:0:
389,95,138073,1,0,0:0:0:0:
413,327,138217,2,0,P|365:338|307:324,1,101.999996887207
445,208,138506,1,0,0:0:0:0:
186,165,138650,6,0,P|212:221|160:352,1,203.999993774414
0,254,139082,2,0,P|63:241|107:252,1,101.999996887207
140,377,139371,1,0,0:0:0:0:
279,262,139515,1,0,0:0:0:0:
172,137,139659,1,0,0:0:0:0:
293,273,139804,6,0,B|411:237|391:332|514:271,1,203.999993774414
468,110,140236,2,0,P|438:160|441:212,1,101.999996887207
261,148,140525,1,0,0:0:0:0:
371,75,140669,1,0,0:0:0:0:
317,250,140813,1,0,0:0:0:0:
179,126,140957,1,0,0:0:0:0:
133,241,141102,6,0,P|85:264|30:266,1,101.999996887207
212,353,141390,2,0,P|262:356|308:379,1,101.999996887207
457,276,141679,2,0,P|442:222|455:172,1,101.999996887207
356,57,141967,1,0,0:0:0:0:
505,100,142111,1,0,0:0:0:0:
346,178,142256,6,0,L|226:161,1,101.999996887207
44,53,142544,2,0,L|144:38,1,101.999996887207
342,208,142832,2,0,L|222:191,1,101.999996887207
23,29,143121,2,0,L|143:12,1,101.999996887207
85,330,143409,6,0,P|66:262|78:220,1,101.999996887207
223,25,143698,2,0,P|228:75|210:122,1,101.999996887207
194,352,143986,1,0,0:0:0:0:
239,349,144058,1,0,0:0:0:0:
285,346,144130,1,0,0:0:0:0:
331,343,144202,1,0,0:0:0:0:
377,342,144275,2,0,B|360:237|360:237|414:269,1,152.999995330811
476,295,144563,5,0,0:0:0:0:
471,311,148602,6,0,L|492:369,1,50.9999984436036
401,250,148818,2,0,L|380:308,1,50.9999984436036
467,176,149034,2,0,L|488:234,1,50.9999984436036
471,87,149179,6,0,B|397:84|423:137|324:135,1,136
156,10,149756,2,0,B|230:7|204:60|303:58,1,136
193,220,150332,6,0,P|157:175|164:89,1,136
359,15,150909,2,0,P|363:81|324:135,1,136
235,148,151342,1,0,0:0:0:0:
350,227,151486,6,0,B|427:241|393:177|500:194,2,136
253,379,152352,1,0,0:0:0:0:
153,247,152640,6,0,B|76:261|110:197|3:214,1,136
136,116,153217,2,0,P|142:132|152:171,1,50.9999984436036
70,44,153433,2,0,P|64:60|56:100,1,50.9999984436036
178,0,153650,2,0,P|183:16|191:51,1,50.9999984436036
273,59,153794,6,0,P|318:80|409:70,1,136
512,196,154371,2,0,P|445:185|382:210,1,136
319,265,154804,1,0,0:0:0:0:
252,322,154948,6,0,P|185:332|122:307,1,136
18,164,155525,2,0,P|61:155|103:163,1,68
168,186,155813,1,0,0:0:0:0:
168,186,156102,6,0,B|252:177|221:229|295:218,1,136
370,57,156679,2,0,B|444:68|413:16|512:26,2,136
287,17,157400,5,0,0:0:0:0:
199,28,157544,1,0,0:0:0:0:
199,28,157832,6,0,P|211:78|216:133,1,102
231,215,158409,6,0,P|286:196|370:185,1,136
218,344,158986,2,0,P|163:325|79:314,1,136
25,248,159419,1,0,0:0:0:0:
60,167,159563,6,0,P|73:123|81:20,1,136
169,22,159996,1,0,0:0:0:0:
214,97,160140,2,0,P|218:164|233:216,1,102
258,228,160429,2,0,L|333:234,1,68
406,269,160717,6,0,P|442:255|480:245,1,68
390,358,160957,6,0,P|358:345|325:336,1,68
226,197,161294,6,0,P|236:246|233:316,2,102
235,297,162592,6,0,L|291:292,1,34
354,240,162736,1,0,0:0:0:0:
354,240,163025,6,0,B|342:194|342:194|371:144|371:144|345:97|360:43,2,187.000005706787
270,119,163746,1,0,0:0:0:0:
194,229,163890,1,0,0:0:0:0:
225,34,164034,6,0,B|178:65|141:69|141:69|95:39|27:56,1,187.000005706787
42,241,164467,2,0,P|74:195|78:139,1,93.5000028533936
225,34,164756,2,0,P|234:79|263:116,1,93.5000028533936
226,262,165044,1,0,0:0:0:0:
343,155,165188,1,0,0:0:0:0:
414,259,165332,5,0,0:0:0:0:
194,176,165477,2,0,L|102:186,1,93.5000028533936
373,353,165765,1,0,0:0:0:0:
140,269,165909,2,0,L|48:279,1,93.5000028533936
98,86,166198,1,0,0:0:0:0:
293,287,166342,6,0,P|277:239|298:179,1,93.5000028533936
437,304,166631,1,0,0:0:0:0:
358,138,166775,2,0,P|313:115|260:117,1,93.5000028533936
10,279,167063,2,0,B|64:294|64:294|98:280|98:280|142:296|203:278,1,187.000005706787
144,105,167496,5,0,0:0:0:0:
193,255,167640,1,0,0:0:0:0:
23,189,167784,1,0,0:0:0:0:
79,29,167929,1,0,0:0:0:0:
259,120,168073,2,0,B|359:133|330:56|455:76,1,187.000005706787
280,30,168506,1,0,0:0:0:0:
227,231,168650,6,0,P|173:217|130:216,1,93.5000028533936
338,344,168938,2,0,P|384:341|429:328,1,93.5000028533936
392,140,169227,2,0,B|339:128|339:128|368:257,1,187.000005706787
485,158,169659,1,0,0:0:0:0:
485,158,169948,5,0,0:0:0:0:
359,43,170092,1,0,0:0:0:0:
506,5,170236,1,0,0:0:0:0:
270,0,170381,2,0,B|240:103|310:81|270:195,1,187.000005706787
232,309,170813,1,0,0:0:0:0:
101,160,170957,6,0,P|142:140|189:140,1,93.5000028533936
425,281,171246,2,0,P|378:281|336:261,1,93.5000028533936
412,24,171534,2,0,B|398:73|398:73|421:134|421:134|396:207,1,187.000005706787
313,35,171967,1,0,0:0:0:0:
313,35,172256,6,0,B|261:25|261:25|217:44|217:44|169:32|93:42,2,187.000005706787
166,126,172977,1,0,0:0:0:0:
96,38,173121,1,0,0:0:0:0:
144,231,173265,6,0,P|196:225|241:222,1,93.5000028533936
334,14,173554,2,0,P|306:76|312:118,1,93.5000028533936
473,275,173842,2,0,P|469:228|446:189,1,93.5000028533936
365,320,174131,1,0,0:0:0:0:
274,217,174275,1,0,0:0:0:0:
398,116,174419,1,0,0:0:0:0:
242,26,174563,6,0,P|193:44|140:41,1,93.5000028533936
10,180,174852,2,0,P|56:180|99:197,1,93.5000028533936
13,297,175140,1,0,0:0:0:0:
122,219,175284,1,0,0:0:0:0:
237,307,175429,1,0,0:0:0:0:
99,177,175573,6,0,P|91:125|93:76,1,93.5000028533936
294,14,175861,2,0,L|284:113,1,93.5000028533936
273,345,176150,2,0,B|320:306|372:315|372:315|403:348|479:351,1,187.000005706787
362,229,176582,1,0,0:0:0:0:
455,162,176727,1,0,0:0:0:0:
225,138,176871,5,0,0:0:0:0:
228,170,176943,1,0,0:0:0:0:
232,203,177015,1,0,0:0:0:0:
236,235,177087,1,0,0:0:0:0:
239,265,177159,2,0,P|192:276|136:263,1,93.5000028533936
7,75,177448,1,0,0:0:0:0:
39,71,177520,1,0,0:0:0:0:
71,67,177592,1,0,0:0:0:0:
130,191,177736,1,0,0:0:0:0:
261,28,177881,6,0,B|370:20|332:87|461:74,1,187.000005706787
300,204,178313,2,0,P|279:137|294:102,1,93.5000028533936
465,183,178602,5,0,0:0:0:0:
460,215,178674,1,0,0:0:0:0:
456,247,178746,1,0,0:0:0:0:
452,280,178818,1,0,0:0:0:0:
448,312,178890,1,0,0:0:0:0:
314,225,179034,1,0,0:0:0:0:
191,379,179179,6,0,L|93:361,1,93.5000028533936
222,241,179467,2,0,L|313:224,1,93.5000028533936
138,143,179756,1,0,0:0:0:0:
138,143,180044,1,0,0:0:0:0:
20,51,180188,5,0,0:0:0:0:
29,91,180260,1,0,0:0:0:0:
37,132,180332,1,0,0:0:0:0:
37,169,180404,1,0,0:0:0:0:
28,205,180476,1,0,0:0:0:0:
146,253,180621,5,0,0:0:0:0:
258,187,180765,1,0,0:0:0:0:
385,235,180909,1,0,0:0:0:0:
458,108,181054,1,0,0:0:0:0:
341,11,181198,1,0,0:0:0:0:
258,187,181342,5,0,0:0:0:0:
258,187,182640,5,0,0:0:0:0:
258,187,183794,1,0,0:0:0:0:
258,187,184371,5,0,0:0:0:0:
137,252,184659,1,0,0:0:0:0:
30,104,184948,6,0,P|71:111|102:113,1,63.7499980545045
155,9,185140,6,0,P|123:11|91:17,1,63.7499980545045
198,98,185332,6,0,P|229:103|261:106,1,63.7499980545045
350,28,185525,6,0,P|369:62|372:92,1,63.7499980545045
473,122,185717,6,0,P|456:157|433:176,1,63.7499980545045
501,252,185909,6,0,P|470:276|441:283,1,63.7499980545045
322,158,186102,6,0,P|334:207|342:250,1,85
192,384,186390,2,0,P|199:346|211:301,1,85
121,196,186679,1,0,0:0:0:0:
214,128,186823,1,0,0:0:0:0:
51,267,186967,2,0,P|28:222|31:170,1,85
188,25,187256,6,0,P|207:57|211:107,1,85
287,287,187544,2,0,P|340:274|389:270,1,85
507,109,187832,2,0,P|469:103|420:93,1,85
259,172,188121,1,0,0:0:0:0:
307,27,188265,1,0,0:0:0:0:
439,200,188409,6,0,P|460:241|466:292,1,85
228,350,188698,2,0,P|209:316|204:265,1,85
273,138,188986,1,0,0:0:0:0:
316,306,189131,1,0,0:0:0:0:
417,221,189275,1,0,0:0:0:0:
277,48,189419,6,0,B|231:56|231:56|169:36|169:36|109:43,1,170
22,227,189852,1,0,0:0:0:0:
129,144,189996,1,0,0:0:0:0:
123,106,190068,1,0,0:0:0:0:
117,68,190140,1,0,0:0:0:0:
14,135,190284,1,0,0:0:0:0:
141,246,190429,1,0,0:0:0:0:
141,246,190717,6,0,L|205:235,1,42.5
294,175,190861,1,0,0:0:0:0:
327,179,190933,1,0,0:0:0:0:
361,183,191005,1,0,0:0:0:0:
395,187,191077,1,0,0:0:0:0:
437,194,191150,2,0,P|442:168|444:148,1,42.5
372,33,191294,5,0,0:0:0:0:
339,29,191366,1,0,0:0:0:0:
306,35,191438,1,0,0:0:0:0:
277,52,191510,1,0,0:0:0:0:
253,76,191582,2,0,L|113:57,1,127.5
47,43,191871,5,0,0:0:0:0:
82,243,192159,1,0,0:0:0:0:
82,243,192448,6,0,P|126:222|161:222,1,46.7500014266968
263,209,192592,1,0,0:0:0:0:
248,244,192664,1,0,0:0:0:0:
244,282,192736,1,0,0:0:0:0:
251,319,192808,1,0,0:0:0:0:
313,369,192880,2,0,L|384:358,1,46.7500014266968
491,240,193024,5,0,0:0:0:0:
493,201,193096,1,0,0:0:0:0:
483,165,193168,1,0,0:0:0:0:
462,133,193240,1,0,0:0:0:0:
416,74,193313,2,0,L|266:84,1,140.25000428009
216,146,193601,5,0,0:0:0:0:
506,4,193890,1,0,0:0:0:0:
491,28,203986,6,0,P|481:74|495:165,1,136
475,248,204419,1,0,0:0:0:0:
475,248,204563,2,0,P|431:227|343:218,1,136
233,279,204996,5,0,0:0:0:0:
233,279,205068,1,0,0:0:0:0:
233,279,205140,1,0,0:0:0:0:
216,189,205284,1,0,0:0:0:0:
119,274,205428,2,0,L|135:355,1,68
23,228,205717,1,0,0:0:0:0:
23,228,206005,1,0,0:0:0:0:
37,140,206149,1,0,0:0:0:0:
48,51,206294,6,0,P|111:50|191:19,1,136
264,49,206726,1,0,0:0:0:0:
264,49,206871,2,0,P|251:92|259:192,1,136
319,243,207303,5,0,0:0:0:0:
319,243,207375,1,0,0:0:0:0:
319,243,207447,1,0,0:0:0:0:
386,183,207592,1,0,0:0:0:0:
464,267,207736,2,0,L|453:346,1,68
319,369,208024,1,0,0:0:0:0:
249,294,208169,1,0,0:0:0:0:
145,337,208313,1,0,0:0:0:0:
258,172,208457,5,0,0:0:0:0:
254,196,210909,6,0,L|249:142,3,42.5
237,72,211197,1,0,0:0:0:0:
157,203,211342,2,0,L|94:194,3,42.5
29,264,211630,1,0,0:0:0:0:
29,264,211702,1,0,0:0:0:0:
29,264,211774,2,0,L|41:355,1,85
118,375,211991,1,0,0:0:0:0:
239,357,212063,5,0,0:0:0:0:
268,340,212135,1,0,0:0:0:0:
301,334,212207,1,0,0:0:0:0:
334,342,212279,1,0,0:0:0:0:
372,355,212351,5,0,0:0:0:0:
405,374,212423,1,0,0:0:0:0:
442,374,212495,1,0,0:0:0:0:
475,355,212567,1,0,0:0:0:0:
497,327,212640,5,0,0:0:0:0:
510,278,212712,1,0,0:0:0:0:
496,230,212784,1,0,0:0:0:0:
470,195,212856,1,0,0:0:0:0:
442,169,212928,1,0,0:0:0:0:
411,118,213000,1,0,0:0:0:0:
410,59,213072,1,0,0:0:0:0:
433,14,213145,1,0,0:0:0:0:
380,18,213217,6,0,L|264:29,1,110.499994941712
111,10,213505,1,0,0:0:0:0:
218,193,213649,2,0,L|337:204,1,110.499994941712
462,86,213938,1,0,0:0:0:0:
372,277,214082,2,0,P|367:336|393:391,1,110.499994941712
478,196,214371,5,0,0:0:0:0:
282,270,214515,1,0,0:0:0:0:
321,88,214659,1,0,0:0:0:0:
137,258,214803,2,0,P|117:197|118:149,1,110.499994941712
348,57,215092,1,0,0:0:0:0:
171,4,215236,1,0,0:0:0:0:
226,191,215380,6,0,B|280:184|280:184|362:210|362:210|446:195,1,220.999989883423
263,270,215813,1,0,0:0:0:0:
402,332,215957,1,0,0:0:0:0:
196,374,216101,1,0,0:0:0:0:
230,170,216246,1,0,0:0:0:0:
328,363,216390,1,0,0:0:0:0:
90,320,216534,1,0,0:0:0:0:
86,96,216678,6,0,P|122:149|126:200,1,110.499994941712
179,23,216967,1,0,0:0:0:0:
180,261,217111,2,0,P|236:232|298:236,1,110.499994941712
484,368,217399,1,0,0:0:0:0:
493,183,217544,1,0,0:0:0:0:
340,384,217688,6,0,B|306:340|306:340|350:169,1,220.999989883423
500,18,218121,2,0,P|458:56|390:63,1,110.499994941712
233,202,218409,1,0,0:0:0:0:
252,24,218553,1,0,0:0:0:0:
142,197,218697,2,0,L|163:325,1,110.499994941712
6,97,218986,6,0,P|56:117|111:110,1,110.499994941712
363,81,219274,1,0,0:0:0:0:
211,17,219419,1,0,0:0:0:0:
329,183,219563,2,0,P|394:171|445:166,1,110.499994941712
281,364,219851,2,0,P|226:357|171:347,1,110.499994941712
28,218,220140,6,0,P|74:204|113:209,1,55.2499974708558
213,268,220284,1,0,0:0:0:0:
194,228,220356,1,0,0:0:0:0:
183,184,220428,1,0,0:0:0:0:
187,141,220500,1,0,0:0:0:0:
196,100,220572,2,0,P|233:82|259:76,1,55.2499974708558
400,115,220717,5,0,0:0:0:0:
416,156,220789,1,0,0:0:0:0:
421,199,220861,1,0,0:0:0:0:
414,243,220933,1,0,0:0:0:0:
397,277,221005,2,0,P|345:264|316:274,1,55.2499974708558
217,362,221149,5,0,0:0:0:0:
174,350,221222,1,0,0:0:0:0:
131,352,221293,1,0,0:0:0:0:
90,369,221365,1,0,0:0:0:0:
45,383,221438,2,0,P|24:342|26:300,1,55.2499974708558
133,138,221582,5,0,0:0:0:0:
176,128,221654,1,0,0:0:0:0:
220,130,221726,1,0,0:0:0:0:
262,143,221800,1,0,0:0:0:0:
296,166,221875,2,0,P|351:183|382:178,1,55.2499974708558
512,125,222015,1,0,0:0:0:0:
373,18,222159,1,0,0:0:0:0:
495,252,222303,6,0,B|377:221|432:302|289:265,1,187.000005706787
176,128,222736,2,0,P|202:170|193:246,1,93.5000028533936
64,366,223024,1,0,0:0:0:0:
121,193,223169,1,0,0:0:0:0:
205,330,223313,1,0,0:0:0:0:
335,169,223457,6,0,P|346:110|333:67,1,93.5000028533936
117,19,223746,2,0,P|108:64|120:109,1,93.5000028533936
234,219,224034,1,0,0:0:0:0:
190,62,224178,1,0,0:0:0:0:
61,168,224322,1,0,0:0:0:0:
275,297,224467,2,0,P|325:297|379:266,1,93.5000028533936
476,74,224755,6,0,L|459:181,1,93.5000028533936
498,333,225044,1,0,0:0:0:0:
349,182,225188,1,0,0:0:0:0:
251,330,225332,1,0,0:0:0:0:
466,195,225476,1,0,0:0:0:0:
229,95,225621,2,0,P|210:151|226:201,1,93.5000028533936
389,329,225909,5,0,0:0:0:0:
389,329,225981,1,0,0:0:0:0:
389,329,226053,2,0,L|457:317,1,46.7500014266968
344,229,226197,2,0,L|297:220,1,46.7500014266968
304,369,226342,2,0,L|257:377,1,46.7500014266968
431,232,226486,1,0,0:0:0:0:
225,106,226630,6,0,L|232:164,1,51
231,156,226919,6,0,B|86:127|86:127|18:172,1,220.999989883423
239,284,227351,1,0,0:0:0:0:
388,133,227496,2,0,P|412:74|402:19,1,110.499994941712
254,127,227784,1,0,0:0:0:0:
381,264,227928,2,0,L|496:245,1,110.499994941712
355,350,228217,5,0,0:0:0:0:
226,221,228361,1,0,0:0:0:0:
373,155,228505,1,0,0:0:0:0:
262,349,228649,2,0,L|143:339,1,110.499994941712
17,207,228938,1,0,0:0:0:0:
138,324,229082,1,0,0:0:0:0:
101,113,229226,6,0,P|148:99|209:119,1,110.499994941712
334,208,229515,1,0,0:0:0:0:
272,30,229659,1,0,0:0:0:0:
151,188,229803,1,0,0:0:0:0:
372,105,229947,1,0,0:0:0:0:
150,20,230092,1,0,0:0:0:0:
242,221,230236,2,0,L|230:333,1,110.499994941712
140,165,230524,5,0,0:0:0:0:
342,137,230669,2,0,L|331:253,1,110.499994941712
97,333,230957,2,0,P|168:304|235:319,1,110.499994941712
236,191,231246,1,0,0:0:0:0:
337,341,231390,1,0,0:0:0:0:
273,97,231534,6,0,B|218:88|218:88|120:111|120:111|43:95,1,220.999989883423
315,16,231967,2,0,P|356:61|356:133,1,110.499994941712
320,333,232255,2,0,P|281:294|272:240,1,110.499994941712
433,153,232544,1,0,0:0:0:0:
471,282,232688,1,0,0:0:0:0:
276,156,232832,6,0,L|150:170,1,110.499994941712
49,327,233121,2,0,L|175:341,1,110.499994941712
379,158,233409,2,0,P|356:221|371:272,1,110.499994941712
512,143,233697,1,0,0:0:0:0:
373,43,233842,1,0,0:0:0:0:
339,275,233986,6,0,P|399:270|460:261,1,110.499994941712
294,75,234274,2,0,P|234:80|173:89,1,110.499994941712
345,320,234563,2,0,P|400:315|454:307,1,110.499994941712
283,35,234851,2,0,P|227:39|173:47,1,110.499994941712
217,361,235140,6,0,P|236:294|238:241,1,110.499994941712
386,17,235428,2,0,P|390:71|407:124,1,110.499994941712
488,250,235717,1,0,0:0:0:0:
302,138,235861,1,0,0:0:0:0:
137,266,236005,1,0,0:0:0:0:
302,138,236149,6,0,B|190:104|227:188|77:149,1,187.000005706787
88,0,236582,2,0,P|136:35|147:88,1,101.999996887207
67,239,236871,1,0,0:0:0:0:
28,112,237015,1,0,0:0:0:0:
176,239,237159,6,0,L|159:359,1,93.5000028533936
71,207,237447,1,0,0:0:0:0:
246,340,237592,6,0,P|294:317|346:321,1,93.5000028533936
499,230,237880,2,0,P|452:228|411:207,1,93.5000028533936
262,238,238169,1,0,0:0:0:0:
369,113,238313,1,0,0:0:0:0:
202,20,238457,6,0,P|166:65|168:126,1,93.5000028533936
283,211,238746,1,0,0:0:0:0:
248,90,238890,1,0,0:0:0:0:
186,285,239034,6,0,L|78:271,1,93.5000028533936
248,208,239322,1,0,0:0:0:0:
299,322,239467,1,0,0:0:0:0:
35,214,239611,6,0,P|26:160|46:116,1,93.5000028533936
174,26,239899,1,0,0:0:0:0:
216,182,240044,1,0,0:0:0:0:
285,115,240188,6,0,B|350:104|350:104|415:124|415:124|503:112,1,187.000005706787
283,22,240621,1,0,0:0:0:0:
256,218,240765,1,0,0:0:0:0:
256,218,240837,1,0,0:0:0:0:
256,218,240909,6,0,B|156:203|156:203|86:225,1,140.25000428009
26,202,241197,6,0,P|48:156|49:106,1,93.5000028533936
195,7,241486,6,0,P|198:53|219:94,1,93.5000028533936
379,162,241774,1,0,0:0:0:0:
281,36,241919,1,0,0:0:0:0:
146,214,242063,6,0,L|247:206,1,93.5000028533936
377,80,242351,1,0,0:0:0:0:
460,226,242496,1,0,0:0:0:0:
443,18,242640,1,0,0:0:0:0:
385,181,242784,1,0,0:0:0:0:
243,13,242928,1,0,0:0:0:0:
377,80,243072,1,0,0:0:0:0:
125,24,243217,6,0,P|152:79|152:137,1,101.999996887207
21,314,243505,2,0,P|27:267|55:216,1,101.999996887207
251,257,243794,1,0,0:0:0:0:
63,132,243938,1,0,0:0:0:0:
149,324,244082,1,0,0:0:0:0:
258,99,244226,1,0,0:0:0:0:
49,227,244371,1,0,0:0:0:0:
157,31,244515,1,0,0:0:0:0:
274,196,244659,5,0,0:0:0:0:
41,117,244803,1,0,0:0:0:0:
127,299,244947,1,0,0:0:0:0:
238,92,245092,1,0,0:0:0:0:
322,281,245236,1,0,0:0:0:0:
161,169,245380,1,0,0:0:0:0:
353,36,245524,6,0,L|336:145,1,101.999996887207
406,338,245813,1,0,0:0:0:0:
499,160,245957,1,0,0:0:0:0:
268,212,246101,1,0,0:0:0:0:
503,274,246246,1,0,0:0:0:0:
349,103,246390,1,0,0:0:0:0:
291,328,246534,1,0,0:0:0:0:
182,121,246678,1,0,0:0:0:0:
124,315,246822,1,0,0:0:0:0:
301,204,246967,1,0,0:0:0:0:
292,348,247111,5,0,0:0:0:0:
67,201,247255,1,0,0:0:0:0:
285,75,247399,1,0,0:0:0:0:
67,201,247544,1,0,0:0:0:0:
285,75,247688,1,0,0:0:0:0:
85,20,247832,6,0,P|103:85|103:134,1,110.499994941712
0,22,248121,1,0,0:0:0:0:
170,175,248265,2,0,P|219:161|289:160,1,110.499994941712
133,277,248553,1,0,0:0:0:0:
338,107,248697,6,0,P|325:56|335:-1,1,110.499994941712
432,180,248986,1,0,0:0:0:0:
224,14,249130,6,0,L|112:28,1,110.499994941712
240,119,249419,1,0,0:0:0:0:
453,1,249563,6,0,P|423:53|422:102,1,110.499994941712
335,342,249851,6,0,P|328:296|288:242,1,110.499994941712
25,222,250140,2,0,L|137:201,1,110.499994941712
225,52,250428,2,0,L|240:127,1,55.2499974708558
371,185,250572,1,0,0:0:0:0:
400,155,250644,1,0,0:0:0:0:
417,116,250716,1,0,0:0:0:0:
419,75,250788,1,0,0:0:0:0:
406,35,250860,1,0,0:0:0:0:
437,15,250933,1,0,0:0:0:0:
476,30,251005,1,0,0:0:0:0:
504,61,251077,1,0,0:0:0:0:
512,100,251149,1,0,0:0:0:0:
512,142,251221,1,0,0:0:0:0:
497,176,251294,6,0,L|509:245,1,55.2499974708558
356,318,251438,1,0,0:0:0:0:
356,318,251510,1,0,0:0:0:0:
356,318,251582,6,0,L|366:258,1,55.2499974708558
252,133,251726,1,0,0:0:0:0:
252,133,251798,1,0,0:0:0:0:
252,133,251870,6,0,L|260:189,1,55.2499974708558
177,356,252015,1,0,0:0:0:0:
177,356,252087,1,0,0:0:0:0:
177,356,252159,6,0,L|190:297,1,55.2499974708558
93,226,252303,2,0,L|113:300,1,55.2499974708558
255,102,252447,5,0,0:0:0:0:
486,227,252880,1,0,0:0:0:0:
486,227,252952,1,0,0:0:0:0:
486,227,253024,1,0,0:0:0:0:
420,153,253169,1,0,0:0:0:0:
386,288,253313,1,0,0:0:0:0:
347,76,253457,6,0,B|288:63|288:63|216:76|216:76|143:63,1,203.999993774414
265,243,253890,2,0,P|301:193|298:136,1,101.999996887207
42,64,254178,5,0,0:0:0:0:
44,89,254250,1,0,0:0:0:0:
45,114,254322,1,0,0:0:0:0:
47,139,254395,1,0,0:0:0:0:
32,159,254467,1,0,0:0:0:0:
35,179,254539,1,0,0:0:0:0:
37,208,254611,1,0,0:0:0:0:
39,228,254683,1,0,0:0:0:0:
29,256,254755,5,0,0:0:0:0:
253,359,255188,1,0,0:0:0:0:
253,359,255260,1,0,0:0:0:0:
253,359,255332,1,0,0:0:0:0:
187,275,255476,1,0,0:0:0:0:
90,375,255621,1,0,0:0:0:0:
256,223,255765,6,0,B|302:242|302:242|360:231,1,101.999996887207
412,100,256053,1,0,0:0:0:0:
184,171,256197,2,0,B|164:207|164:207|183:275,1,101.999996887207
336,154,256486,1,0,0:0:0:0:
136,79,256630,1,0,0:0:0:0:
359,28,256774,6,0,L|461:14,1,101.999996887207
258,223,257063,1,0,0:0:0:0:
171,32,257496,5,0,0:0:0:0:
171,32,257568,1,0,0:0:0:0:
171,32,257640,1,0,0:0:0:0:
135,117,257784,1,0,0:0:0:0:
294,33,257928,6,0,L|309:106,2,50.9999984436036
308,191,258217,6,0,P|264:175|217:177,1,89.2499972763062
122,299,258397,6,0,P|166:299|207:283,1,89.2499972763062
108,179,258577,6,0,P|63:178|22:194,1,89.2499972763062
156,97,258794,6,0,P|140:24|141:9,1,89.2499972763062
265,101,258974,6,0,P|263:145|249:187,1,89.2499972763062
375,91,259154,6,0,P|376:46|390:4,1,89.2499972763062
489,192,259371,5,0,0:0:0:0:
319,347,259803,1,0,0:0:0:0:
319,347,259875,1,0,0:0:0:0:
319,347,259947,1,0,0:0:0:0:
440,324,260092,1,0,0:0:0:0:
292,233,260236,1,0,0:0:0:0:
123,337,260380,5,0,0:0:0:0:
123,337,260669,1,0,0:0:0:0:
273,240,260813,1,0,0:0:0:0:
120,166,260957,1,0,0:0:0:0:
125,361,261101,1,0,0:0:0:0:
298,240,261246,1,0,0:0:0:0:
121,138,261390,1,0,0:0:0:0:
296,332,261534,5,0,0:0:0:0:
296,332,261822,1,0,0:0:0:0:
450,174,261967,1,0,0:0:0:0:
240,120,262111,1,0,0:0:0:0:
303,352,262255,5,0,0:0:0:0:
476,155,262399,1,0,0:0:0:0:
230,90,262544,1,0,0:0:0:0:
437,315,262688,5,0,0:0:0:0:
437,315,262976,1,0,0:0:0:0:
292,168,263121,1,0,0:0:0:0:
218,358,263265,1,0,0:0:0:0:
437,228,263409,1,0,0:0:0:0:
160,163,263553,1,0,0:0:0:0:
391,27,263697,6,0,L|381:147,1,101.999996887207
429,358,263986,1,0,0:0:0:0:
429,358,264058,2,0,P|388:337|319:326,1,101.999996887207
231,267,264274,2,0,P|296:240|327:206,1,101.999996887207
243,74,264491,2,0,P|233:139|240:186,1,101.999996887207
139,302,264707,2,0,P|142:251|133:201,1,101.999996887207
21,47,264996,1,0,0:0:0:0:
256,192,265068,12,0,266005,0:0:0:0:
