osu file format v14

[General]
AudioFilename: audio.mp3
AudioLeadIn: 0
PreviewTime: 79159
Countdown: 0
SampleSet: Soft
StackLeniency: 0.4
Mode: 0
LetterboxInBreaks: 0
WidescreenStoryboard: 0

[Editor]
DistanceSpacing: 1
BeatDivisor: 4
GridSize: 32
TimelineZoom: 2.699999

[Metadata]
Title:Ohitoyoshi Chameleon.
TitleUnicode:お人好しカメレオン.
Artist:UNISON SQUARE GARDEN
ArtistUnicode:UNISON SQUARE GARDEN
Creator:Glaceon
Version:Blossom
Source:
Tags:cider road
BeatmapID:2333768
BeatmapSetID:1117206

[Difficulty]
HPDrainRate:5
CircleSize:4
OverallDifficulty:8
ApproachRate:9.3
SliderMultiplier:2
SliderTickRate:1

[Events]
//Background and Video events
0,0,"succ.png",0,0
//Break Periods
//Storyboard Layer 0 (Background)
//Storyboard Layer 1 (Fail)
//Storyboard Layer 2 (Pass)
//Storyboard Layer 3 (Foreground)
//Storyboard Layer 4 (Overlay)
//Storyboard Sound Samples

[TimingPoints]
25676,491.803278688525,4,2,0,70,1,0
27643,-200,4,2,0,40,0,0
43626,-76.9230769230769,4,2,0,70,0,0
61085,-100,4,2,0,70,0,0
72889,-90.9090909090909,4,2,0,70,0,0
79774,491.803278688525,4,2,0,70,1,0
79774,-62.5,4,2,0,70,0,1
95265,-62.5,4,2,0,70,0,0
95511,-62.5,4,2,0,70,0,1
111249,-125,4,2,0,70,0,1
116167,-62.5,4,2,0,70,0,1
117151,-62.5,4,2,0,70,0,0

[HitObjects]
85,93,27643,6,0,L|93:215,1,100
105,65,28626,6,0,L|113:187,1,100
177,247,29364,2,0,L|180:287,1,25
266,327,29610,6,0,P|302:349|411:253,2,200
236,69,33544,6,0,B|191:44|123:62|142:70|80:93|28:60,2,200
236,69,36495,2,0,P|268:56|317:53,1,75
384,59,36987,1,0,0:0:0:0:
486,274,37479,5,0,0:0:0:0:
94,187,38462,5,0,0:0:0:0:
487,74,39446,5,0,0:0:0:0:
245,362,40430,5,0,0:0:0:0:
111,44,41413,5,0,0:0:0:0:
111,44,43380,1,0,0:0:0:0:
44,224,43626,5,0,0:0:0:0:
198,154,43872,2,0,L|102:146,1,64.9999970245363
248,223,44118,1,0,0:0:0:0:
280,145,44241,1,0,0:0:0:0:
198,154,44364,6,0,P|159:204|168:267,1,129.999994049073
229,326,44733,1,0,0:0:0:0:
312,311,44856,2,0,L|406:307,1,64.9999970245363
484,164,45102,1,0,0:0:0:0:
454,159,45225,1,0,0:0:0:0:
423,153,45348,6,0,P|363:188|268:122,1,194.999991073609
352,22,45839,2,0,L|358:115,1,64.9999970245363
176,122,46085,2,0,L|180:57,1,64.9999970245363
232,209,46331,6,0,B|191:237|191:237|87:206,1,129.999994049073
9,139,46700,2,0,P|32:182|33:211,1,64.9999970245363
34,384,46946,2,0,P|40:352|130:301,1,129.999994049073
326,349,47315,6,0,B|268:365|197:336|197:336|224:305|263:306,1,194.999991073609
404,246,47807,2,0,P|442:215|437:114,1,129.999994049073
404,66,48176,1,0,0:0:0:0:
321,83,48298,2,0,L|316:168,1,64.9999970245363
489,64,48544,2,0,L|485:0,1,64.9999970245363
284,32,48790,2,0,P|313:78|335:87,1,64.9999970245363
508,144,49036,1,0,0:0:0:0:
505,175,49159,1,0,0:0:0:0:
502,205,49282,6,0,B|455:186|401:196|413:209|359:226|294:193,1,194.999991073609
205,113,49774,2,0,L|118:107,1,64.9999970245363
123,297,50020,1,0,0:0:0:0:
181,235,50143,1,0,0:0:0:0:
97,220,50266,2,0,P|48:265|55:343,1,129.999994049073
110,380,50635,1,0,0:0:0:0:
192,355,50757,1,0,0:0:0:0:
192,355,50880,2,0,L|263:353,1,64.9999970245363
381,364,51126,1,0,0:0:0:0:
428,293,51249,6,0,P|442:255|434:207,1,64.9999970245363
287,200,51495,2,0,P|312:231|358:248,1,64.9999970245363
263,100,51741,2,0,P|223:106|190:203,1,129.999994049073
222,255,52110,1,0,0:0:0:0:
222,255,52233,6,0,L|214:339,1,64.9999970245363
75,364,52479,2,0,L|68:299,1,64.9999970245363
17,141,52725,1,0,0:0:0:0:
75,80,52848,2,0,B|154:74|116:115|209:101,1,129.999994049073
384,167,53216,6,0,P|319:139|349:21,1,194.999991073609
468,139,53708,1,0,0:0:0:0:
458,222,53831,2,0,L|452:298,1,64.9999970245363
297,361,54077,1,0,0:0:0:0:
224,317,54200,6,0,P|254:283|291:278,1,64.9999970245363
458,368,54446,2,0,P|413:359|390:329,1,64.9999970245363
310,181,54692,1,0,0:0:0:0:
249,122,54815,2,0,B|211:95|211:95|116:118,1,129.999994049073
27,291,55184,6,0,B|66:285|98:297|98:297|117:331|117:331|156:348|215:334,1,194.999991073609
366,245,55676,1,0,0:0:0:0:
302,299,55798,2,0,P|282:342|287:386,1,64.9999970245363
450,272,56044,1,0,0:0:0:0:
429,190,56167,6,0,P|401:151|361:133,1,64.9999970245363
220,222,56413,2,0,L|316:218,1,64.9999970245363
449,75,56659,1,0,0:0:0:0:
373,37,56782,2,0,P|325:20|248:68,1,129.999994049073
121,220,57151,6,0,L|108:17,1,194.999991073609
325,110,57643,1,0,0:0:0:0:
325,110,57766,2,0,L|322:192,1,64.9999970245363
257,310,58012,1,0,0:0:0:0:
330,268,58135,6,0,P|365:247|410:247,1,64.9999970245363
444,378,58380,2,0,P|408:358|385:319,1,64.9999970245363
440,173,58626,1,0,0:0:0:0:
495,243,58749,1,0,0:0:0:0:
495,243,58872,2,0,L|502:326,1,64.9999970245363
251,374,59118,6,0,L|256:309,1,64.9999970245363
348,189,59364,2,0,L|353:253,1,64.9999970245363
159,365,59610,2,0,P|117:331|128:240,1,129.999994049073
127,175,59979,1,0,0:0:0:0:
203,137,60102,5,0,0:0:0:0:
273,182,60225,2,0,L|357:186,1,64.9999970245363
415,150,60471,1,0,0:0:0:0:
432,67,60594,1,0,0:0:0:0:
367,13,60716,1,0,0:0:0:0:
290,44,60839,1,0,0:0:0:0:
290,44,60962,1,0,0:0:0:0:
290,44,61085,6,0,L|188:50,1,100
26,173,61577,2,0,L|128:179,1,100
229,284,62069,2,0,P|262:265|283:193,1,100
102,296,62561,2,0,P|101:334|153:388,1,100
217,383,62930,1,0,0:0:0:0:
217,383,63053,6,0,L|330:375,1,100
466,284,63544,2,0,L|353:276,1,100
202,98,64036,1,0,0:0:0:0:
420,182,64282,1,0,0:0:0:0:
72,272,64528,1,0,0:0:0:0:
308,96,64774,2,0,L|304:161,1,50
230,293,65020,6,0,L|221:171,1,100
54,65,65512,2,0,L|46:164,1,100
255,317,66003,2,0,L|246:195,1,100
79,89,66495,2,0,L|71:188,1,100
391,106,66987,6,0,P|350:65|287:58,1,100
407,259,67479,2,0,P|463:243|500:192,1,100
225,90,67971,1,0,0:0:0:0:
323,322,68216,1,0,0:0:0:0:
482,39,68462,1,0,0:0:0:0:
482,39,68585,2,0,L|377:35,1,100
324,93,68954,6,0,L|219:89,1,100
83,175,69446,2,0,P|43:218|40:270,1,100
290,355,69938,2,0,P|272:298|229:270,1,100
32,359,70430,2,0,L|146:351,1,100
292,189,70921,6,0,L|178:181,1,100
39,49,71413,2,0,L|153:41,1,100
356,206,71905,1,0,0:0:0:0:
112,142,72151,1,0,0:0:0:0:
415,33,72397,1,0,0:0:0:0:
250,215,72643,2,0,L|245:146,1,50
448,238,72889,6,0,P|424:282|358:302,1,110.000003356934
165,210,73380,2,0,P|215:208|265:255,1,110.000003356934
289,316,73749,1,0,0:0:0:0:
229,364,73872,6,0,L|107:357,1,110.000003356934
54,314,74241,1,0,0:0:0:0:
66,238,74364,2,0,P|45:201|46:171,1,55.0000016784668
174,140,74610,2,0,P|152:176|125:190,1,55.0000016784668
106,51,74856,6,0,P|138:25|217:31,1,110.000003356934
267,69,75225,2,0,L|260:139,1,55.0000016784668
294,241,75471,2,0,P|326:267|405:261,1,110.000003356934
505,55,75839,6,0,B|418:45|444:85|342:73,1,165.000005035401
188,10,76331,1,0,0:0:0:0:
131,62,76454,2,0,P|102:95|109:170,1,110.000003356934
509,37,76823,6,0,B|422:27|448:67|346:55,1,165.000005035401
168,7,77315,1,0,0:0:0:0:
111,59,77438,2,0,P|82:92|89:167,1,110.000003356934
512,18,77807,6,0,B|425:8|451:48|349:36,1,165.000005035401
146,4,78299,1,0,0:0:0:0:
89,56,78422,2,0,P|60:89|67:164,1,110.000003356934
172,280,78790,6,0,L|183:209,1,55.0000016784668
359,129,79036,2,0,L|367:183,1,55.0000016784668
250,304,79282,5,0,0:0:0:0:
251,294,79363,5,0,0:0:0:0:
252,285,79445,5,0,0:0:0:0:
253,276,79527,5,0,0:0:0:0:
254,267,79609,5,0,0:0:0:0:
255,258,79691,5,0,0:0:0:0:
257,249,79773,5,0,0:0:0:0:
268,154,79896,1,0,0:0:0:0:
359,129,80019,1,0,0:0:0:0:
429,195,80142,1,0,0:0:0:0:
414,289,80265,1,0,0:0:0:0:
322,315,80388,2,0,L|233:322,1,80
76,245,80634,1,0,0:0:0:0:
153,188,80757,6,0,P|173:233|167:276,1,80
44,119,81003,2,0,P|44:79|62:44,1,80
306,112,81249,2,0,L|120:101,1,160
146,102,81741,6,0,L|155:185,1,80
328,294,81987,2,0,L|336:214,1,80
69,249,82233,2,0,P|98:292|209:279,1,160
306,112,82601,1,0,0:0:0:0:
372,181,82724,6,0,L|364:273,1,80
223,85,82970,2,0,P|254:39|298:27,1,80
238,183,83216,2,0,P|182:179|150:147,1,80
100,7,83462,2,0,P|124:56|112:100,1,80
38,229,83708,5,0,0:0:0:0:
103,299,83831,2,0,B|197:283|156:334|292:315,1,160
402,243,84200,2,0,L|413:139,1,80
225,65,84446,2,0,L|233:144,1,80
493,117,84692,6,0,P|457:77|421:69,1,80
222,228,84937,2,0,P|274:216|299:189,1,80
107,20,85183,2,0,B|61:51|61:51|78:168,1,160
76,154,85675,5,0,0:0:0:0:
26,236,85798,2,0,L|35:334,1,80
190,384,86044,2,0,L|197:304,1,80
312,163,86290,2,0,P|347:121|459:141,1,160
485,344,86659,5,0,0:0:0:0:
401,295,86782,1,0,0:0:0:0:
393,199,86905,1,0,0:0:0:0:
393,199,87151,2,0,P|430:221|494:213,1,80
311,50,87396,1,0,0:0:0:0:
223,90,87519,1,0,0:0:0:0:
229,185,87642,5,0,0:0:0:0:
308,239,87765,1,0,0:0:0:0:
302,334,87888,1,0,0:0:0:0:
212,368,88011,1,0,0:0:0:0:
135,310,88134,1,0,0:0:0:0:
136,213,88257,2,0,L|134:118,1,80
282,24,88503,1,0,0:0:0:0:
362,75,88626,6,0,P|403:105|416:156,1,80
437,298,88872,2,0,P|442:247|480:210,1,80
508,384,89118,2,0,L|331:367,1,160
348,368,89610,6,0,B|252:351|298:398|160:367,2,160
348,368,90347,1,0,0:0:0:0:
409,294,90470,1,0,0:0:0:0:
360,210,90593,2,0,P|313:187|269:193,1,80
160,296,90839,2,0,P|203:266|220:225,1,80
261,66,91085,2,0,L|174:56,1,80
50,228,91331,2,0,L|137:218,1,80
352,73,91577,6,0,P|397:101|384:212,1,160
396,199,92069,2,0,P|351:227|364:338,1,160
432,375,92437,1,0,0:0:0:0:
510,320,92560,6,0,L|502:218,1,80
458,110,92806,2,0,P|410:90|371:97,1,80
237,217,93052,1,0,0:0:0:0:
318,166,93175,1,0,0:0:0:0:
286,75,93298,2,0,L|184:81,1,80
65,200,93544,6,0,L|167:206,1,80
142,2,93790,2,0,P|110:26|97:75,1,80
181,296,94036,2,0,B|243:299|243:299|259:320|259:320|346:326,1,160
329,325,94528,5,0,0:0:0:0:
404,266,94651,1,0,0:0:0:0:
369,176,94774,1,0,0:0:0:0:
273,182,94896,1,0,0:0:0:0:
223,99,95019,1,0,0:0:0:0:
231,69,95142,1,0,0:0:0:0:
239,41,95265,1,0,0:0:0:0:
239,41,95511,5,0,0:0:0:0:
334,36,95634,1,0,0:0:0:0:
388,115,95757,1,0,0:0:0:0:
340,198,95880,1,0,0:0:0:0:
244,204,96003,1,0,0:0:0:0:
192,123,96126,2,0,L|91:119,1,80
18,324,96372,1,0,0:0:0:0:
100,275,96495,6,0,P|136:240|141:197,1,80
38,46,96741,1,0,0:0:0:0:
38,46,96987,1,0,0:0:0:0:
123,2,97110,1,0,0:0:0:0:
196,63,97233,2,0,L|296:56,1,80
359,210,97478,6,0,L|259:203,1,80
449,119,97724,2,0,P|486:150|493:215,1,80
386,332,97970,2,0,B|297:321|326:370|220:350,1,160
81,192,98339,1,0,0:0:0:0:
23,268,98462,6,0,L|15:365,1,80
171,200,98708,2,0,L|164:120,1,80
8,22,98954,2,0,L|1:101,1,80
243,81,99200,2,0,P|209:42|159:37,1,80
0,180,99446,5,0,0:0:0:0:
23,268,99569,2,0,P|60:327|156:330,1,160
283,222,99937,2,0,L|295:325,1,80
439,370,100183,2,0,L|448:290,1,80
331,76,100429,6,0,L|343:179,1,80
487,224,100675,2,0,L|496:144,1,80
243,30,100921,2,0,L|259:212,1,160
257,189,101413,5,0,0:0:0:0:
171,145,101536,2,0,P|126:120|72:129,1,80
43,283,101782,2,0,P|87:256|106:205,1,80
83,19,102028,2,0,L|263:31,1,160
336,11,102396,5,0,0:0:0:0:
389,91,102519,1,0,0:0:0:0:
333,169,102642,1,0,0:0:0:0:
333,169,102888,2,0,L|323:284,1,80
259,319,103134,1,0,0:0:0:0:
163,307,103257,1,0,0:0:0:0:
136,214,103380,5,0,0:0:0:0:
206,148,103503,1,0,0:0:0:0:
188,53,103626,1,0,0:0:0:0:
94,30,103749,1,0,0:0:0:0:
23,95,103872,1,0,0:0:0:0:
39,189,103995,1,0,0:0:0:0:
136,214,104118,1,0,0:0:0:0:
163,307,104241,1,0,0:0:0:0:
97,377,104364,6,0,L|6:369,1,80
231,236,104610,2,0,P|265:273|267:319,1,80
117,117,104855,2,0,B|225:105|169:151|298:140,1,160
363,104,105224,1,0,0:0:0:0:
363,104,105347,6,0,P|413:150|394:247,2,160
363,104,106085,1,0,0:0:0:0:
282,50,106208,1,0,0:0:0:0:
204,107,106331,6,0,L|192:201,1,80
305,322,106577,2,0,L|294:242,1,80
81,208,106823,2,0,P|95:259|128:283,1,80
305,322,107069,2,0,P|253:308|216:325,1,80
404,383,107314,6,0,B|409:349|428:325|428:325|383:284|388:219,1,160
387,240,107806,2,0,B|382:206|363:182|363:182|408:141|403:76,1,160
353,14,108175,1,0,0:0:0:0:
259,37,108298,6,0,L|246:139,1,80
114,254,108544,2,0,L|103:174,1,80
308,237,108790,2,0,P|273:260|225:260,1,80
81,82,109036,1,0,0:0:0:0:
173,108,109159,1,0,0:0:0:0:
103,174,109282,5,0,0:0:0:0:
81,82,109405,1,0,0:0:0:0:
149,14,109528,2,0,L|248:25,1,80
387,228,109774,2,0,L|288:239,1,80
452,158,110019,1,0,0:0:0:0:
489,246,110142,1,0,0:0:0:0:
422,315,110265,5,0,0:0:0:0:
409,327,110346,5,0,0:0:0:0:
395,338,110428,5,0,0:0:0:0:
379,346,110510,5,0,0:0:0:0:
362,352,110592,5,0,0:0:0:0:
345,354,110674,5,0,0:0:0:0:
327,353,110756,5,0,0:0:0:0:
310,350,110838,5,0,0:0:0:0:
293,344,110921,6,0,L|214:338,3,53.3333333333333
207,352,111249,6,0,P|153:372|190:243,1,280
313,265,112233,6,0,P|367:285|330:156,1,280
158,137,113216,6,0,P|210:172|322:32,1,280
72,97,114200,6,0,P|114:218|240:192,1,280
46,4,115183,6,0,L|34:190,1,160
35,163,116167,1,0,0:0:0:0:
125,195,116290,1,0,0:0:0:0:
125,195,116536,1,0,0:0:0:0:
215,163,116659,1,0,0:0:0:0:
279,234,116782,1,0,0:0:0:0:
244,323,116905,2,0,L|128:326,1,80
314,143,117151,6,0,P|358:169|378:210,1,80
349,363,117396,2,0,P|349:311|375:274,1,80
451,127,117642,2,0,P|418:159|302:127,1,160
261,81,118011,1,0,0:0:0:0:
188,114,118134,6,0,L|199:223,1,80
275,353,118380,2,0,L|283:273,1,80
368,86,118626,2,0,L|376:165,1,80
508,323,118872,1,0,0:0:0:0:
444,372,118995,1,0,0:0:0:0:
380,323,119118,6,0,P|358:272|362:234,1,80
501,162,119364,2,0,P|467:206|432:222,1,80
283,86,119610,2,0,B|185:71|220:118|120:103,1,160
61,57,119978,1,0,0:0:0:0:
119,2,120101,6,0,P|139:48|126:104,1,80
14,205,120347,2,0,P|43:164|98:147,1,80
229,237,120593,2,0,L|135:226,1,80
279,173,120839,1,0,0:0:0:0:
316,243,120962,1,0,0:0:0:0:
269,307,121085,6,0,P|318:325|393:237,1,160
392,261,121577,2,0,L|381:89,1,160
330,38,121946,1,0,0:0:0:0:
255,67,122069,2,0,P|208:82|169:74,1,80
29,15,122314,2,0,P|65:48|78:85,1,80
54,279,122560,1,0,0:0:0:0:
54,279,122806,1,0,0:0:0:0:
15,208,122929,1,0,0:0:0:0:
74,153,123052,6,0,L|159:148,1,80
214,305,123298,2,0,L|129:300,1,80
245,169,123544,2,0,L|413:158,1,160
466,107,123913,1,0,0:0:0:0:
451,28,124036,5,0,0:0:0:0:
373,9,124159,1,0,0:0:0:0:
322,71,124282,1,0,0:0:0:0:
322,71,124528,2,0,L|330:172,1,80
296,324,124774,1,0,0:0:0:0:
205,355,124896,1,0,0:0:0:0:
141,282,125019,6,0,P|123:238|132:193,1,80
233,60,125265,2,0,P|203:97|160:112,1,80
29,29,125511,2,0,L|19:205,1,160
57,260,125880,1,0,0:0:0:0:
134,240,126003,6,0,P|178:219|225:221,1,80
346,297,126249,2,0,L|334:188,1,80
237,35,126495,2,0,L|228:114,1,80
142,319,126741,2,0,L|130:210,1,80
345,132,126987,5,0,0:0:0:0:
423,106,127110,1,0,0:0:0:0:
462,175,127233,1,0,0:0:0:0:
419,241,127355,1,0,0:0:0:0:
337,217,127478,2,0,B|246:202|273:248|170:228,1,160
116,180,127847,1,0,0:0:0:0:
46,219,127970,6,0,P|17:266|20:302,1,80
170,384,128216,2,0,L|159:288,1,80
244,108,128462,2,0,P|268:66|384:56,1,160
442,85,128831,1,0,0:0:0:0:
427,163,128954,6,0,L|419:336,1,160
419,322,129446,2,0,B|371:347|371:347|255:314,1,160
218,256,129814,1,0,0:0:0:0:
140,277,129937,6,0,P|142:217|255:182,1,186.666666666667
343,225,130388,2,0,L|460:234,2,106.666666666667
190,79,130921,5,0,0:0:0:0:
