osu file format v14

[General]
AudioFilename: audio.mp3
AudioLeadIn: 0
PreviewTime: -1
Countdown: 0
SampleSet: Soft
StackLeniency: 0.7
Mode: 0
LetterboxInBreaks: 0
WidescreenStoryboard: 0

[Editor]
DistanceSpacing: 1.1
BeatDivisor: 4
GridSize: 32
TimelineZoom: 1.9

[Metadata]
Title:Haru ga Kite Bokura
TitleUnicode:春が来てぼくら
Artist:UNISON SQUARE GARDEN
ArtistUnicode:UNISON SQUARE GARDEN
Creator:Seguri
Version:Insane
Source:3月のライオン
Tags:3-Gatsu no lion Sangatsu
BeatmapID:1618863
BeatmapSetID:769958

[Difficulty]
HPDrainRate:7
CircleSize:4
OverallDifficulty:8
ApproachRate:9.5
SliderMultiplier:0.999999999999999
SliderTickRate:1

[Events]
//Background and Video events
0,0,"tumblr_oeqzajS6s81un96evo1_1280.png",0,0
//Break Periods
//Storyboard Layer 0 (Background)
//Storyboard Layer 1 (Fail)
//Storyboard Layer 2 (Pass)
//Storyboard Layer 3 (Foreground)
//Storyboard Sound Samples

[TimingPoints]
2940,227.272727272727,4,2,0,100,1,0
2940,-133.333333333333,4,2,0,100,0,0
8394,-133.333333333333,4,2,0,100,0,0
16349,-125,4,2,0,100,0,0
38394,-200,4,2,0,100,0,0
39530,-100,4,2,0,100,0,0
51803,-58.8235294117647,4,2,0,100,0,0
55439,-50,4,2,0,100,0,0
55671,227.272727272727,4,2,0,100,1,1
70216,-100,4,2,0,100,0,0
85556,-200,4,2,0,100,0,0

[HitObjects]
256,192,1121,12,0,2712,0:0:0:0:
86,166,2939,6,0,L|204:164,1,99.9999999999999
231,246,3280,2,0,L|282:236,1,37.5000014305115
321,164,3508,1,0,0:0:0:0:
377,238,3621,2,0,L|459:199,1,75.000002861023
332,60,3962,2,0,L|291:64,1,37.5000014305115
260,144,4189,1,0,0:0:0:0:
201,76,4303,2,0,L|134:123,2,75.000002861023
303,65,4871,2,0,L|340:72,1,37.5000014305115
252,135,5099,1,0,0:0:0:0:
201,65,5212,6,0,L|117:87,1,75.000002861023
98,173,5553,2,0,L|120:219,2,37.5000014305115
68,79,5894,1,0,0:0:0:0:
155,75,6008,1,0,0:0:0:0:
244,97,6121,2,0,L|319:137,1,75.000002861023
391,176,6462,1,0,0:0:0:0:
361,280,6576,1,0,0:0:0:0:
274,280,6803,2,0,L|195:282,1,74.9999999999999
336,339,7258,2,0,L|415:337,1,74.9999999999999
415,336,7712,1,0,0:0:0:0:
80,106,8394,6,0,L|126:171,1,74.9999999999999
250,107,8849,2,0,P|252:158|258:189,1,75.000002861023
212,214,9189,1,0,0:0:0:0:
174,258,9303,2,0,L|251:302,1,75.000002861023
269,307,9644,1,0,0:0:0:0:
302,313,9758,1,0,0:0:0:0:
428,220,9985,6,0,L|426:135,1,75.000002861023,0|0,0:3|0:3,0:3:0:0:
427,115,10326,1,0,0:0:0:0:
425,70,10439,1,0,0:0:0:0:
341,78,10667,2,0,P|298:113|294:134,1,75.000002861023
269,207,11121,1,0,0:0:0:0:
208,271,11349,6,0,B|156:302|156:302|138:280,1,75.000002861023
107,218,11803,1,0,0:0:0:0:
85,138,12030,2,0,P|66:90|47:67,1,75.000002861023
174,33,12485,2,0,P|230:33|258:52,1,75.000002861023
379,165,12939,6,0,L|336:239,1,75.000002861023
422,195,13280,1,0,0:0:0:0:
457,240,13394,2,0,L|466:279,1,37.5000014305115
441,325,13621,6,0,P|417:347|368:341,1,74.9999999999999
328,336,14076,1,0,0:0:0:0:
200,263,14303,1,0,0:0:0:0:
243,186,14530,1,0,0:0:0:0:
198,107,14758,1,0,0:0:0:0:
306,49,14985,1,0,0:0:0:0:
306,49,15099,1,0,0:0:0:0:
306,49,15212,2,0,L|392:48,1,75.000002861023
425,117,15667,1,0,0:0:0:0:
425,117,15894,6,0,P|447:155|449:160,1,37.5000014305115
465,239,16121,1,0,0:0:0:0:
383,283,16349,2,0,L|298:297,1,80
270,254,16689,1,0,0:0:0:0:
249,210,16803,2,0,L|340:203,1,80
424,195,17258,5,0,0:0:0:0:
424,195,17485,1,0,0:0:0:0:
431,99,17712,2,0,L|351:81,1,80
327,127,18053,1,0,0:0:0:0:
302,170,18167,2,0,L|395:188,1,80
380,185,18621,1,0,0:0:0:0:
469,193,18849,2,0,P|468:244|450:267,1,79.9999999999999
451,265,19189,1,0,0:0:0:0:
451,265,19303,1,0,0:0:0:0:
326,277,19530,6,0,L|314:188,1,80
267,195,19871,1,0,0:0:0:0:
219,190,19985,2,0,L|212:284,1,80
162,273,20326,1,0,0:0:0:0:
117,272,20439,2,0,L|105:183,1,80
60,189,20780,1,0,0:0:0:0:
10,185,20894,2,0,L|3:279,1,80
20,75,21349,1,0,0:0:0:0:
118,74,21576,1,0,0:0:0:0:
73,145,21803,6,0,P|128:159|153:143,1,80
216,97,22258,2,0,L|266:168,1,79.9999999999999
287,198,22599,1,0,0:0:0:0:
313,233,22712,1,0,0:0:0:0:
337,270,22826,2,0,L|379:261,1,40
211,290,23167,6,0,L|131:301,1,80
163,177,23621,1,0,0:0:0:0:
163,177,23849,1,0,0:0:0:0:
280,154,24076,6,0,L|360:143,1,80
381,188,24417,1,0,0:0:0:0:
404,231,24530,2,0,L|312:243,1,79.9999999999999
231,242,24985,1,0,0:0:0:0:
137,209,25212,2,0,P|119:194|100:166,1,40
108,181,25439,1,0,0:0:0:0:
45,93,25667,1,0,0:0:0:0:
164,88,25894,6,0,L|247:82,1,80
243,82,26235,1,0,0:0:0:0:
243,82,26349,1,0,0:0:0:0:
338,89,26576,2,0,L|417:55,1,79.9999999999999
403,152,27030,2,0,L|475:195,1,79.9999999999999
404,262,27371,1,0,0:0:0:0:
404,262,27485,2,0,P|416:305|388:346,1,79.9999999999999
311,300,27826,1,0,0:0:0:0:
311,300,27939,2,0,P|256:324|225:324,1,79.9999999999999
137,288,28394,1,0,0:0:0:0:
137,288,28508,1,0,0:0:0:0:
137,288,28621,6,0,L|197:234,1,80
60,219,29076,2,0,L|120:165,1,80
119,165,29530,1,0,0:0:0:0:
226,80,29758,1,0,0:0:0:0:
312,185,29985,1,0,0:0:0:0:
312,185,30212,1,0,0:0:0:0:
391,294,30439,5,0,0:0:0:0:
434,241,30553,1,0,0:0:0:0:
441,173,30667,1,0,0:0:0:0:
430,37,30894,2,0,L|334:57,1,80
215,39,31349,2,0,L|125:61,1,80
137,57,31689,1,0,0:0:0:0:
137,57,31803,1,0,0:0:0:0:
205,175,32030,1,0,0:0:0:0:
339,154,32258,6,0,L|425:135,1,80
457,266,32712,2,0,L|366:288,1,80
379,284,33053,1,0,0:0:0:0:
379,284,33167,1,0,0:0:0:0:
246,311,33394,1,0,0:0:0:0:
110,320,33621,2,0,P|99:278|115:235,1,80
134,180,33962,1,0,0:0:0:0:
163,118,34076,1,0,0:0:0:0:
196,59,34189,1,0,0:0:0:0:
196,59,34303,2,0,L|148:38,1,40
331,57,34530,6,0,P|341:95|329:133,1,80
303,195,34871,1,0,0:0:0:0:
270,254,34985,1,0,0:0:0:0:
241,316,35099,1,0,0:0:0:0:
376,316,35439,1,0,0:0:0:0:
436,193,35667,1,0,0:0:0:0:
407,60,35894,2,0,L|341:115,1,80
345,111,36235,1,0,0:0:0:0:
234,32,36349,2,0,L|166:88,1,80
172,82,36689,1,0,0:0:0:0:
62,162,36803,1,0,0:0:0:0:
157,258,37030,1,0,0:0:0:0:
309,307,37485,5,0,0:0:0:0:
365,250,37712,1,0,0:0:0:0:
386,173,37939,1,0,0:0:0:0:
384,92,38167,1,0,0:0:0:0:
365,14,38394,2,0,L|265:37,1,99.9999999999999
295,70,39076,2,0,L|198:96,1,99.9999999999999
206,129,39758,1,0,0:0:0:0:
130,156,39985,1,0,0:0:0:0:
54,181,40212,1,0,0:0:0:0:
252,45,40894,5,0,0:0:0:0:
286,116,41121,1,0,0:0:0:0:
293,195,41349,1,0,0:0:0:0:
273,272,41576,1,0,0:0:0:0:
233,341,41803,2,0,L|128:355,1,99.9999999999999
274,262,42485,1,0,0:0:0:0:
274,262,42712,1,0,0:0:0:0:
344,224,42939,1,0,0:0:0:0:
389,157,43167,1,0,0:0:0:0:
387,77,43394,1,0,0:0:0:0:
341,11,43621,2,0,L|241:47,1,99.9999999999999
69,63,44530,6,0,L|167:33,1,99.9999999999999
172,68,44985,2,0,L|274:35,1,99.9999999999999
333,24,45439,1,0,0:0:0:0:
296,108,45667,1,0,0:0:0:0:
321,324,46121,2,0,P|373:294|418:291,1,99.9999999999999
411,290,46576,1,0,0:0:0:0:
321,324,46803,2,0,L|365:227,1,99.9999999999999
431,48,47258,2,0,L|324:55,1,99.9999999999999
337,20,47712,2,0,L|235:28,1,99.9999999999999
178,42,48167,5,0,0:0:0:0:
140,55,48280,1,0,0:0:0:0:
101,67,48394,1,0,0:0:0:0:
86,145,48621,1,0,0:0:0:0:
86,145,48849,2,0,L|61:244,1,99.9999999999999
139,256,49303,2,0,L|162:156,1,99.9999999999999
162,162,49644,1,0,0:0:0:0:
284,175,49985,5,0,0:0:0:0:
276,214,50099,1,0,0:0:0:0:
269,253,50212,1,0,0:0:0:0:
330,304,50439,1,0,0:0:0:0:
330,304,50667,2,0,L|355:203,1,99.9999999999999
431,225,51121,2,0,L|407:326,1,99.9999999999999
407,322,51462,1,0,0:0:0:0:
231,310,51803,6,0,L|145:290,1,75.000002861023
88,235,52030,2,0,L|28:180,1,75.000002861023
108,133,52258,2,0,L|176:78,1,75.000002861023
210,164,52485,2,0,P|253:182|280:202,1,75.000002861023
308,114,52712,2,0,P|369:73|374:61,1,75.000002861023
430,139,52939,2,0,P|447:180|476:214,1,75.000002861023
383,243,53167,2,0,P|351:298|321:313,1,75.000002861023
277,247,53394,6,0,P|236:261|212:295,1,75.000002861023
130,255,53621,2,0,P|116:311|129:348,1,75.000002861023
196,375,53849,2,0,P|240:326|243:312,1,75.000002861023
339,319,54076,2,0,P|380:255|403:246,1,75.000002861023
307,188,54303,2,0,P|339:131|339:107,1,75.000002861023
215,126,54530,2,0,P|187:85|200:15,1,85.0000016212463
316,64,54758,2,0,P|345:114|339:176,1,85.0000016212463
226,137,54985,2,0,P|218:186|244:254,1,85.0000016212463
448,263,55212,1,0,0:0:0:0:
448,263,55326,1,0,0:0:0:0:
448,263,55439,6,0,P|376:290|333:288,1,99.9999999999999
375,204,55671,2,0,P|302:179|275:184,1,99.9999999999999
312,260,56011,1,0,0:0:0:0:
226,265,56125,2,0,P|190:329|169:348,1,99.9999999999999
136,261,56466,1,0,0:0:0:0:
113,178,56580,2,0,P|161:131|168:98,1,99.9999999999999
84,104,56921,1,0,0:0:0:0:
132,34,57034,2,0,P|185:14|240:23,1,99.9999999999999
194,96,57375,2,0,P|244:119|254:120,1,50
297,56,57602,1,0,0:0:0:0:
297,56,57716,2,0,P|331:38|343:37,1,50
414,81,57943,2,0,P|464:57|474:44,2,50
252,43,58284,1,0,0:0:0:0:
252,43,58398,6,0,L|211:85,1,50
133,49,58625,2,0,L|122:98,1,50
35,111,58852,2,0,L|56:159,1,50
22,237,59080,2,0,L|64:263,1,50
46,355,59307,2,0,P|77:359|103:333,1,50
68,268,59534,1,8,0:0:0:0:
173,324,59648,1,8,0:0:0:0:
206,246,59761,2,8,P|242:211|263:205,1,50
342,0,59989,5,8,0:0:0:0:
342,0,60102,2,8,L|298:30,1,50
215,11,60330,2,8,L|206:61,1,50
120,79,60557,2,8,L|158:119,1,50
104,190,60784,1,8,0:0:0:0:
104,190,60898,2,8,L|163:199,1,50
301,98,61125,6,0,L|351:95,1,50
393,168,61352,2,0,L|425:208,1,50
361,274,61580,2,0,L|341:323,1,50
254,298,61807,1,0,0:0:0:0:
254,298,61920,2,0,L|199:309,1,50
129,248,62148,2,0,L|89:216,1,50
163,156,62375,2,0,L|193:109,1,50
106,67,62602,1,0,0:0:0:0:
106,67,62716,6,0,L|71:31,1,50
33,119,62943,1,0,0:0:0:0:
33,119,63057,2,0,L|-7:170,1,50
65,242,63284,1,0,0:0:0:0:
132,329,63398,2,0,L|96:373,1,50
200,241,63625,1,0,0:0:0:0:
200,241,63739,2,0,L|269:216,1,50
191,128,63966,1,0,0:0:0:0:
191,128,64080,2,0,L|147:92,1,50
263,50,64307,6,0,P|287:38|325:34,1,50
428,49,64534,1,0,0:0:0:0:
391,163,64648,2,0,P|365:193|343:206,1,50
415,303,64875,1,0,0:0:0:0:
415,303,64989,2,0,P|405:338|413:363,1,50
305,286,65216,2,0,P|261:273|246:289,1,50
146,321,65443,1,0,0:0:0:0:
59,229,65557,1,0,0:0:0:0:
67,99,65670,5,0,0:0:0:0:
67,99,65784,2,0,P|87:67|120:57,1,50
202,118,66011,1,0,0:0:0:0:
202,118,66125,1,0,0:0:0:0:
202,118,66239,2,0,P|250:124|260:134,1,50
254,218,66466,1,0,0:0:0:0:
356,195,66580,2,0,P|389:210|420:204,1,50
410,106,66807,2,0,P|446:83|450:66,1,50
356,46,67034,2,0,P|358:16|341:-1,1,50
247,34,67261,2,0,P|203:15|182:15,1,50
84,226,67489,1,0,0:0:0:0:
84,226,67602,1,0,0:0:0:0:
84,226,67716,6,0,P|106:266|125:274,1,50
219,209,67943,2,0,P|212:175|187:164,1,50
89,116,68170,1,0,0:0:0:0:
89,116,68284,2,0,P|122:67|133:62,1,50
236,95,68511,2,0,P|263:83|283:58,1,50
350,151,68739,2,0,P|393:155|404:166,1,50
459,250,68966,1,0,0:0:0:0:
427,268,69080,5,0,0:0:0:0:
344,338,69193,2,0,P|314:363|300:373,1,50
240,316,69420,2,0,L|190:301,1,50
215,224,69648,2,0,L|183:180,1,50
254,154,69875,1,0,0:0:0:0:
321,122,69989,2,0,L|360:171,1,50
326,228,70216,2,0,L|360:272,1,50
414,227,70443,5,0,0:0:0:0:
439,162,70556,2,0,P|427:132|415:108,1,50
422,45,70784,2,0,L|366:28,1,50
314,67,71011,1,0,0:0:0:0:
262,115,71125,1,0,0:0:0:0:
203,152,71238,2,0,L|168:115,1,50
107,158,71466,6,0,L|142:200,1,50
187,250,71693,1,0,0:0:0:0:
247,291,71806,1,0,0:0:0:0:
312,319,71920,1,0,0:0:0:0:
380,303,72034,2,0,L|355:252,1,50
407,208,72261,2,0,L|360:179,1,50
366,111,72488,2,0,L|307:119,1,50
277,60,72716,6,0,L|236:95,1,50
172,70,72943,2,0,L|163:126,1,50
94,126,73170,2,0,L|108:189,1,50
41,204,73397,2,0,L|76:244,1,50
33,299,73625,2,0,L|93:306,1,50
111,240,73852,2,0,L|156:215,1,50
213,254,74079,1,0,0:0:0:0:
281,237,74193,1,0,0:0:0:0:
331,284,74306,6,0,P|359:294|379:315,1,50
435,272,74534,1,0,0:0:0:0:
471,212,74647,1,0,0:0:0:0:
451,137,74761,2,0,P|463:111|493:96,1,50
410,69,74988,2,0,P|383:33|369:30,1,50
348,93,75216,2,0,P|310:122|308:138,1,50
282,189,75443,5,0,0:0:0:0:
276,258,75556,1,0,0:0:0:0:
284,327,75670,1,0,0:0:0:0:
284,327,75784,2,0,L|354:322,1,50
371,264,76011,1,0,0:0:0:0:
371,264,76125,2,0,L|403:224,1,50
375,159,76352,6,0,L|362:94,1,50
295,102,76579,2,0,L|250:73,1,50
207,128,76806,2,0,L|163:153,1,50
186,219,77034,1,0,0:0:0:0:
186,219,77147,2,0,L|177:278,1,50
242,298,77375,1,0,0:0:0:0:
242,298,77488,2,0,P|259:319|277:341,1,50
322,272,77715,6,0,P|367:256|386:240,1,50
353,175,77943,1,0,0:0:0:0:
353,175,78056,2,0,P|375:138|374:117,1,50
302,74,78284,1,0,0:0:0:0:
302,74,78397,2,0,P|286:29|277:24,1,50
209,56,78625,1,0,0:0:0:0:
209,56,78738,1,0,0:0:0:0:
209,56,78852,2,0,P|162:71|152:82,1,50
177,168,79079,5,0,0:0:0:0:
96,192,79193,2,0,L|44:215,1,50
118,278,79420,1,0,0:0:0:0:
118,278,79534,2,0,L|166:303,1,50
177,218,79761,2,0,L|185:169,1,50
152,103,79988,1,0,0:0:0:0:
152,103,80102,1,0,0:0:0:0:
88,61,80215,6,0,P|117:35|144:33,1,50
212,46,80443,1,0,0:0:0:0:
293,67,80557,2,0,L|341:82,1,50
365,159,80784,2,0,L|310:176,1,50
295,251,81011,2,0,L|353:269,1,50
369,340,81238,1,0,0:0:0:0:
369,340,81352,2,0,L|307:361,1,50
258,327,81579,1,0,0:0:0:0:
258,327,81693,2,0,L|198:300,1,50
142,311,81920,1,0,0:0:0:0:
142,311,82034,6,0,L|88:329,1,50
48,265,82261,2,0,L|71:215,1,50
135,183,82488,2,0,L|189:166,1,50
182,167,82715,1,0,0:0:0:0:
182,167,82829,1,0,0:0:0:0:
182,167,82943,2,0,L|220:206,1,50
217,203,83170,1,0,0:0:0:0:
217,203,83284,2,0,L|275:182,1,50
264,185,83511,2,0,L|317:206,1,50
388,225,83738,1,0,0:0:0:0:
388,225,83852,6,0,L|440:247,1,50
360,301,84079,1,0,0:0:0:0:
360,301,84193,2,0,L|420:328,1,50
479,351,84420,1,0,0:0:0:0:
479,351,84534,1,0,0:0:0:0:
479,351,84647,1,0,0:0:0:0:
364,298,85443,5,0,0:0:0:0:
337,218,85670,2,0,L|316:161,1,50
293,95,86125,1,0,0:0:0:0:
237,152,86352,2,0,L|194:195,1,50
170,216,86693,1,0,0:0:0:0:
150,253,86807,1,0,0:0:0:0:
144,294,86920,1,0,0:0:0:0:
160,333,87034,1,0,0:0:0:0:
191,361,87148,2,0,L|217:373,2,25
152,342,87489,5,0,0:0:0:0:
114,321,87602,1,0,0:0:0:0:
76,301,87716,1,0,0:0:0:0:
39,278,87830,1,0,0:0:0:0:
1,257,87943,2,0,L|31:212,1,50
256,192,88852,12,0,89989,0:0:0:0:
