osu file format v14

[General]
AudioFilename: audio.mp3
AudioLeadIn: 0
PreviewTime: 63742
Countdown: 0
SampleSet: Soft
StackLeniency: 0.5
Mode: 0
LetterboxInBreaks: 0
WidescreenStoryboard: 1

[Editor]
DistanceSpacing: 1.2
BeatDivisor: 4
GridSize: 4
TimelineZoom: 1.8

[Metadata]
Title:Haru ga Kite Bokura
TitleUnicode:春が来てぼくら
Artist:UNISON SQUARE GARDEN
ArtistUnicode:UNISON SQUARE GARDEN
Creator:Glaceon
Version:Rieri's Hard
Source:3月のライオン
Tags:short cut version 3-gatsu 2nd season sangatsu no lion usg agatsu rieri
BeatmapID:1823506
BeatmapSetID:862236

[Difficulty]
HPDrainRate:5
CircleSize:4
OverallDifficulty:6.8
ApproachRate:7.5
SliderMultiplier:1.6
SliderTickRate:1

[Events]
//Background and Video events
0,0,"sdfasdfs.jpg",0,0
//Break Periods
//Storyboard Layer 0 (Background)
//Storyboard Layer 1 (Fail)
//Storyboard Layer 2 (Pass)
//Storyboard Layer 3 (Foreground)
//Storyboard Sound Samples

[TimingPoints]
2260,454.545454545455,4,2,1,70,1,1
2260,-100,4,2,1,70,0,1
2373,-100,4,2,1,70,0,0
16123,-100,4,2,1,60,0,0
16805,-125,4,2,1,60,0,0
17032,-125,4,1,1,50,0,0
31350,-111.111111111111,4,1,1,50,0,0
31578,-111.111111111111,4,2,1,60,0,0
45896,-142.857142857143,4,1,1,40,0,0
55896,-142.857142857143,4,2,1,60,0,0
56123,-111.111111111111,4,2,1,60,0,0
56805,-100,4,2,1,60,0,0
60441,-142.857142857143,4,2,1,25,0,0
61805,-142.857142857143,4,2,1,60,0,0
62260,-100,4,2,1,60,0,0
64078,-90.909090909091,4,2,1,70,0,1
77714,-90.909090909091,4,2,1,70,0,0
78623,-90.909090909091,4,2,1,70,0,1
86805,-90.909090909091,4,2,1,50,0,1
87714,-90.909090909091,4,2,1,60,0,1
88623,-90.909090909091,4,2,1,65,0,1
89532,-90.909090909091,4,2,1,70,0,1
93169,-90.909090909091,4,2,1,70,0,0
94987,-100,4,2,1,60,0,1
95100,-100,4,2,1,60,0,0
109987,-100,4,2,1,60,0,1
110100,-100,4,2,1,60,0,0
111350,-100,4,2,1,50,0,0
113169,-100,4,2,1,40,0,0
114987,-100,4,2,1,30,0,0
116123,-100,4,2,1,20,0,0
116804,-100,4,2,1,10,0,0
117260,-100,4,2,1,5,0,0

[Colours]
Combo1 : 217,128,255
Combo2 : 255,132,132
Combo3 : 255,230,111
Combo4 : 96,139,255

[HitObjects]
69,97,2260,6,0,P|111:79|168:98,1,80,4|2,0:0|0:0,0:0:0:0:
212,150,2714,1,8,0:0:0:0:
171,237,2941,1,0,0:0:0:0:
171,237,3055,1,0,0:0:0:0:
171,237,3169,2,0,P|129:255|72:236,1,80,0|2,0:0|0:0,0:0:0:0:
22,312,3623,1,8,0:0:0:0:
91,377,3850,1,0,0:0:0:0:
91,377,3964,1,0,0:0:0:0:
91,377,4078,6,0,L|183:375,1,80,2|2,0:0|0:0,0:0:0:0:
237,309,4532,1,8,0:0:0:0:
175,234,4760,1,0,0:0:0:0:
175,234,4873,1,0,0:0:0:0:
175,234,4987,2,0,L|170:134,1,80,0|2,0:0|0:0,0:0:0:0:
255,108,5441,1,8,0:0:0:0:
349,152,5669,1,0,0:0:0:0:
349,152,5782,1,0,0:0:0:0:
349,152,5896,6,0,L|343:262,1,80,0|2,0:0|0:0,0:0:0:0:
365,275,6237,1,0,0:0:0:0:
365,275,6350,2,0,P|320:256|266:273,1,80,8|0,0:0|0:0,0:0:0:0:
225,331,6805,2,0,P|176:340|129:325,1,80,0|2,0:0|0:0,0:0:0:0:
120,300,7146,1,0,0:0:0:0:
120,300,7260,2,0,L|132:217,1,80,8|0,0:0|0:0,0:0:0:0:
48,174,7714,6,0,P|66:135|60:85,1,80,2|2,0:0|0:0,0:0:0:0:
42,56,8055,1,0,0:0:0:0:
42,56,8169,2,0,L|147:64,1,80,8|0,0:0|0:0,0:0:0:0:
197,120,8623,1,2,0:0:0:0:
275,65,8850,1,0,1:2:0:0:
275,65,8964,1,0,1:2:0:0:
275,65,9078,2,0,L|333:62,3,40,0|0|0|0,1:2|1:2|1:2|1:2,0:0:0:0:
361,49,9532,6,0,L|367:151,1,80,4|2,0:0|0:0,0:0:0:0:
450,174,9987,1,8,0:0:0:0:
373,232,10214,1,0,0:0:0:0:
373,232,10328,1,0,0:0:0:0:
373,232,10441,2,0,L|379:334,1,80,0|2,0:0|0:0,0:0:0:0:
307,378,10896,1,8,0:0:0:0:
231,319,11123,1,0,0:0:0:0:
231,319,11237,1,0,0:0:0:0:
231,319,11350,6,0,L|235:239,1,80,2|2,0:0|0:0,0:0:0:0:
303,171,11805,1,8,0:0:0:0:
248,92,12032,1,0,0:0:0:0:
248,92,12146,1,0,0:0:0:0:
248,92,12260,2,0,P|183:72|98:120,1,160,0|8,0:0|0:0,0:0:0:0:
35,177,12941,1,0,0:0:0:0:
35,177,13055,1,0,0:0:0:0:
35,177,13169,6,0,L|40:277,1,80,2|0,0:0|0:0,0:0:0:0:
43,304,13510,1,0,0:0:0:0:
43,304,13623,2,0,P|86:322|130:314,1,80,8|0,0:0|0:0,0:0:0:0:
210,290,14078,2,0,L|216:181,1,80,0|2,0:0|0:0,0:0:0:0:
217,162,14419,1,0,0:0:0:0:
217,162,14532,2,0,P|260:152|308:170,1,80,8|0,0:0|0:0,0:0:0:0:
382,197,14987,6,0,P|436:210|479:195,1,80,2|2,0:0|0:0,0:0:0:0:
497,176,15328,1,0,0:0:0:0:
497,176,15441,2,0,L|494:272,1,80,8|0,0:0|3:0,0:0:0:0:
442,326,15896,1,0,3:0:0:0:
331,358,16123,2,0,L|504:366,1,160,4|0,0:0|0:0,0:0:0:0:
385,254,16805,5,4,0:0:0:0:
452,206,17032,2,0,P|455:159|439:126,1,64,0|2,0:0|0:0,0:0:0:0:
392,83,17487,1,0,0:0:0:0:
392,83,17714,2,0,P|435:63|471:62,2,64,0|0|2,0:0|0:0|0:0,0:0:0:0:
341,149,18396,6,0,L|200:138,1,128,0|0,0:0|0:0,0:0:0:0:
151,83,19078,1,2,0:0:0:0:
93,23,19305,2,0,P|68:94|112:157,1,128,0|0,0:0|0:0,0:0:0:0:
145,199,19987,2,0,P|163:240|159:282,1,64,2|0,0:0|0:0,0:0:0:0:
80,257,20441,5,4,0:0:0:0:
80,257,20669,1,0,0:0:0:0:
115,331,20896,2,0,L|206:337,1,64,2|0,0:0|0:0,0:0:0:0:
245,285,21350,2,0,L|326:279,2,64,0|0|2,0:0|0:0|0:0,0:0:0:0:
259,367,22032,6,0,L|414:355,1,128,0|0,0:0|0:0,0:0:0:0:
449,301,22714,1,2,0:0:0:0:
391,241,22941,1,0,0:0:0:0:
447,179,23169,2,0,P|456:143|451:114,1,64,0|0,0:0|0:0,0:0:0:0:
376,81,23623,1,2,0:0:0:0:
446,36,23850,1,0,0:0:0:0:
376,81,24078,5,0,0:0:0:0:
305,37,24305,1,0,0:0:0:0:
305,37,24419,1,0,0:0:0:0:
305,37,24532,2,0,L|223:45,1,64,2|0,0:0|0:0,0:0:0:0:
169,86,24987,2,0,P|159:44|164:9,2,64,0|0|2,0:0|0:0|0:0,0:0:0:0:
240,129,25669,6,0,P|261:161|250:259,1,128,0|0,0:0|0:0,0:0:0:0:
179,277,26350,2,0,L|102:272,1,64,2|0,0:0|0:0,0:0:0:0:
73,344,26805,2,0,L|223:354,1,128,0|2,0:0|0:0,0:0:0:0:
271,308,27487,1,0,0:0:0:0:
271,308,27600,1,0,0:0:0:0:
271,308,27714,6,0,P|304:300|345:311,1,64,4|0,0:0|0:0,0:0:0:0:
399,355,28169,2,0,P|432:363|473:352,1,64,2|0,0:0|0:0,0:0:0:0:
506,287,28623,2,0,L|499:207,1,64,0|0,0:0|0:0,0:0:0:0:
434,172,29078,1,2,0:0:0:0:
478,101,29305,1,0,0:0:0:0:
429,33,29532,6,0,L|283:40,1,128,0|2,0:0|0:0,0:0:0:0:
238,113,30214,1,0,0:0:0:0:
167,38,30441,1,8,2:0:0:0:
83,93,30669,1,8,2:3:0:0:
83,93,30782,1,8,2:3:0:0:
83,93,30896,2,0,L|39:89,2,32,0|0|10,0:0|0:0|2:0,0:0:0:0:
172,195,31350,5,6,0:0:0:0:
124,267,31578,2,0,L|48:272,2,71.9999978027344,0|8|0,0:0|0:0|0:0,0:0:0:0:
183,330,32260,1,0,0:0:0:0:
259,290,32487,2,0,P|302:278|344:285,1,71.9999978027344,0|8,0:0|0:0,0:0:0:0:
403,322,32941,6,0,L|399:173,1,143.999995605469,0|0,0:0|0:0,0:0:0:0:
453,110,33623,1,8,0:0:0:0:
380,62,33850,2,0,P|329:80|298:77,1,71.9999978027344,0|0,0:0|0:0,0:0:0:0:
253,143,34305,2,0,P|292:160|325:196,2,71.9999978027344,2|8|0,0:0|0:0|0:0,0:0:0:0:
188,80,34987,5,2,0:0:0:0:
188,80,35214,1,2,0:0:0:0:
145,154,35441,2,0,L|61:157,1,71.9999978027344,8|0,0:0|0:0,0:0:0:0:
12,94,35896,2,0,P|4:52|16:7,2,71.9999978027344,2|0|8,0:0|0:0|0:0,0:0:0:0:
73,156,36578,6,0,P|92:219|68:304,1,143.999995605469,0|0,0:0|0:0,0:0:0:0:
22,362,37260,1,8,0:0:0:0:
22,362,37487,1,0,0:0:0:0:
106,381,37714,2,0,L|190:375,1,71.9999978027344,0|8,0:0|0:0,0:0:0:0:
232,308,38169,1,8,0:0:0:0:
299,361,38396,1,0,0:0:0:0:
232,308,38623,5,2,0:0:0:0:
312,276,38850,1,2,0:0:0:0:
312,276,38964,1,0,0:0:0:0:
312,276,39078,2,0,L|397:278,1,71.9999978027344,8|0,0:0|0:0,0:0:0:0:
462,314,39532,2,0,P|462:360|448:393,2,71.9999978027344,0|2|8,0:0|0:0|0:0,0:0:0:0:
451,227,40214,6,0,P|440:177|481:91,1,143.999995605469,0|2,0:0|0:0,0:0:0:0:
505,13,40896,1,8,0:0:0:0:
505,13,41123,1,0,0:0:0:0:
417,19,41350,2,0,P|380:27|341:25,1,71.9999978027344,0|2,0:0|0:0,0:0:0:0:
259,24,41805,2,0,P|220:20|174:27,1,71.9999978027344,8|0,0:0|0:0,0:0:0:0:
96,105,42260,5,4,0:0:0:0:
13,79,42487,2,0,P|14:138|36:175,1,71.9999978027344,0|8,0:0|0:0,0:0:0:0:
94,190,42941,1,0,0:0:0:0:
172,153,43169,2,0,P|178:194|168:236,1,71.9999978027344,2|0,0:0|0:0,0:0:0:0:
146,262,43510,1,0,0:0:0:0:
146,262,43623,1,8,0:0:0:0:
53,277,43850,1,0,0:0:0:0:
146,262,44078,5,2,0:0:0:0:
119,356,44305,2,0,P|161:345|205:357,1,71.9999978027344,2|2,0:0|0:0,0:0:0:0:
265,287,44760,2,0,P|318:303|411:280,1,143.999995605469,2|2,0:0|1:0,0:0:0:0:
474,225,45441,1,2,1:0:0:0:
423,146,45669,1,2,1:0:0:0:
481,75,45896,6,0,L|487:15,1,55.9999982910157,2|0,2:0|0:0,0:0:0:0:
402,50,46350,2,0,L|353:-46,1,55.9999982910157,2|2,2:0|2:0,0:0:0:0:
327,86,46805,2,0,L|223:26,1,111.999996582031,2|2,2:0|2:0,0:0:0:0:
159,67,47487,1,2,2:0:0:0:
83,34,47714,6,0,P|81:67|56:109,1,55.9999982910157,0|2,0:0|2:0,0:0:0:0:
127,155,48169,2,0,P|97:169|48:169,1,55.9999982910157,2|2,2:0|2:0,0:0:0:0:
0,134,48623,1,2,2:0:0:0:
0,134,49305,1,2,2:0:0:0:
20,225,49532,6,0,L|12:285,1,55.9999982910157,2|2,2:0|2:0,0:0:0:0:
97,264,49987,2,0,L|120:319,1,55.9999982910157,2|2,2:0|2:0,0:0:0:0:
182,245,50441,1,2,2:0:0:0:
182,245,50896,1,2,2:0:0:0:
214,168,51123,1,2,2:0:0:0:
271,231,51350,6,0,P|310:229|339:238,1,55.9999982910157,0|2,0:0|2:0,0:0:0:0:
383,168,51805,2,0,P|404:200|410:230,1,55.9999982910157,2|2,2:0|2:0,0:0:0:0:
383,300,52260,1,2,2:0:0:0:
383,300,52941,1,2,2:0:0:0:
269,358,53169,6,0,L|325:361,1,55.9999982910157,2|2,2:0|2:0,0:0:0:0:
219,291,53623,2,0,L|268:265,1,55.9999982910157,2|2,2:0|2:0,0:0:0:0:
133,272,54078,1,2,2:0:0:0:
133,272,54532,1,2,2:0:0:0:
24,199,54760,1,2,2:0:0:0:
137,137,54987,6,0,P|173:147|213:147,1,55.9999982910157,0|2,0:0|2:0,0:0:0:0:
233,225,55441,2,0,P|259:198|279:164,1,55.9999982910157,2|2,2:0|2:0,0:0:0:0:
241,71,55896,1,4,0:0:0:0:
312,26,56123,1,8,0:0:0:0:
312,26,56237,1,8,0:0:0:0:
312,26,56350,2,0,L|360:29,3,35.9999989013672,8|8|8|8,0:0|0:0|0:0|0:0,0:0:0:0:
412,35,56805,6,0,P|398:80|404:125,1,80,4|0,0:0|0:0,0:0:0:0:
475,172,57260,2,0,P|480:215|468:262,1,80,8|2,0:0|0:0,0:0:0:0:
423,332,57714,2,0,L|326:329,1,80,8|2,0:0|0:0,0:0:0:0:
298,311,58055,1,2,0:0:0:0:
298,311,58169,2,0,L|208:317,1,80,2|2,0:0|0:0,0:0:0:0:
129,353,58623,6,0,P|147:307|139:263,1,80,6|2,0:0|0:0,0:0:0:0:
58,232,59078,2,0,P|40:186|48:142,1,80,8|0,0:0|0:0,0:0:0:0:
100,79,59532,2,0,L|188:82,1,80,0|2,0:0|0:0,0:0:0:0:
219,109,59873,1,0,0:0:0:0:
219,109,59987,2,0,L|304:105,1,80,2|2,0:0|0:0,0:0:0:0:
417,82,60441,6,0,P|454:97|477:125,1,55.9999982910157,0|0,0:0|0:0,0:0:0:0:
437,180,60896,2,0,P|442:219|429:253,1,55.9999982910157,0|0,0:0|0:0,0:0:0:0:
361,240,61350,2,0,P|329:264|293:270,2,55.9999982910157,0|0|0,0:0|0:0|0:1,0:0:0:0:
298,187,62032,1,0,0:0:0:0:
284,75,62260,5,8,0:0:0:0:
181,30,62487,1,2,0:0:0:0:
95,99,62714,2,0,L|105:193,1,80,8|2,0:0|0:0,0:0:0:0:
52,278,63169,2,0,P|106:256|164:265,1,80,8|8,0:0|0:3,0:0:0:0:
231,294,63623,2,0,P|262:300|296:295,3,40,8|8|8|8,0:3|0:3|0:3|0:3,0:0:0:0:
316,264,64078,6,0,P|379:250|417:270,1,88.000002685547,12|0,0:0|0:0,0:0:0:0:
447,288,64419,1,0,0:0:0:0:
447,288,64532,1,8,0:0:0:0:
483,179,64760,1,0,0:0:0:0:
425,80,64987,2,0,P|377:92|330:74,1,88.000002685547,8|0,0:0|0:0,0:0:0:0:
303,49,65328,1,0,0:0:0:0:
303,49,65441,2,0,P|256:36|200:54,1,88.000002685547,8|0,0:0|0:0,0:0:0:0:
82,60,65896,5,8,0:0:0:0:
144,155,66123,2,0,L|199:160,2,44.0000013427735,0|0|8,0:0|0:0|0:0,0:0:0:0:
65,238,66578,2,0,L|10:243,2,44.0000013427735,0|0|8,0:0|0:0|0:0,0:0:0:0:
137,326,67032,1,2,0:0:0:0:
225,252,67260,2,0,L|336:259,1,88.000002685547,8|0,0:0|0:0,0:0:0:0:
423,209,67714,6,0,P|362:241|294:162,1,176.000005371094,12|8,0:0|0:0,0:0:0:0:
250,69,68396,1,0,0:0:0:0:
351,15,68623,2,0,P|403:28|443:63,1,88.000002685547,8|2,0:0|0:0,0:0:0:0:
474,153,69078,2,0,P|481:205|467:261,1,88.000002685547,8|2,0:0|0:0,0:0:0:0:
416,337,69532,5,8,0:0:0:0:
314,283,69760,1,0,0:0:0:0:
223,352,69987,2,0,L|128:342,1,88.000002685547,8|0,0:0|0:0,0:0:0:0:
78,336,70328,1,2,0:0:0:0:
78,336,70441,2,0,P|111:280|95:225,1,88.000002685547,8|0,0:0|0:0,0:0:0:0:
30,176,70896,1,8,0:0:0:0:
98,83,71123,1,2,0:0:0:0:
189,151,71350,6,0,L|192:259,1,88.000002685547,12|0,0:0|0:0,0:0:0:0:
194,296,71691,1,0,0:0:0:0:
194,296,71805,2,0,P|235:282|289:291,1,88.000002685547,8|0,0:0|0:0,0:0:0:0:
368,216,72260,1,8,0:0:0:0:
279,143,72487,1,2,0:0:0:0:
335,43,72714,2,0,P|393:61|446:50,1,88.000002685547,8|2,0:0|0:0,0:0:0:0:
498,167,73169,6,0,P|439:167|393:198,1,88.000002685547,8|0,0:0|0:0,0:0:0:0:
368,216,73510,1,0,0:0:0:0:
368,216,73623,1,8,0:0:0:0:
442,302,73850,1,0,0:0:0:0:
355,377,74078,1,8,0:0:0:0:
274,295,74305,2,0,L|260:200,1,88.000002685547,2|8,0:0|2:3,0:0:0:0:
303,101,74760,1,0,3:0:0:0:
154,16,74987,6,0,P|103:10|41:36,1,88.000002685547,12|0,0:0|0:0,0:0:0:0:
23,124,75441,2,0,P|74:130|136:104,1,88.000002685547,8|0,0:0|0:0,0:0:0:0:
220,95,75896,1,8,0:0:0:0:
184,203,76123,1,2,0:0:0:0:
294,175,76350,2,0,P|353:162|403:176,1,88.000002685547,8|2,0:0|0:0,0:0:0:0:
474,230,76805,6,0,L|466:337,1,88.000002685547,8|2,0:0|0:0,0:0:0:0:
362,271,77260,1,8,0:0:0:0:
284,354,77487,1,2,0:0:0:0:
284,354,77600,1,0,0:0:0:0:
284,354,77714,1,8,0:0:0:0:
188,295,77941,1,0,3:0:0:0:
188,295,78055,1,0,3:0:0:0:
188,295,78169,2,0,L|127:301,3,44.0000013427735,8|0|0|0,2:3|3:0|3:0|3:0,0:0:0:0:
87,305,78623,6,0,P|66:262|92:194,1,88.000002685547,4|2,0:0|0:0,0:0:0:0:
106,178,78964,1,0,0:0:0:0:
106,178,79078,1,2,0:0:0:0:
37,86,79305,1,0,0:0:0:0:
144,47,79532,2,0,L|265:55,1,88.000002685547,0|2,0:0|0:0,0:0:0:0:
278,86,79873,1,0,0:0:0:0:
278,86,79987,2,0,L|385:79,1,88.000002685547,2|0,0:0|0:0,0:0:0:0:
445,170,80441,6,0,P|370:152|299:216,1,176.000005371094,2|8,0:0|0:0,0:0:0:0:
325,324,81123,1,0,0:0:0:0:
325,324,81237,1,0,0:0:0:0:
325,324,81350,1,2,0:0:0:0:
222,272,81578,1,2,0:0:0:0:
168,364,81805,2,0,P|129:340|75:343,1,88.000002685547,8|0,0:0|0:0,0:0:0:0:
15,250,82260,6,0,P|60:256|119:146,1,176.000005371094,4|8,0:0|0:0,0:0:0:0:
43,78,82941,1,0,0:0:0:0:
153,46,83169,2,0,L|274:53,1,88.000002685547,0|2,0:0|0:0,0:0:0:0:
211,164,83623,2,0,L|90:157,1,88.000002685547,8|0,0:0|0:0,0:0:0:0:
22,213,84078,5,2,0:0:0:0:
67,317,84305,1,2,0:0:0:0:
175,282,84532,2,0,P|239:279|281:302,1,88.000002685547,8|2,0:0|0:0,0:0:0:0:
340,369,84987,1,0,0:0:0:0:
340,369,85100,1,2,0:0:0:0:
340,369,85214,1,2,0:0:0:0:
435,313,85441,1,2,0:0:0:0:
353,215,85669,6,0,P|419:227|502:147,1,176.000005371094,12|2,0:0|0:0,0:0:0:0:
405,94,86350,1,8,0:0:0:0:
506,40,86578,1,2,0:0:0:0:
405,94,86805,1,4,3:2:0:0:
312,27,87032,1,0,3:2:0:0:
312,27,87146,1,0,3:2:0:0:
312,27,87260,2,0,L|258:34,3,44.0000013427735,8|0|0|0,3:2|3:2|3:2|3:2,0:0:0:0:
217,49,87714,6,0,L|149:45,3,44.0000013427735,4|0|0|0,3:2|3:2|3:2|3:2,0:0:0:0:
122,28,88169,2,0,L|132:123,1,88.000002685547,8|0,3:2|3:2,0:0:0:0:
67,221,88623,2,0,L|126:228,3,44.0000013427735,12|0|8|0,3:2|3:2|3:2|3:2,0:0:0:0:
160,244,89078,2,0,L|227:234,3,44.0000013427735,8|0|8|0,3:2|3:2|3:2|3:2,0:0:0:0:
255,229,89532,5,4,0:0:0:0:
270,336,89760,1,2,0:0:0:0:
378,372,89987,2,0,P|434:375|469:353,1,88.000002685547,8|0,0:0|0:0,0:0:0:0:
438,248,90441,2,0,P|382:245|347:267,1,88.000002685547,0|2,0:0|0:0,0:0:0:0:
314,299,90782,1,0,0:0:0:0:
314,299,90896,1,8,0:0:0:0:
179,236,91123,1,0,0:0:0:0:
179,236,91237,1,0,0:0:0:0:
179,236,91350,6,0,L|174:333,1,88.000002685547,6|2,0:0|0:0,0:0:0:0:
62,347,91805,2,0,L|67:250,1,88.000002685547,8|2,0:0|0:0,0:0:0:0:
103,150,92260,1,0,0:0:0:0:
26,65,92487,1,2,0:0:0:0:
134,30,92714,2,0,L|246:38,1,88.000002685547,8|0,0:0|0:0,0:0:0:0:
343,134,93169,5,6,0:0:0:0:
99,319,94987,6,0,P|147:313|191:332,1,80,4|2,0:0|0:0,0:0:0:0:
260,260,95441,1,8,0:0:0:0:
187,184,95669,1,0,0:0:0:0:
187,184,95782,1,0,0:0:0:0:
187,184,95896,2,0,P|139:190|95:171,1,80,0|2,0:0|0:0,0:0:0:0:
34,108,96350,1,8,0:0:0:0:
109,35,96578,1,0,0:0:0:0:
109,35,96691,1,0,0:0:0:0:
109,35,96805,6,0,P|165:30|189:41,1,80,2|2,0:0|0:0,0:0:0:0:
256,115,97260,1,8,0:0:0:0:
347,66,97487,1,0,0:0:0:0:
347,66,97600,1,0,0:0:0:0:
347,66,97714,2,0,L|351:155,1,80,0|2,0:0|0:0,0:0:0:0:
439,200,98169,1,8,0:0:0:0:
371,279,98396,1,0,0:0:0:0:
371,279,98510,1,0,0:0:0:0:
371,279,98623,6,0,P|329:272|281:296,1,80,0|2,0:0|0:0,0:0:0:0:
254,317,98964,1,0,0:0:0:0:
254,317,99078,2,0,P|207:335|159:328,1,80,8|0,0:0|0:0,0:0:0:0:
85,380,99532,2,0,P|72:334|83:289,1,80,0|2,0:0|0:0,0:0:0:0:
108,261,99873,1,0,0:0:0:0:
108,261,99987,2,0,P|127:220|118:171,1,80,8|0,0:0|0:0,0:0:0:0:
48,115,100441,5,2,0:0:0:0:
137,61,100669,2,0,L|132:14,2,40,2|0|0,0:0|0:0|0:0,0:0:0:0:
219,124,101123,2,0,L|214:167,2,40,0|0|2,0:0|0:0|0:0,0:0:0:0:
300,58,101578,1,0,1:2:0:0:
300,58,101691,1,0,1:2:0:0:
300,58,101805,2,0,L|355:62,3,40,0|0|0|0,1:2|1:2|1:2|1:2,0:0:0:0:
390,46,102260,6,0,P|372:97|392:154,1,80,4|2,0:0|0:0,0:0:0:0:
450,192,102714,1,8,0:0:0:0:
349,218,102941,1,0,0:0:0:0:
349,218,103055,1,0,0:0:0:0:
349,218,103169,2,0,L|264:206,1,80,0|2,0:0|0:0,0:0:0:0:
197,281,103623,1,8,0:0:0:0:
109,225,103850,1,0,0:0:0:0:
109,225,103964,1,0,0:0:0:0:
109,225,104078,6,0,P|98:181|111:132,1,80,2|2,0:0|0:0,0:0:0:0:
185,83,104532,1,8,0:0:0:0:
274,136,104760,1,0,0:0:0:0:
274,136,104873,1,0,0:0:0:0:
274,136,104987,2,0,L|378:129,1,80,0|2,0:0|0:0,0:0:0:0:
425,55,105441,1,8,0:0:0:0:
487,138,105669,1,0,0:0:0:0:
487,138,105782,1,0,0:0:0:0:
487,138,105896,6,0,L|479:237,1,80,2|0,0:0|0:0,0:0:0:0:
498,266,106237,1,0,0:0:0:0:
498,266,106350,2,0,L|388:255,1,80,8|0,0:0|0:0,0:0:0:0:
334,319,106805,2,0,L|246:326,1,80,0|2,0:0|0:0,0:0:0:0:
210,354,107146,1,0,0:0:0:0:
210,354,107260,2,0,L|201:246,1,80,8|0,0:0|0:0,0:0:0:0:
250,190,107714,6,0,P|207:178|154:190,1,80,2|2,0:0|0:0,0:0:0:0:
128,201,108055,1,0,0:0:0:0:
128,201,108169,2,0,P|85:213|32:201,1,80,8|0,0:0|3:0,0:0:0:0:
3,124,108623,1,0,3:0:0:0:
119,41,108850,5,12,0:0:0:0:
317,338,109987,5,12,0:0:0:0:
256,192,110214,12,0,117260,0:0:0:0:
