osu file format v14

[General]
AudioFilename: audio.mp3
AudioLeadIn: 0
PreviewTime: 53689
Countdown: 0
CountdownOffset: 0
SampleSet: Soft
StackLeniency: 0.7
Mode: 0
LetterboxInBreaks: 0
WidescreenStoryboard: 1
EpilepsyWarning: 0
StoryFireInFront: 0
SkinPreference:
SamplesMatchPlaybackRate: 0

[Editor]
Bookmarks: 49860,54654,72168,74602,124087,128881,158457,159808
DistanceSpacing: 2.2
BeatDivisor: 4
GridSize: 4
TimelineZoom: 1.3

[Metadata]
Title:fake town baby
TitleUnicode:fake town baby
Artist:UNISON SQUARE GARDEN
ArtistUnicode:UNISON SQUARE GARDEN
Creator:Nevo
Version:Nao's Hard
Source:血界戦線 & BEYOND
Tags:kekkai sensen glaceon - Frontier - -_Frontier_- nao tomori naotoshi agatsu anime japanese op opening s2 season 2 blood Blockade Battlefront
BeatmapID:0
BeatmapSetID:933600

[Difficulty]
HPDrainRate:4.5
CircleSize:3.3
OverallDifficulty:6.5
ApproachRate:8
SliderMultiplier:1.3
SliderTickRate:1

[Events]
0,0,"1c2059ba2c9929679c2fa3835edab59c.jpg",0,0

[TimingPoints]
412,-133.3333333333,4,2,1,70,0,0
412,309.2783505155,4,2,1,70,1,0
10308,-100,4,2,1,70,0,0
39844,-153.8461538462,4,2,1,70,0,0
46803,-133.3333333333,4,2,1,70,0,0
47422,-114.9425287356,4,2,1,70,0,0
49896,-100,4,2,1,80,0,1
50128,-66.66666666667,4,2,1,5,0,1
50205,-100,4,2,1,80,0,0
51133,-66.66666666667,4,2,1,80,0,1
51365,-66.66666666667,4,2,1,5,0,1
51442,-100,4,2,1,70,0,0
52370,-100,4,2,1,80,0,1
52602,-100,4,2,1,5,0,1
52680,-100,4,2,1,80,0,0
52989,-100,4,2,1,80,0,1
53221,-100,4,2,1,5,0,1
53298,-100,4,2,1,40,0,0
53453,-100,4,2,1,80,0,1
53530,-100,4,2,1,5,0,1
53762,-100,4,2,1,70,0,0
54690,-83.33333333333,4,2,1,90,0,1
74020,-100,4,2,1,90,0,0
74484,-83.33333333333,4,2,1,90,0,1
94277,-83.33333333333,4,2,1,80,0,0

[Colours]
Combo1 : 11,166,249
Combo2 : 166,40,44
Combo3 : 192,192,192

[HitObjects]
165,174,412,6,0,L|60:181,2,97.50000371933,6|0|0,3:2|3:2|3:2,0:0:0:0:
262,248,1339,1,0,3:2:0:0:
371,194,1649,2,0,P|385:116|375:90,2,97.50000371933,2|0|0,3:2|3:2|3:2,0:0:0:0:
319,205,2422,1,0,0:2:0:0:
416,311,2731,5,2,0:2:0:0:
416,311,2808,1,2,0:2:0:0:
416,311,2886,2,0,L|521:296,1,97.50000371933,2|0,3:2|3:2,0:0:0:0:
361,379,3504,2,0,L|256:364,1,97.50000371933,0|0,3:2|3:2,0:0:0:0:
128,277,4123,2,0,P|112:211|123:175,1,97.50000371933,2|0,3:2|3:2,0:0:0:0:
222,113,4741,1,0,3:2:0:0:
222,113,4896,2,0,L|235:226,1,97.50000371933,0|8,3:2|0:2,0:0:0:0:
254,228,5283,1,8,0:2:0:0:
254,228,5360,6,0,P|300:228|350:193,1,97.50000371933,6|0,3:2|3:2,0:0:0:0:
196,48,5979,2,0,P|173:89|175:137,1,97.50000371933,2|0,3:2|3:2,0:0:0:0:
381,87,6597,2,8,P|356:46|314:23,1,97.50000371933,0|0,3:2|3:2,0:0:0:0:
283,131,7061,1,0,0:2:0:0:
283,131,7216,2,0,L|294:194,2,48.75000185967,0|0|0,3:2|3:2|3:2,0:0:0:0:
188,89,7680,1,8,0:2:0:0:
188,89,7757,1,8,0:2:0:0:
188,89,7834,6,0,L|204:190,2,97.50000371933,2|2|0,3:2|3:2|3:2,0:0:0:0:
369,145,8762,2,0,L|388:254,2,97.50000371933,2|2|0,3:2|3:2|0:2,0:0:0:0:
479,0,9690,1,8,0:2:0:0:
479,0,9844,1,8,0:2:0:0:
378,74,10308,6,0,P|330:93|297:90,1,65,6|0,3:2|0:2,0:0:0:0:
164,33,10618,2,0,P|196:37|224:52,1,65,8|0,0:2|3:2,0:0:0:0:
238,150,10927,2,0,L|231:291,1,130,8|0,0:2|3:2,0:0:0:0:
134,311,11391,2,0,L|140:181,1,130,2|0,3:2|3:2,0:0:0:0:
77,103,11855,1,8,0:2:0:0:
126,23,12009,1,0,3:2:0:0:
216,60,12164,2,0,L|296:58,1,65,8|0,0:2|0:0,0:0:0:0:
375,19,12473,1,8,0:2:0:0:
375,19,12551,1,8,0:2:0:0:
375,19,12628,1,8,0:2:0:0:
460,80,12783,6,0,P|472:129|466:167,1,65,6|0,3:2|3:2,0:0:0:0:
366,230,13092,2,0,P|367:197|377:166,1,65,8|0,0:2|3:2,0:0:0:0:
455,233,13401,2,0,L|466:364,1,130,8|0,0:2|3:2,0:0:0:0:
376,359,13865,2,0,L|365:229,1,130,2|0,3:2|3:2,0:0:0:0:
291,176,14329,1,8,0:2:0:0:
205,218,14484,1,0,3:2:0:0:
117,176,14638,2,0,L|37:176,1,65,8|0,0:2|0:0,0:0:0:0:
3,256,14948,1,8,0:2:0:0:
3,256,15025,1,8,0:2:0:0:
3,256,15102,1,8,0:2:0:0:
89,305,15257,6,0,L|98:372,1,65,6|0,3:2|3:2,0:0:0:0:
194,319,15566,2,0,L|202:254,1,65,8|0,0:2|3:2,0:0:0:0:
306,293,15875,1,8,0:2:0:0:
306,293,16030,2,0,L|336:235,1,65,0|2,3:2|3:2,0:0:0:0:
421,160,16339,2,0,L|486:158,2,65,8|2|0,0:2|3:2|3:2,0:0:0:0:
313,124,16803,2,8,L|279:70,1,65,8|0,0:2|3:2,0:0:0:0:
185,99,17113,1,8,0:2:0:0:
185,99,17267,1,0,3:2:0:0:
87,61,17422,2,0,L|86:7,2,32.5,8|8|8,0:2|3:2|3:2,0:0:0:0:
9,143,17731,6,0,L|11:279,1,130,6|8,0:2|0:2,0:0:0:0:
91,336,18195,1,0,3:2:0:0:
175,295,18350,1,8,0:2:0:0:
183,296,18427,1,8,0:2:0:0:
191,297,18504,1,8,0:2:0:0:
199,298,18581,1,8,0:2:0:0:
207,299,18659,1,8,0:2:0:0:
273,369,18814,6,0,L|415:358,1,130,6|0,3:2|3:2,0:0:0:0:
482,293,19277,2,0,P|487:252|478:211,1,65,8|0,0:2|3:2,0:0:0:0:
465,196,19509,1,0,3:2:0:0:
465,196,19587,2,0,P|457:155|458:123,1,65,8|0,0:2|3:2,0:0:0:0:
463,107,19819,1,0,3:2:0:0:
463,107,19896,1,0,3:2:0:0:
405,27,20051,6,0,P|357:62|269:50,1,130,6|0,0:2|3:2,0:0:0:0:
198,56,20515,2,0,P|244:71|285:145,2,130,8|0|8,0:2|3:2|0:2,0:0:0:0:
90,181,21442,2,0,P|44:166|3:92,2,130,2|8|0,3:2|0:2|3:2,0:0:0:0:
153,249,22216,2,0,L|221:241,1,65,2|8,3:2|0:2,0:0:0:0:
297,186,22525,6,0,P|215:147|164:168,1,130,2|0,3:2|0:2,0:0:0:0:
255,266,22989,2,0,P|318:273|371:237,2,130,8|0|8,0:2|3:2|0:2,0:0:0:0:
86,317,23917,2,0,P|149:310|201:346,2,130,2|8|0,3:2|0:2|3:2,0:0:0:0:
11,261,24690,2,0,L|2:188,1,65,2|8,3:2|3:2,0:0:0:0:
67,113,24999,6,0,P|130:122|187:93,1,130,2|0,3:2|3:2,0:0:0:0:
281,225,25463,2,0,P|223:196|160:205,2,130,8|0|8,0:2|3:2|0:2,0:0:0:0:
381,98,26391,2,0,P|438:69|501:78,1,130,2|8,3:2|0:2,0:0:0:0:
452,163,26855,1,0,0:2:0:0:
452,163,27009,2,0,L|466:254,1,65,0|0,3:2|3:2,0:0:0:0:
377,286,27319,2,0,L|367:221,1,65,8|0,0:2|0:2,0:0:0:0:
289,320,27628,6,0,P|321:362|415:362,2,130,6|8|8,0:2|0:2|0:2,0:0:0:0:
130,141,28556,2,0,P|66:145|25:193,2,130,6|8|8,0:2|0:2|0:2,0:0:0:0:
210,191,29329,1,0,3:2:0:0:
210,191,29406,1,0,3:2:0:0:
210,191,29484,1,8,3:0:0:0:
279,131,29638,2,0,L|280:78,3,32.5,2|0|8|8,3:2|3:0|0:2|0:2,0:0:0:0:
319,120,29948,6,0,P|351:159|339:256,1,130,6|0,3:2|3:2,0:0:0:0:
272,288,30412,2,0,L|127:276,1,130,8|0,0:2|3:2,0:0:0:0:
61,320,30875,1,0,3:2:0:0:
61,320,31030,1,8,0:2:0:0:
12,159,31339,1,2,3:2:0:0:
81,102,31494,1,0,0:2:0:0:
151,166,31649,2,0,P|202:180|283:152,1,130,8|0,0:2|3:2,0:0:0:0:
367,190,32113,2,0,L|385:122,1,65,0|8,3:2|0:2,0:0:0:0:
461,224,32422,6,0,L|494:81,1,130,6|0,3:2|3:2,0:0:0:0:
430,16,32886,1,8,0:2:0:0:
430,16,33040,1,0,0:2:0:0:
346,84,33195,2,0,P|306:93|207:69,1,130,0|8,3:2|0:2,0:0:0:0:
146,12,33659,1,0,0:2:0:0:
63,71,33814,2,0,L|56:152,1,65,2|0,3:2|3:2,0:0:0:0:
121,213,34123,2,0,L|131:343,1,130,8|0,0:2|3:2,0:0:0:0:
226,370,34587,2,0,L|221:302,1,65,0|8,3:2|0:2,0:0:0:0:
297,225,34896,6,0,P|356:204|437:234,1,130,6|0,3:2|3:2,0:0:0:0:
504,159,35360,1,8,0:2:0:0:
372,31,35669,1,0,3:2:0:0:
372,31,35824,1,0,3:2:0:0:
372,31,35979,1,8,0:2:0:0:
207,139,36288,2,0,L|127:128,1,65,2|0,3:2|0:2,0:0:0:0:
83,218,36597,2,0,L|147:226,1,65,8|0,0:2|0:2,0:0:0:0:
218,292,36906,1,0,3:2:0:0:
218,292,37061,1,0,3:2:0:0:
218,292,37216,2,0,P|232:342|230:370,1,65,8|0,0:2|0:2,0:0:0:0:
321,276,37525,6,0,L|337:191,1,65,6|0,0:2|3:2,0:0:0:0:
272,67,37834,2,0,L|241:209,1,130,8|8,0:2|0:2,0:0:0:0:
40,323,38453,6,0,L|24:238,1,65,6|0,0:2|3:2,0:0:0:0:
89,114,38762,2,0,L|120:256,1,130,8|8,0:2|0:2,0:0:0:0:
199,289,39226,1,0,3:2:0:0:
199,289,39303,1,0,3:2:0:0:
199,289,39381,1,0,3:2:0:0:
290,249,39535,2,0,P|336:247|367:262,1,65,2|0,3:2|3:2,0:0:0:0:
452,212,39844,6,0,L|470:339,1,126.7499941979,6|2,3:2|0:3,0:0:0:0:
368,161,40618,2,0,L|356:65,1,84.4999961319,2|8,3:2|0:3,0:0:0:0:
266,47,41082,2,0,L|276:130,1,84.4999961319,2|0,3:2|0:2,0:0:0:0:
204,198,41546,2,0,L|150:190,1,42.24999806595,2|2,0:3|0:3,0:0:0:0:
86,247,41855,1,2,0:2:0:0:
224,336,42164,5,8,0:3:0:0:
224,336,42319,2,0,P|283:324|316:339,1,84.4999961319,2|0,3:2|0:2,0:0:0:0:
395,304,42783,2,0,L|397:256,1,42.24999806595,2|2,3:3|3:3,0:0:0:0:
402,169,43092,1,2,0:2:0:0:
502,36,43401,1,8,0:3:0:0:
502,36,43556,2,0,P|457:62|372:38,1,126.7499941979,2|2,3:2|0:3,0:0:0:0:
255,122,44329,2,0,L|162:114,1,84.4999961319,0|8,0:2|0:3,0:0:0:0:
92,69,44793,6,0,P|66:104|68:153,1,84.4999961319,6|0,3:2|0:2,0:0:0:0:
131,217,45257,1,2,0:3:0:0:
131,217,45412,1,2,0:3:0:0:
65,288,45566,2,0,L|-26:278,1,84.4999961319,2|8,3:2|0:2,0:0:0:0:
195,357,46185,5,6,0:2:0:0:
283,251,46417,1,8,0:3:0:0:
372,361,46649,1,8,0:3:0:0:
372,361,46803,2,0,P|392:306|386:267,1,97.50000371933,8|8,2:3|0:3,0:0:0:0:
267,142,47422,6,0,L|130:136,1,113.1000009492,6|8,0:2|0:2,0:0:0:0:
76,78,47886,1,0,3:2:0:0:
159,27,48040,2,0,P|186:22|232:28,1,56.55000047459,8|0,0:2|3:2,0:0:0:0:
303,62,48350,2,0,P|339:64|375:62,1,56.55000047459,8|0,0:2|3:2,0:0:0:0:
447,28,48659,6,0,L|466:140,1,113.1000009492,8|8,0:2|0:2,0:0:0:0:
350,277,49277,1,8,0:2:0:0:
270,233,49432,1,8,0:2:0:0:
191,277,49587,2,0,L|95:283,1,84.82500071188,14|0,0:2|3:2,0:0:0:0:
80,319,49896,6,0,P|117:361|201:354,1,130,6|8,3:2|0:0,0:0:0:0:
370,358,50515,1,0,0:2:0:0:
370,358,50669,1,0,0:2:0:0:
370,358,50824,2,0,L|382:294,1,65,8|0,0:2|0:2,0:0:0:0:
325,206,51133,5,6,0:2:0:0:
443,94,51442,1,8,0:2:0:0:
286,32,51752,1,0,0:2:0:0:
286,32,51906,1,0,0:2:0:0:
286,32,52061,2,0,P|280:85|277:117,1,65,8|0,0:2|0:2,0:0:0:0:
206,157,52370,6,0,P|167:147|74:169,1,130,6|8,0:2|0:2,0:0:0:0:
29,247,52834,1,0,0:2:0:0:
29,247,52989,2,0,L|44:379,1,130,6|8,0:2|0:2,0:0:0:0:
125,301,53453,1,6,0:2:0:0:
151,302,54226,5,8,0:2:0:0:
159,303,54303,1,8,0:2:0:0:
167,304,54380,1,8,0:2:0:0:
175,305,54457,1,8,0:2:0:0:
183,306,54535,1,8,0:2:0:0:
252,247,54690,6,0,P|292:269|410:242,1,155.9999952393,6|0,0:2|3:2,0:0:0:0:
437,158,55154,1,8,0:2:0:0:
357,106,55308,2,0,L|351:22,1,77.99999761963,6|0,0:2|3:2,0:0:0:0:
259,16,55618,1,0,3:2:0:0:
192,72,55772,1,8,0:2:0:0:
106,22,55927,6,0,P|72:74|88:187,1,155.9999952393,6|0,0:2|3:2,0:0:0:0:
156,224,56391,1,8,0:2:0:0:
94,309,56546,2,0,L|5:316,1,77.99999761963,6|0,0:2|0:2,0:0:0:0:
180,363,56855,1,0,3:2:0:0:
257,307,57009,1,8,0:2:0:0:
342,357,57164,6,0,L|508:341,1,155.9999952393,6|0,0:2|3:2,0:0:0:0:
512,247,57628,2,0,L|356:261,1,155.9999952393,8|0,0:2|3:2,0:0:0:0:
287,195,58092,1,0,3:2:0:0:
287,195,58247,2,0,P|274:145|277:112,1,77.99999761963,8|0,0:2|3:2,0:0:0:0:
346,2,58556,6,0,P|359:52|356:85,1,77.99999761963,2|0,3:2|3:2,0:0:0:0:
414,162,58865,2,0,L|510:154,1,77.99999761963,8|0,0:2|3:2,0:0:0:0:
435,262,59174,1,0,3:2:0:0:
435,262,59329,2,0,L|339:254,1,77.99999761963,0|8,3:2|0:2,0:0:0:0:
282,322,59638,6,0,P|227:296|119:334,1,155.9999952393,6|0,0:2|3:2,0:0:0:0:
54,265,60102,2,0,L|27:96,2,155.9999952393,8|8|0,0:2|0:2|3:2,0:0:0:0:
136,197,60875,1,0,3:2:0:0:
136,197,61030,6,0,P|191:177|230:183,1,77.99999761963,10|0,0:2|3:2,0:0:0:0:
305,211,61339,1,8,0:2:0:0:
305,211,61494,1,0,3:2:0:0:
387,160,61649,2,0,L|388:106,3,38.99999880982,8|8|8|8,0:2|0:2|0:2|0:2,0:0:0:0:
405,85,61958,2,0,P|376:51|336:33,1,77.99999761963,2|2,3:2|3:2,0:0:0:0:
506,57,62267,6,0,L|496:153,1,77.99999761963,6|8,0:2|0:2,0:0:0:0:
493,167,62499,1,8,0:2:0:0:
493,167,62576,1,8,0:2:0:0:
405,229,62731,2,0,L|316:217,1,77.99999761963,6|8,0:2|0:2,0:0:0:0:
301,241,62963,1,8,0:2:0:0:
301,241,63040,1,8,0:2:0:0:
215,306,63195,6,0,P|171:317|124:312,1,77.99999761963,6|8,0:2|0:3,0:0:0:0:
76,222,63504,2,0,P|120:211|167:216,1,77.99999761963,8|6,0:3|0:2,0:0:0:0:
235,144,63814,1,8,0:3:0:0:
235,144,63891,1,8,0:3:0:0:
235,144,63968,2,0,P|241:96|231:56,1,77.99999761963,8|0,0:3|3:2,0:0:0:0:
144,16,64277,1,8,0:2:0:0:
144,16,64432,1,8,0:2:0:0:
0,112,64587,6,0,L|171:98,1,155.9999952393,6|0,0:2|3:2,0:0:0:0:
246,155,65051,1,8,0:2:0:0:
336,102,65205,2,0,P|344:44|329:8,1,77.99999761963,6|0,0:2|3:2,0:0:0:0:
424,149,65515,5,0,3:2:0:0:
355,222,65669,1,8,0:2:0:0:
427,300,65824,2,0,L|520:296,1,77.99999761963,6|0,0:2|0:2,0:0:0:0:
352,359,66133,1,0,3:2:0:0:
267,309,66288,1,8,0:2:0:0:
180,363,66442,2,0,L|81:353,1,77.99999761963,6|0,0:2|3:2,0:0:0:0:
16,279,66752,5,0,3:2:0:0:
86,208,66906,1,8,0:2:0:0:
21,132,67061,2,0,P|11:87|89:22,1,155.9999952393,6|8,0:2|0:2,0:0:0:0:
184,67,67525,1,8,3:3:0:0:
184,67,67602,1,8,3:3:0:0:
184,67,67680,1,8,3:3:0:0:
276,19,67834,2,0,L|369:12,2,77.99999761963,8|8|8,0:2|0:2|0:2,0:0:0:0:
329,114,68298,6,0,L|510:104,1,155.9999952393,6|0,0:2|3:2,0:0:0:0:
453,200,68762,1,8,0:2:0:0:
453,200,68917,1,0,0:2:0:0:
379,268,69071,2,0,L|374:347,1,77.99999761963,8|8,0:2|0:2,0:0:0:0:
280,294,69381,2,0,L|275:216,1,77.99999761963,8|0,0:2|3:2,0:0:0:0:
196,161,69690,6,0,P|171:202|185:326,1,155.9999952393,6|8,0:2|0:2,0:0:0:0:
104,373,70154,1,0,3:2:0:0:
26,314,70308,2,0,L|11:236,1,77.99999761963,8|0,0:2|3:2,0:0:0:0:
72,151,70618,2,0,L|57:73,1,77.99999761963,8|0,0:2|3:2,0:0:0:0:
170,91,70927,6,0,B|254:72|234:138|346:109,1,155.9999952393,8|8,0:2|0:2,0:0:0:0:
409,57,71391,1,0,3:2:0:0:
491,124,71546,2,0,P|501:187|493:212,1,77.99999761963,8|0,0:2|3:2,0:0:0:0:
481,224,71777,1,0,3:2:0:0:
481,224,71855,2,0,P|415:216|398:216,1,77.99999761963,8|0,0:2|0:0,0:0:0:0:
316,280,72164,5,6,0:2:0:0:
222,229,72319,1,8,0:2:0:0:
222,229,72396,1,8,0:2:0:0:
222,229,72473,2,0,L|214:165,3,38.99999880982,8|8|14|8,0:2|0:2|0:2|0:2,0:0:0:0:
172,236,72783,2,0,L|167:274,3,38.99999880982,8|8|8|8,0:2|0:2|0:2|0:2,0:0:0:0:
124,222,73092,2,0,L|120:184,3,38.99999880982,8|8|8|8,0:3|0:3|0:3|0:3,0:0:0:0:
80,212,73401,5,14,0:3:0:0:
95,127,74174,5,0,3:2:0:0:
95,127,74329,1,0,3:2:0:0:
179,74,74484,6,0,B|264:63|239:130|359:103,1,155.9999952393,6|0,0:2|3:2,0:0:0:0:
411,55,74948,1,8,0:2:0:0:
411,55,75025,1,8,0:2:0:0:
411,55,75102,1,8,0:2:0:0:
491,112,75257,2,0,P|497:169|506:214,1,77.99999761963,0|0,3:2|0:2,0:0:0:0:
443,275,75566,2,0,P|396:308|362:338,1,77.99999761963,8|0,0:2|3:2,0:0:0:0:
288,277,75875,5,2,3:2:0:0:
211,338,76030,1,0,3:2:0:0:
130,296,76185,1,8,0:2:0:0:
130,296,76339,2,0,P|121:252|131:194,1,77.99999761963,0|0,3:2|3:2,0:0:0:0:
199,140,76649,5,0,3:2:0:0:
199,140,76803,1,8,0:2:0:0:
279,205,76958,2,0,P|375:186|442:176,1,155.9999952393,6|0,0:2|3:2,0:0:0:0:
503,89,77422,2,0,P|505:44|493:8,1,77.99999761963,8|0,0:2|3:2,0:0:0:0:
382,0,77731,2,0,P|371:37|374:76,1,77.99999761963,2|0,3:2|0:2,0:0:0:0:
291,137,78040,1,8,0:2:0:0:
291,137,78195,1,0,0:2:0:0:
196,84,78350,6,0,L|181:-10,2,77.99999761963,2|0|8,3:2|3:2|0:2,0:0:0:0:
127,161,78814,1,0,3:2:0:0:
127,161,78891,1,0,3:2:0:0:
127,161,78968,2,0,P|76:175|36:174,2,77.99999761963,0|0|8,3:2|3:2|0:2,0:0:0:0:
211,230,79432,6,0,P|154:269|63:294,1,155.9999952393,6|0,0:2|3:2,0:0:0:0:
259,328,79896,2,0,L|356:323,1,77.99999761963,8|8,0:2|0:2,0:0:0:0:
431,266,80205,2,0,P|432:222|416:174,1,77.99999761963,2|0,0:2|0:2,0:0:0:0:
351,122,80515,1,8,0:2:0:0:
351,122,80669,1,0,3:2:0:0:
418,39,80824,6,0,L|497:29,2,77.99999761963,6|0|8,0:2|3:2|0:2,0:0:0:0:
320,11,81288,2,0,P|269:55|181:47,1,155.9999952393,8|0,0:2|0:2,0:0:0:0:
109,122,81752,1,8,0:2:0:0:
109,122,81906,6,0,L|103:313,1,155.9999952393,6|0,0:2|3:2,0:0:0:0:
189,339,82370,1,8,0:2:0:0:
189,339,82525,1,8,0:2:0:0:
280,283,82680,2,0,P|335:280|392:298,1,77.99999761963,2|0,3:2|0:2,0:0:0:0:
286,185,82989,2,0,P|247:190|208:186,1,77.99999761963,8|0,0:2|3:2,0:0:0:0:
326,84,83298,6,0,P|381:125|376:239,1,155.9999952393,2|8,3:2|0:2,0:0:0:0:
318,279,83762,2,0,L|213:299,1,77.99999761963,10|8,0:2|0:2,0:0:0:0:
159,359,84071,1,8,0:2:0:0:
159,359,84149,1,8,0:2:0:0:
159,359,84226,1,8,0:2:0:0:
59,297,84381,6,0,L|34:141,1,155.9999952393,6|0,0:2|3:2,0:0:0:0:
108,62,84844,2,0,P|156:51|207:69,1,77.99999761963,8|0,0:2|3:2,0:0:0:0:
323,132,85154,2,0,P|275:143|224:125,1,77.99999761963,8|0,0:2|3:2,0:0:0:0:
412,76,85463,2,0,L|422:173,1,77.99999761963,8|0,0:2|3:2,0:0:0:0:
499,239,85772,5,8,0:2:0:0:
433,314,85927,1,0,3:2:0:0:
433,314,86082,1,8,0:2:0:0:
341,273,86236,2,0,P|276:269|199:332,1,155.9999952393,0|0,3:2|3:2,0:0:0:0:
103,300,86700,1,8,0:2:0:0:
103,300,86855,6,0,P|81:239|111:131,1,155.9999952393,6|0,3:2|3:2,0:0:0:0:
204,120,87319,2,0,L|220:212,1,77.99999761963,8|0,0:2|3:2,0:0:0:0:
300,264,87628,2,0,L|323:345,1,77.99999761963,10|0,0:2|3:2,0:0:0:0:
421,365,87937,1,8,0:2:0:0:
421,365,88092,1,0,3:2:0:0:
500,287,88247,6,0,P|502:239|491:189,1,77.99999761963,8|0,0:2|3:2,0:0:0:0:
428,134,88556,1,8,0:2:0:0:
428,134,88710,2,0,L|437:26,1,77.99999761963,2|8,3:2|0:2,0:0:0:0:
337,5,89020,2,0,L|331:83,1,77.99999761963,0|8,3:2|0:2,0:0:0:0:
163,151,89329,6,0,P|212:141|308:209,1,155.9999952393,6|0,3:2|3:2,0:0:0:0:
246,283,89793,2,0,L|161:297,1,77.99999761963,8|0,0:2|3:2,0:0:0:0:
91,359,90102,2,0,P|51:332|4:318,1,77.99999761963,8|0,0:2|3:2,0:0:0:0:
4,217,90412,1,8,0:2:0:0:
4,217,90566,1,0,3:2:0:0:
91,151,90721,6,0,L|91:58,1,77.99999761963,8|0,0:2|3:2,0:0:0:0:
186,19,91030,1,8,0:2:0:0:
271,83,91185,2,0,L|385:76,1,77.99999761963,0|8,3:2|0:2,0:0:0:0:
412,172,91494,2,0,L|334:176,1,77.99999761963,0|8,3:2|0:2,0:0:0:0:
269,248,91803,5,6,3:2:0:0:
269,248,92576,1,10,0:2:0:0:
269,248,93195,1,8,0:2:0:0:
191,211,93350,1,8,0:2:0:0:
119,273,93504,1,8,0:2:0:0:
197,310,93659,1,10,0:2:0:0:
421,232,94123,5,0,3:2:0:0:
421,232,94200,1,0,3:2:0:0:
421,232,94277,2,0,L|413:69,1,155.9999952393,6|0,0:2|3:2,0:0:0:0:
321,14,94741,1,8,0:2:0:0:
321,14,94896,1,0,3:2:0:0:
237,83,95051,2,0,P|179:93|131:82,1,77.99999761963,8|0,0:2|3:2,0:0:0:0:
48,177,95360,2,0,P|86:175|124:184,1,77.99999761963,8|0,0:2|3:2,0:0:0:0:
236,191,95669,6,0,P|255:272|216:357,1,155.9999952393,8|8,0:2|0:2,0:0:0:0:
158,260,96133,2,0,L|397:279,1,233.9999928589,0|0,0:0|3:2,0:0:0:0:
487,232,96752,5,6,3:2:0:0:
487,232,97525,1,6,3:2:0:0:
487,232,98143,1,8,0:2:0:0:
444,143,98298,1,8,0:2:0:0:
355,181,98453,1,8,0:2:0:0:
312,92,98608,1,14,0:2:0:0:
