osu file format v14

[General]
AudioFilename: audio.mp3
AudioLeadIn: 0
PreviewTime: 53689
Countdown: 0
SampleSet: Soft
StackLeniency: 0.7
Mode: 0
LetterboxInBreaks: 0
StoryFireInFront: 0
WidescreenStoryboard: 0

[Editor]
Bookmarks: 49860,54654,72168,74602,124087,128881,158457,159808
DistanceSpacing: 2.2
BeatDivisor: 4
GridSize: 4
TimelineZoom: 1.3

[Metadata]
Title:fake town baby
TitleUnicode:fake town baby
Artist:UNISON SQUARE GARDEN
ArtistUnicode:UNISON SQUARE GARDEN
Creator:Nevo
Version:Despair
Source:血界戦線 & BEYOND
Tags:kekkai sensen glaceon - Frontier - -_Frontier_- nao tomori naotoshi agatsu anime japanese op opening s2 season 2 blood Blockade Battlefront
BeatmapID:1949029
BeatmapSetID:933600

[Difficulty]
HPDrainRate:6
CircleSize:4
OverallDifficulty:9
ApproachRate:9.3
SliderMultiplier:1.7
SliderTickRate:1

[Events]
//Background and Video events
0,0,"1c2059ba2c9929679c2fa3835edab59c.jpg",0,0
//Break Periods
//Storyboard Layer 0 (Background)
//Storyboard Layer 1 (Fail)
//Storyboard Layer 2 (Pass)
//Storyboard Layer 3 (Foreground)
//Storyboard Sound Samples

[TimingPoints]
412,309.2783505155,4,2,1,70,1,0
412,-133.3333333333,4,2,1,70,0,0
10308,-100,4,2,1,70,0,0
39844,-153.8461538462,4,2,1,70,0,0
47422,-83.33333333333,4,2,1,70,0,0
49896,-66.66666666667,4,2,1,80,0,1
50128,-66.66666666667,4,2,1,5,0,1
50205,-100,4,2,1,80,0,0
51133,-66.66666666667,4,2,1,80,0,1
51365,-66.66666666667,4,2,1,5,0,1
51442,-100,4,2,1,70,0,0
52370,-66.66666666667,4,2,1,80,0,1
52602,-66.66666666667,4,2,1,5,0,1
52680,-100,4,2,1,80,0,0
52989,-66.66666666667,4,2,1,80,0,1
53221,-66.66666666667,4,2,1,5,0,1
53298,-100,4,2,1,40,0,0
53453,-66.66666666667,4,2,1,80,0,1
53530,-66.66666666667,4,2,1,5,0,1
53762,-100,4,2,1,70,0,0
54690,-83.33333333333,4,2,1,90,0,1
74020,-100,4,2,1,90,0,0
74484,-71.42857142857,4,2,1,90,0,1
94277,-83.33333333333,4,2,1,80,0,0

[Colours]
Combo1 : 11,166,249
Combo2 : 166,40,44
Combo3 : 192,192,192

[HitObjects]
49,341,412,6,0,P|88:374|103:410,1,63.75000243187,6|0,3:2|0:2,0:2:0:0:
184,259,721,2,0,P|145:292|130:328,1,63.75000243187,0|0,3:2|0:2,0:2:0:0:
49,177,1030,2,0,P|88:210|103:246,1,63.75000243187,0|0,3:2|0:2,0:2:0:0:
184,95,1339,2,0,P|145:128|130:164,1,63.75000243187,0|0,3:2|0:2,0:2:0:0:
264,255,1649,6,0,L|347:245,1,63.75000243187,2|0,3:2|0:2,0:2:0:0:
458,314,1958,2,0,L|375:304,1,63.75000243187,0|0,3:2|0:2,0:2:0:0:
264,373,2267,2,0,L|347:363,1,63.75000243187,0|0,3:2|0:2,0:2:0:0:
437,227,2576,1,0,3:2:0:0:
298,158,2731,1,2,0:2:0:0:
298,158,2808,1,2,0:2:0:0:
298,158,2886,6,0,L|377:164,1,63.75000243187,2|0,3:2|0:2,0:2:0:0:
200,259,3195,2,0,L|279:253,1,63.75000243187,0|0,3:2|0:2,0:2:0:0:
102,158,3504,2,0,L|181:164,1,63.75000243187,0|0,3:2|0:2,0:2:0:0:
4,259,3814,2,0,L|83:253,1,63.75000243187,0|0,3:2|0:2,0:2:0:0:
46,97,4123,6,0,P|24:131|18:163,1,63.75000243187,2|0,3:2|0:2,0:2:0:0:
59,19,4432,2,0,P|19:22|-14:42,1,63.75000243187,0|0,3:2|0:2,0:2:0:0:
102,158,4741,1,0,3:2:0:0:
166,95,4896,2,0,L|241:89,1,63.75000243187,0|0,3:2|0:2,0:2:0:0:
353,1,5205,5,8,0:2:0:0:
353,1,5283,1,8,0:2:0:0:
353,1,5360,2,0,P|321:21|295:49,1,63.75000243187,6|0,3:2|0:2,0:2:0:0:
443,94,5669,2,0,P|405:85|368:88,1,63.75000243187,0|0,3:2|0:2,0:2:0:0:
441,222,5979,2,0,P|420:190|392:164,1,63.75000243187,0|0,3:2|0:2,0:2:0:0:
348,312,6288,2,0,P|356:274|354:237,1,63.75000243187,0|0,3:2|0:2,0:2:0:0:
225,317,6597,6,0,L|231:404,1,63.75000243187,2|0,3:2|0:2,0:2:0:0:
101,313,6906,2,0,P|94:282|94:251,1,63.75000243187,0|0,3:2|0:2,0:2:0:0:
148,153,7216,1,0,3:2:0:0:
215,221,7370,1,0,3:2:0:0:
270,144,7525,1,0,3:2:0:0:
225,317,7680,1,8,0:2:0:0:
225,317,7757,1,8,0:2:0:0:
225,317,7834,6,0,L|135:311,1,63.75000243187,2|0,3:2|0:2,0:2:0:0:
316,247,8143,2,0,L|461:237,1,127.5000048637,2|0,3:2|3:2,0:2:0:0:
370,150,8607,1,0,0:2:0:0:
256,66,8762,6,0,L|346:72,1,63.75000243187,2|0,3:2|0:2,0:2:0:0:
165,136,9071,2,0,L|19:145,1,127.5000048637,2|0,3:2|0:2,0:2:0:0:
94,47,9535,1,0,0:2:0:0:
217,221,9690,5,8,0:2:0:0:
4,260,9844,1,8,0:2:0:0:
339,15,10308,6,0,P|351:52|340:116,1,85,6|0,3:2|0:2,0:2:0:0:
217,221,10618,1,8,0:2:0:0:
431,197,10772,1,0,3:2:0:0:
231,351,10927,2,0,P|301:327|429:352,1,170,8|0,0:2|3:2,0:2:0:0:
267,110,11391,6,0,P|197:86|69:111,1,170,2|0,3:2|3:2,0:2:0:0:
0,282,11855,1,8,0:2:0:0:
127,242,12009,1,0,3:2:0:0:
36,35,12164,2,0,B|14:73|14:73|32:213,1,170,8|8,0:2|0:2,0:2:0:0:
30,198,12551,1,8,0:2:0:0:
30,198,12628,1,8,0:2:0:0:
263,150,12783,5,6,3:2:0:0:
213,268,12937,1,0,3:2:0:0:
173,131,13092,1,8,0:2:0:0:
357,179,13247,1,0,3:2:0:0:
128,224,13401,2,0,B|170:212|225:227|209:241|267:256|293:242,1,170,8|0,0:2|3:2,0:2:0:0:
512,102,13865,6,0,P|473:87|408:93,1,85,2|0,3:2|0:2,0:2:0:0:
263,150,14174,1,0,3:2:0:0:
467,193,14329,1,8,0:2:0:0:
336,73,14484,1,0,3:2:0:0:
358,360,14638,2,0,P|364:262|353:153,1,170,8|8,0:2|0:2,0:2:0:0:
358,190,15025,1,8,0:2:0:0:
358,190,15102,1,8,0:2:0:0:
147,252,15257,5,6,3:2:0:0:
401,284,15412,1,0,3:2:0:0:
140,366,15566,1,8,0:2:0:0:
215,159,15721,1,0,3:2:0:0:
237,377,15875,1,8,0:2:0:0:
59,303,16030,1,0,3:2:0:0:
231,260,16185,2,0,L|119:249,1,85,2|8,3:2|0:2,0:2:0:0:
0,226,16494,5,2,3:2:0:0:
59,303,16649,1,0,3:2:0:0:
145,148,16803,1,8,0:2:0:0:
146,251,16958,1,0,3:2:0:0:
232,103,17113,1,8,0:2:0:0:
46,142,17267,1,0,3:2:0:0:
140,366,17422,1,8,0:2:0:0:
178,383,17499,1,8,3:2:0:0:
220,385,17576,1,8,3:2:0:0:
259,369,17653,1,8,3:2:0:0:
290,340,17731,6,0,L|283:222,1,85,6|0,0:2|0:2,0:2:0:0:
462,273,18040,1,8,0:2:0:0:
390,379,18195,2,0,L|394:300,1,42.5,0|0,3:2|3:2,3:2:0:0:
344,180,18350,1,8,0:2:0:0:
305,163,18427,1,8,0:2:0:0:
263,163,18504,1,8,0:2:0:0:
224,179,18581,1,8,0:2:0:0:
189,199,18659,1,8,0:2:0:0:
147,200,18736,1,8,0:2:0:0:
108,183,18814,6,0,L|100:60,1,85,6|0,3:2|0:2,0:2:0:0:
296,13,19123,1,0,3:2:0:0:
287,271,19277,1,8,0:2:0:0:
197,80,19432,1,0,3:2:0:0:
197,80,19509,1,0,3:2:0:0:
197,80,19587,1,8,0:2:0:0:
379,191,19741,1,0,3:2:0:0:
379,191,19819,1,0,3:2:0:0:
379,191,19896,1,0,3:2:0:0:
192,354,20051,6,0,P|118:325|25:361,1,170,6|0,0:2|3:2,0:2:0:0:
140,246,20515,2,0,P|197:260|242:286,1,85,8|0,0:2|0:2,0:2:0:0:
85,181,20824,2,0,P|28:195|-17:221,1,85,0|0,3:2|0:2,0:2:0:0:
150,120,21133,2,0,P|207:134|252:160,1,85,8|0,0:2|0:2,0:2:0:0:
321,278,21442,6,0,L|316:169,1,85,2|0,3:2|0:2,0:2:0:0:
388,58,21752,1,8,0:2:0:0:
406,161,21906,1,0,0:2:0:0:
287,76,22061,1,0,3:2:0:0:
226,230,22216,2,0,L|229:145,1,85,2|8,3:2|0:2,0:2:0:0:
168,324,22525,6,0,P|236:276|320:277,1,170,2|0,3:2|0:2,0:2:0:0:
435,384,22989,2,0,P|402:338|395:296,1,85,8|0,0:2|0:2,0:2:0:0:
508,221,23298,2,0,L|484:316,1,85,0|0,3:2|3:2,0:2:0:0:
438,168,23607,2,0,P|482:132|523:123,1,85,8|0,0:2|0:2,0:2:0:0:
373,228,23917,6,0,L|278:204,1,85,2|0,3:2|3:2,0:2:0:0:
133,167,24226,2,0,L|228:143,1,85,8|0,0:2|3:2,0:2:0:0:
66,101,24535,1,0,3:2:0:0:
72,245,24690,2,0,L|154:265,1,85,2|8,3:2|3:2,0:2:0:0:
294,357,24999,6,0,P|222:342|133:390,1,170,2|0,3:2|3:2,0:2:0:0:
232,306,25463,2,0,P|241:260|226:211,1,85,8|0,0:2|0:2,0:2:0:0:
82,221,25772,2,0,P|117:251|167:263,1,85,0|0,3:2|3:2,0:2:0:0:
75,131,26082,2,0,P|30:146|-4:183,1,85,8|0,0:2|0:2,0:2:0:0:
171,149,26391,6,0,L|215:69,1,85,2|0,3:2|0:2,0:2:0:0:
340,20,26700,1,8,0:2:0:0:
388,107,26855,1,0,0:2:0:0:
292,109,27009,1,0,3:2:0:0:
441,21,27164,1,0,3:2:0:0:
437,195,27319,2,0,P|388:206|340:195,1,85,8|0,0:2|0:2,0:2:0:0:
192,22,27628,6,0,L|207:131,1,85,6|0,0:2|3:2,0:2:0:0:
60,178,27937,2,0,P|109:167|157:178,1,85,8|0,0:2|0:2,0:2:0:0:
288,233,28247,1,8,0:2:0:0:
107,263,28401,1,0,3:2:0:0:
239,384,28556,6,0,L|224:275,1,85,6|0,0:2|0:2,0:2:0:0:
371,228,28865,2,0,P|322:239|274:228,1,85,8|0,0:2|0:2,0:2:0:0:
142,172,29174,1,8,0:2:0:0:
323,142,29329,1,0,3:2:0:0:
323,142,29406,1,0,3:2:0:0:
323,142,29484,1,8,3:0:0:0:
107,263,29638,1,2,3:2:0:0:
285,325,29793,2,8,L|333:312,1,42.5,8|8,0:2|0:2,0:2:0:0:
371,228,29948,6,0,P|365:290|425:393,1,170,6|0,3:2|3:2,0:2:0:0:
462,237,30412,2,0,L|455:146,1,85,8|0,0:2|0:2,0:2:0:0:
329,57,30721,2,0,L|322:148,1,85,0|0,3:2|3:2,0:2:0:0:
196,237,31030,2,0,L|189:146,1,85,8|0,0:2|0:2,0:2:0:0:
22,191,31339,6,0,P|75:204|121:192,1,85,2|0,3:2|0:2,0:2:0:0:
237,74,31649,2,0,P|184:61|138:73,1,85,8|0,0:2|0:2,0:2:0:0:
282,240,31958,1,0,3:2:0:0:
322,141,32113,2,0,L|415:133,1,85,0|8,3:2|0:2,0:2:0:0:
376,325,32422,6,0,L|175:316,1,170,6|0,3:2|3:2,0:2:0:0:
88,188,32886,2,0,P|126:243|138:279,1,85,8|0,0:2|0:2,0:2:0:0:
241,106,33195,2,0,P|203:161|191:197,1,85,0|0,3:2|3:2,0:2:0:0:
88,24,33504,2,0,P|126:79|138:115,1,85,8|0,0:2|0:2,0:2:0:0:
0,217,33814,5,2,3:2:0:0:
25,108,33968,1,0,3:2:0:0:
56,300,34123,1,8,0:2:0:0:
88,188,34277,1,0,0:2:0:0:
239,363,34432,2,0,P|285:370|323:359,1,85,0|0,3:2|3:2,0:2:0:0:
397,232,34741,1,8,0:2:0:0:
285,117,34896,6,0,P|273:184|285:312,1,170,6|0,3:2|3:2,0:2:0:0:
469,276,35360,2,0,P|413:238|361:224,1,85,8|0,0:2|0:2,0:2:0:0:
220,261,35669,1,0,3:2:0:0:
378,336,35824,1,0,3:2:0:0:
204,369,35979,2,0,P|165:351|132:324,1,85,8|0,0:2|0:2,0:2:0:0:
227,176,36288,6,0,L|218:278,1,85,2|0,3:2|0:2,0:2:0:0:
87,136,36597,2,0,L|96:238,1,85,8|0,0:2|0:2,0:2:0:0:
313,147,36906,1,0,3:2:0:0:
171,104,37061,1,0,3:2:0:0:
261,0,37216,2,0,L|253:84,1,85,8|0,0:2|0:2,0:2:0:0:
473,138,37525,6,0,P|424:115|359:114,1,85,6|0,0:2|3:2,0:2:0:0:
415,294,37834,2,0,L|407:209,1,85,8|0,0:2|0:2,0:2:0:0:
325,53,38143,1,8,0:2:0:0:
468,39,38298,1,0,3:2:0:0:
314,266,38453,6,0,P|265:289|200:290,1,85,6|0,0:2|3:2,0:2:0:0:
256,110,38762,2,0,L|248:194,1,85,8|0,0:2|0:2,0:2:0:0:
157,348,39071,1,8,0:2:0:0:
379,330,39226,1,0,3:2:0:0:
379,330,39303,1,0,3:2:0:0:
379,330,39381,1,0,3:2:0:0:
234,293,39535,1,2,3:2:0:0:
428,254,39690,1,0,3:2:0:0:
354,66,39844,6,0,P|351:151|362:193,1,110.4999949417,6|0,3:2|0:2,0:2:0:0:
506,145,40308,2,0,P|452:132|428:131,1,55.24999747086,2|2,0:3|0:3,0:3:0:0:
248,193,40618,2,0,P|324:176|363:175,1,110.4999949417,2|8,3:2|0:3,0:2:0:0:
213,328,41082,6,0,P|133:310|92:309,1,110.4999949417,2|0,3:2|0:2,0:2:0:0:
88,178,41546,1,2,0:3:0:0:
159,232,41700,1,2,0:3:0:0:
10,221,41855,2,0,P|-3:172|33:102,1,110.4999949417,2|8,0:2|0:3,0:2:0:0:
183,21,42319,6,0,B|239:19|239:19|258:32|258:32|313:28,1,110.4999949417,2|0,3:2|0:2,0:2:0:0:
416,88,42783,2,0,L|340:83,1,55.24999747086,2|2,3:3|3:3,0:3:0:0:
472,151,43092,2,0,P|496:103|475:28,1,110.4999949417,2|8,0:2|0:3,0:2:0:0:
383,174,43556,6,0,L|387:303,1,110.4999949417,2|0,3:2|0:2,0:2:0:0:
247,331,44020,1,2,0:3:0:0:
305,255,44174,1,2,0:3:0:0:
197,262,44329,2,0,L|119:263,1,55.24999747086,0|0,0:2|0:2,0:2:0:0:
54,226,44638,1,8,0:3:0:0:
149,47,44793,6,0,P|161:103|163:179,1,110.4999949417,6|0,3:2|0:2,0:2:0:0:
193,316,45257,2,0,P|194:272|205:242,1,55.24999747086,2|2,0:3|0:3,0:3:0:0:
262,146,45566,2,0,P|263:190|274:220,1,55.24999747086,2|0,3:2|0:2,0:2:0:0:
334,324,45875,2,0,P|335:280|346:250,1,55.24999747086,8|0,0:2|0:2,0:2:0:0:
431,132,46185,5,6,0:2:0:0:
196,261,46417,1,8,0:3:0:0:
464,366,46649,1,8,0:3:0:0:
357,238,46803,1,8,0:3:0:0:
231,371,46958,1,8,0:2:0:0:
190,374,47035,1,8,0:2:0:0:
150,362,47112,1,8,0:3:0:0:
117,336,47189,1,8,0:3:0:0:
97,300,47267,1,8,0:3:0:0:
91,259,47344,1,8,0:3:0:0:
106,220,47422,6,0,L|-2:235,1,101.9999968872,6|0,0:2|3:2,0:2:0:0:
4,234,47654,1,0,3:2:0:0:
4,234,47731,1,8,0:2:0:0:
122,108,47886,2,0,L|133:47,2,50.9999984436,0|0|8,3:2|3:2|0:2,0:2:0:0:
196,261,48195,5,0,3:2:0:0:
196,261,48272,1,0,3:2:0:0:
196,261,48350,1,8,0:2:0:0:
242,87,48504,2,0,L|231:26,2,50.9999984436,0|0|8,3:2|3:2|0:2,0:2:0:0:
339,244,48814,5,0,3:2:0:0:
339,244,48891,1,0,3:2:0:0:
339,244,48968,1,8,0:2:0:0:
362,61,49123,2,0,L|373:0,2,50.9999984436,0|0|8,3:2|3:2|0:2,0:2:0:0:
481,235,49432,5,8,0:2:0:0:
506,132,49587,2,0,P|442:135|403:169,1,101.9999968872,8|0,0:2|0:2,0:2:0:0:
358,344,49896,6,0,B|265:320|265:320|152:331,1,191.2500072956,6|0,3:2|0:2,0:2:0:0:
89,310,50205,2,0,L|182:301,1,85,8|0,0:2|0:2,0:2:0:0:
263,218,50515,1,0,0:2:0:0:
168,206,50669,1,0,0:2:0:0:
306,125,50824,2,0,L|390:133,1,85,8|0,0:2|0:2,0:2:0:0:
242,52,51133,6,0,P|212:139|262:217,1,191.2500072956,6|0,0:2|0:2,0:2:0:0:
332,271,51442,2,0,L|221:262,1,85,8|0,0:2|0:2,0:2:0:0:
105,321,51752,1,0,0:2:0:0:
217,348,51906,1,0,0:2:0:0:
126,224,52061,2,0,L|42:231,1,85,8|0,0:2|0:2,0:2:0:0:
45,70,52370,6,0,B|72:15|72:15|79:171,1,191.2500072956,6|0,0:2|0:2,0:2:0:0:
126,224,52680,2,0,L|115:99,1,85,8|0,0:2|0:2,0:2:0:0:
425,237,52989,6,0,P|368:204|242:221,1,191.2500072956,6|0,0:2|0:2,0:2:0:0:
191,288,53298,1,8,0:2:0:0:
202,115,53453,6,0,L|209:37,1,63.75000243187,6|0,0:2|0:2,0:2:0:0:
488,181,54226,1,8,0:2:0:0:
512,223,54303,1,8,0:2:0:0:
509,273,54380,1,8,0:2:0:0:
480,313,54457,1,8,0:2:0:0:
434,331,54535,1,8,0:2:0:0:
386,320,54612,1,8,0:2:0:0:
351,285,54690,6,0,L|358:393,1,101.9999968872,6|0,0:2|0:2,0:2:0:0:
253,219,54999,1,0,3:2:0:0:
197,335,55154,1,8,0:2:0:0:
134,139,55308,6,0,L|127:240,1,101.9999968872,6|0,0:2|3:2,0:2:0:0:
265,77,55618,1,0,3:2:0:0:
362,194,55772,1,8,0:2:0:0:
411,0,55927,6,0,L|418:108,1,101.9999968872,6|0,0:2|0:2,0:2:0:0:
384,302,56236,1,0,3:2:0:0:
247,188,56391,1,8,0:2:0:0:
462,208,56546,6,0,P|407:195|333:196,1,101.9999968872,6|0,0:2|0:2,0:2:0:0:
126,257,56855,1,0,3:2:0:0:
284,315,57009,1,8,0:2:0:0:
65,133,57164,6,0,P|133:123|253:197,1,203.9999937744,6|0,0:2|3:2,0:2:0:0:
383,381,57628,2,0,L|366:232,1,101.9999968872,8|0,0:2|0:2,0:2:0:0:
354,95,57937,1,0,3:2:0:0:
453,138,58092,1,0,3:2:0:0:
246,187,58247,1,8,0:2:0:0:
459,267,58401,1,0,3:2:0:0:
441,38,58556,5,2,3:2:0:0:
331,285,58710,1,0,3:2:0:0:
240,93,58865,1,8,0:2:0:0:
387,214,59020,1,0,3:2:0:0:
180,268,59174,1,0,3:2:0:0:
352,122,59329,2,0,L|471:140,1,101.9999968872,0|8,3:2|0:2,0:2:0:0:
214,8,59638,6,0,L|-8:41,1,203.9999937744,6|0,0:2|3:2,0:2:0:0:
263,273,60102,2,0,P|275:217|270:153,1,101.9999968872,8|0,0:2|0:2,0:2:0:0:
42,140,60412,1,8,0:2:0:0:
166,211,60566,1,0,0:2:0:0:
0,304,60721,1,0,3:2:0:0:
138,112,60875,1,0,3:2:0:0:
227,368,61030,6,0,L|345:357,1,101.9999968872,10|0,0:2|3:2,0:2:0:0:
415,209,61339,1,8,0:2:0:0:
508,364,61494,1,0,3:2:0:0:
506,126,61649,1,8,0:2:0:0:
462,100,61726,1,8,0:2:0:0:
412,92,61803,1,8,0:2:0:0:
362,103,61880,1,8,0:2:0:0:
321,132,61958,2,0,L|324:197,1,50.9999984436,2|0,3:2|3:2,3:2:0:0:
328,329,62113,1,2,3:2:0:0:
222,183,62267,5,6,0:2:0:0:
328,82,62422,1,8,0:2:0:0:
324,107,62499,1,8,0:2:0:0:
321,132,62576,1,8,0:2:0:0:
123,234,62731,5,6,0:2:0:0:
231,121,62886,1,8,0:2:0:0:
226,152,62963,1,8,0:2:0:0:
222,183,63040,1,8,0:2:0:0:
24,285,63195,5,6,0:2:0:0:
135,157,63350,1,8,0:3:0:0:
128,195,63427,1,8,0:3:0:0:
123,234,63504,1,8,0:3:0:0:
27,87,63659,5,6,0:2:0:0:
183,43,63814,1,8,0:3:0:0:
183,43,63891,1,8,0:3:0:0:
183,43,63968,1,8,0:3:0:0:
9,192,64123,1,0,3:2:0:0:
251,184,64277,1,8,0:2:0:0:
7,330,64432,1,8,0:2:0:0:
266,351,64587,6,0,L|411:331,1,101.9999968872,6|0,0:2|0:2,0:2:0:0:
465,152,64896,1,0,3:2:0:0:
307,252,65051,1,8,0:2:0:0:
512,278,65205,6,0,L|410:264,1,101.9999968872,6|0,0:2|3:2,0:2:0:0:
305,56,65515,1,0,3:2:0:0:
465,152,65670,1,8,0:2:0:0:
184,184,65824,6,0,L|285:170,1,101.9999968872,6|0,0:2|0:2,0:2:0:0:
448,0,66133,1,0,3:2:0:0:
218,82,66288,1,8,0:2:0:0:
368,224,66442,6,0,P|382:151|351:95,1,101.9999968872,6|0,0:2|3:2,0:2:0:0:
289,298,66752,1,0,3:2:0:0:
441,288,66906,1,8,0:2:0:0:
227,384,67061,6,0,B|150:372|150:372|94:381|94:381|15:369,1,203.9999937744,6|8,0:2|0:2,0:2:0:0:
259,221,67525,1,8,3:3:0:0:
259,221,67602,1,8,3:3:0:0:
259,221,67680,1,8,3:3:0:0:
24,152,67834,5,8,0:2:0:0:
113,283,67989,1,8,0:2:0:0:
106,70,68143,1,8,0:2:0:0:
19,354,68298,6,0,P|12:265|29:129,1,203.9999937744,6|0,0:2|3:2,0:2:0:0:
209,62,68762,2,0,L|193:170,1,101.9999968872,8|0,0:2|0:2,0:2:0:0:
356,350,69071,1,8,0:2:0:0:
356,350,69149,1,8,0:2:0:0:
356,350,69226,1,8,0:2:0:0:
325,131,69381,1,8,0:2:0:0:
223,262,69535,1,0,3:2:0:0:
428,249,69690,6,0,P|352:226|311:230,1,101.9999968872,6|0,0:2|0:2,0:2:0:0:
96,185,69999,2,0,P|172:162|213:166,1,101.9999968872,8|0,0:2|3:2,0:2:0:0:
193,162,70231,1,0,3:2:0:0:
193,162,70308,1,8,0:2:0:0:
84,295,70463,2,0,L|16:304,2,50.9999984436,0|0|8,3:2|3:2|0:2,3:2:0:0:
254,356,70772,5,0,3:2:0:0:
254,356,70850,1,0,3:2:0:0:
254,356,70927,2,0,L|262:246,1,101.9999968872,8|0,0:2|3:2,0:2:0:0:
261,254,71159,1,0,3:2:0:0:
261,254,71236,1,8,0:2:0:0:
361,157,71391,1,0,3:2:0:0:
361,157,71468,1,0,3:2:0:0:
361,157,71546,1,8,0:2:0:0:
169,53,71700,1,0,3:2:0:0:
169,53,71778,1,0,3:2:0:0:
169,53,71855,2,0,B|158:102|158:102|180:218,1,152.9999953308,8|0,0:2|0:2,0:2:0:0:
127,284,72164,5,6,0:2:0:0:
327,71,72319,1,8,0:2:0:0:
369,43,72396,1,8,0:2:0:0:
419,43,72473,1,8,0:2:0:0:
461,71,72550,1,8,0:2:0:0:
481,117,72628,1,14,0:2:0:0:
473,167,72705,1,8,0:2:0:0:
439,204,72782,1,8,0:2:0:0:
390,216,72860,1,8,0:2:0:0:
340,209,72937,1,8,0:2:0:0:
294,230,73014,1,8,0:2:0:0:
268,273,73091,1,8,0:3:0:0:
269,323,73169,1,8,0:3:0:0:
297,365,73246,1,8,0:3:0:0:
344,384,73323,1,8,0:3:0:0:
393,375,73401,1,14,0:3:0:0:
392,130,74174,2,0,P|354:119|282:124,1,85,0|0,3:2|3:2,0:2:0:0:
27,179,74484,6,0,B|88:164|88:164|169:171,1,118.9999963684,6|0,0:2|0:2,0:2:0:0:
361,39,74793,1,0,3:2:0:0:
270,302,74948,1,8,0:2:0:0:
220,320,75025,1,8,0:2:0:0:
169,316,75102,1,8,0:2:0:0:
124,290,75179,1,8,0:2:0:0:
94,258,75257,2,0,L|108:407,1,118.9999963684,0|0,3:2|0:2,0:2:0:0:
386,260,75566,5,8,0:2:0:0:
202,217,75721,1,0,3:2:0:0:
202,217,75798,1,0,3:2:0:0:
202,217,75875,1,2,3:2:0:0:
349,80,76030,1,0,3:2:0:0:
311,192,76185,1,8,0:2:0:0:
257,3,76339,1,0,3:2:0:0:
257,3,76417,1,0,3:2:0:0:
257,3,76494,1,0,3:2:0:0:
401,35,76649,1,0,3:2:0:0:
221,97,76803,1,8,0:2:0:0:
427,202,76958,6,0,B|366:187|366:187|285:194,1,118.9999963684,6|0,0:2|0:2,0:2:0:0:
76,240,77267,1,0,3:2:0:0:
271,313,77422,1,8,0:2:0:0:
173,179,77576,1,0,3:2:0:0:
173,179,77654,1,0,3:2:0:0:
173,179,77731,2,0,L|182:311,1,118.9999963684,2|0,3:2|0:2,0:2:0:0:
365,379,78040,2,0,L|374:247,1,118.9999963684,8|0,0:2|0:2,0:2:0:0:
446,70,78350,5,2,3:2:0:0:
272,134,78504,1,0,3:2:0:0:
427,179,78659,1,8,0:2:0:0:
322,36,78814,1,0,3:2:0:0:
322,36,78891,1,0,3:2:0:0:
322,36,78968,2,0,P|231:32|181:68,1,118.9999963684,0|0,3:2|3:2,0:2:0:0:
208,43,79200,1,0,3:2:0:0:
208,43,79277,1,8,0:2:0:0:
262,250,79432,6,0,B|279:187|279:187|270:120,1,118.9999963684,6|0,0:2|0:2,0:2:0:0:
72,110,79741,1,0,3:2:0:0:
190,183,79896,1,8,0:2:0:0:
16,266,80051,1,0,3:2:0:0:
16,266,80128,1,0,3:2:0:0:
16,266,80205,2,0,L|152:258,1,118.9999963684,2|0,0:2|0:2,0:2:0:0:
367,283,80515,1,8,0:0:0:0:
244,346,80669,1,0,3:2:0:0:
323,200,80824,5,6,0:2:0:0:
442,347,80979,1,0,3:2:0:0:
240,254,81133,1,8,0:2:0:0:
512,140,81288,1,0,3:2:0:0:
512,140,81365,1,0,3:2:0:0:
512,140,81442,2,0,L|376:132,1,118.9999963684,2|0,3:2|0:2,0:2:0:0:
238,169,81752,1,8,0:2:0:0:
266,0,81906,6,0,P|297:51|301:136,1,118.9999963684,6|0,0:2|0:2,0:2:0:0:
164,238,82216,1,0,3:2:0:0:
208,83,82370,1,8,0:2:0:0:
54,15,82525,1,0,3:2:0:0:
54,15,82602,1,0,3:2:0:0:
54,15,82680,2,0,L|72:148,1,118.9999963684,2|0,3:2|0:2,0:2:0:0:
30,303,82989,1,8,0:2:0:0:
238,169,83143,2,0,L|303:178,2,59.4999981842,0|0|2,3:2|3:2|3:2,3:2:0:0:
69,132,83453,5,8,0:2:0:0:
34,168,83530,1,8,0:2:0:0:
29,218,83607,1,8,0:2:0:0:
55,260,83684,1,8,0:2:0:0:
101,280,83762,1,10,0:2:0:0:
150,269,83840,1,8,0:2:0:0:
191,241,83917,1,8,0:2:0:0:
242,234,83994,1,8,0:2:0:0:
290,248,84071,1,8,0:2:0:0:
328,280,84149,1,8,0:2:0:0:
350,325,84226,2,8,L|289:335,1,59.4999981842,8|8,0:2|0:2,0:2:0:0:
388,192,84381,6,0,B|451:187|451:187|519:202,1,118.9999963684,6|0,0:2|0:2,0:2:0:0:
150,269,84690,1,0,3:2:0:0:
194,131,84844,1,8,0:2:0:0:
328,280,84999,1,0,3:2:0:0:
264,64,85154,5,8,0:2:0:0:
125,186,85308,1,0,3:2:0:0:
388,192,85463,2,0,L|248:180,1,118.9999963684,8|0,0:2|3:2,0:2:0:0:
59,279,85772,5,8,0:2:0:0:
328,280,85927,1,0,3:2:0:0:
107,99,86082,1,8,0:2:0:0:
132,336,86236,1,0,3:2:0:0:
311,128,86391,5,8,0:2:0:0:
39,189,86546,1,0,3:2:0:0:
227,274,86700,1,8,0:2:0:0:
227,47,86855,6,0,B|204:104|204:104|207:192,1,118.9999963684,6|0,3:2|0:2,0:2:0:0:
295,350,87164,1,0,3:2:0:0:
382,180,87319,5,8,0:2:0:0:
137,248,87473,1,0,3:2:0:0:
485,288,87628,2,0,P|409:279|355:285,1,118.9999963684,10|0,0:2|3:2,0:2:0:0:
191,367,87937,5,8,0:2:0:0:
295,180,88092,1,0,3:2:0:0:
417,381,88247,1,8,0:2:0:0:
223,279,88401,1,0,3:2:0:0:
485,288,88556,5,8,0:2:0:0:
191,367,88710,2,0,L|61:356,1,118.9999963684,2|8,3:2|0:2,0:2:0:0:
286,192,89020,1,0,3:2:0:0:
299,310,89174,1,8,0:2:0:0:
77,129,89329,6,0,B|141:122|141:122|201:139,1,118.9999963684,6|0,3:2|0:2,0:2:0:0:
381,254,89638,1,0,3:2:0:0:
132,248,89793,1,8,0:2:0:0:
344,129,89948,1,0,3:2:0:0:
230,360,90102,5,8,0:2:0:0:
193,136,90257,1,0,3:2:0:0:
131,361,90412,1,8,0:2:0:0:
274,207,90566,1,0,3:2:0:0:
2,248,90721,5,8,0:2:0:0:
220,272,90875,1,0,3:2:0:0:
78,151,91030,1,8,0:2:0:0:
131,361,91185,1,0,3:2:0:0:
219,162,91339,5,8,0:2:0:0:
30,343,91494,1,0,3:2:0:0:
367,296,91649,1,8,0:2:0:0:
116,228,91803,1,6,3:2:0:0:
323,79,92576,1,10,0:2:0:0:
439,285,93195,1,8,0:2:0:0:
374,187,93350,1,8,0:2:0:0:
261,346,93504,1,8,0:2:0:0:
295,109,93659,5,10,0:2:0:0:
85,225,94123,1,0,3:2:0:0:
85,225,94200,1,0,3:2:0:0:
85,225,94277,6,0,L|201:216,1,101.9999968872,6|0,0:2|0:2,0:2:0:0:
334,273,94587,1,0,3:2:0:0:
334,273,94664,1,0,3:2:0:0:
334,273,94741,1,8,0:2:0:0:
138,309,94896,2,0,L|75:332,2,50.9999984436,0|0|8,3:2|3:2|0:2,0:2:0:0:
165,136,95205,1,0,3:2:0:0:
165,136,95283,1,0,3:2:0:0:
165,136,95360,1,8,0:2:0:0:
244,363,95515,1,0,3:2:0:0:
244,363,95592,1,0,3:2:0:0:
244,363,95669,6,0,L|255:277,2,67.99999792481,8|0|0,0:2|3:2|3:2,0:2:0:0:
138,309,95979,2,0,L|129:241,2,67.99999792481,8|0|0,0:2|3:2|3:2,0:2:0:0:
246,169,96288,5,8,0:2:0:0:
297,149,96391,1,0,3:2:0:0:
350,161,96494,1,0,3:2:0:0:
386,203,96597,1,0,3:2:0:0:
138,309,96752,5,6,3:2:0:0:
455,143,97525,1,6,3:2:0:0:
78,56,98143,1,8,0:2:0:0:
143,196,98298,1,8,0:2:0:0:
244,41,98453,1,8,0:2:0:0:
226,281,98607,5,14,0:2:0:0:
