osu file format v14

[General]
AudioFilename: audio.mp3
AudioLeadIn: 0
PreviewTime: 53740
Countdown: 0
SampleSet: Normal
StackLeniency: 0.7
Mode: 1
LetterboxInBreaks: 0
WidescreenStoryboard: 0

[Editor]
Bookmarks: 2709,2864,9823,9977,10441,17864,20338,30081,39977,46318,46936,47555,50029,53586,54359,54823,64720,73534,74617
DistanceSpacing: 0.8
BeatDivisor: 4
GridSize: 32
TimelineZoom: 1

[Metadata]
Title:Fake Town Baby
TitleUnicode:Fake Town Baby
Artist:UNISON SQUARE GARDEN
ArtistUnicode:UNISON SQUARE GARDEN
Creator:404 AccNotFound
Version:Inner Oni
Source:血界戦線 & BEYOND
Tags:Blood Blockade Battlefront Kekkai Sensen Opening 2
BeatmapID:1555353
BeatmapSetID:736980

[Difficulty]
HPDrainRate:4
CircleSize:5
OverallDifficulty:6
ApproachRate:5
SliderMultiplier:1.4
SliderTickRate:1

[Events]
//Background and Video events
0,0,"kekkai_sensen___wallpaper_by_adiim-dbt0swu.jpg",0,0
//Break Periods
//Storyboard Layer 0 (Background)
//Storyboard Layer 1 (Fail)
//Storyboard Layer 2 (Pass)
//Storyboard Layer 3 (Foreground)
//Storyboard Sound Samples

[TimingPoints]
545,309.278350515464,4,1,0,85,1,0
54823,-100,4,1,0,85,0,1
73534,-100,4,1,0,85,0,0
74617,-100,4,1,0,85,0,1
82039,-100,4,1,0,85,0,0
83431,-100,4,1,0,85,0,1
83895,-100,4,1,0,85,0,0

[HitObjects]
256,256,545,5,4,0:0:0:0:
256,256,854,1,0,0:0:0:0:
256,256,1163,1,0,0:0:0:0:
256,256,1472,1,0,0:0:0:0:
256,256,1782,1,0,0:0:0:0:
256,256,2091,1,0,0:0:0:0:
256,256,2400,1,0,0:0:0:0:
160,160,2709,1,0,0:0:0:0:
256,256,2864,1,8,0:0:0:0:
256,256,3173,1,8,0:0:0:0:
256,256,3328,1,0,0:0:0:0:
256,256,3637,1,8,0:0:0:0:
256,256,3947,1,8,0:0:0:0:
256,256,4256,1,0,0:0:0:0:
256,256,4565,1,8,0:0:0:0:
256,256,4874,1,0,0:0:0:0:
192,128,5029,1,8,0:0:0:0:
256,256,5184,1,0,0:0:0:0:
256,256,5338,1,8,0:0:0:0:
288,192,5416,1,8,0:0:0:0:
256,256,5493,1,0,0:0:0:0:
160,224,5802,1,0,0:0:0:0:
160,224,6112,1,0,0:0:0:0:
160,224,6421,1,8,0:0:0:0:
352,160,6575,1,0,0:0:0:0:
160,224,6730,1,8,0:0:0:0:
160,224,7039,1,8,0:0:0:0:
128,128,7194,1,8,0:0:0:0:
160,224,7349,1,0,0:0:0:0:
192,32,7503,1,0,0:0:0:0:
160,224,7658,1,8,0:0:0:0:
288,256,7813,1,8,0:0:0:0:
288,224,7890,1,8,0:0:0:0:
160,224,7967,1,0,0:0:0:0:
320,160,8276,1,0,0:0:0:0:
256,224,8586,1,0,0:0:0:0:
256,224,8895,1,8,0:0:0:0:
256,192,9050,1,0,0:0:0:0:
256,224,9204,1,0,0:0:0:0:
256,192,9514,1,0,0:0:0:0:
256,192,9668,1,0,0:0:0:0:
256,192,9746,1,0,0:0:0:0:
256,192,9823,1,8,0:0:0:0:
256,192,9977,1,8,0:0:0:0:
256,192,10441,1,4,0:0:0:0:
192,128,10751,1,8,0:0:0:0:
96,192,10905,1,0,0:0:0:0:
192,128,11060,1,8,0:0:0:0:
192,128,11215,1,0,0:0:0:0:
128,192,11292,1,0,0:0:0:0:
192,128,11369,1,0,0:0:0:0:
192,128,11524,1,8,0:0:0:0:
160,160,11833,1,0,0:0:0:0:
160,160,11988,1,8,0:0:0:0:
128,192,12142,1,0,0:0:0:0:
128,192,12220,1,0,0:0:0:0:
160,160,12297,1,8,0:0:0:0:
160,160,12452,1,0,0:0:0:0:
192,64,12529,1,0,0:0:0:0:
160,160,12606,1,8,0:0:0:0:
192,224,12684,1,8,0:0:0:0:
192,160,12761,1,0,0:0:0:0:
192,224,12916,1,12,0:0:0:0:
192,224,13225,1,8,0:0:0:0:
224,160,13380,1,0,0:0:0:0:
192,224,13534,1,8,0:0:0:0:
192,224,13689,1,0,0:0:0:0:
224,160,13766,1,0,0:0:0:0:
192,224,13843,1,0,0:0:0:0:
192,224,13998,1,8,0:0:0:0:
192,224,14307,1,0,0:0:0:0:
192,224,14462,1,8,0:0:0:0:
224,160,14617,1,0,0:0:0:0:
224,160,14694,1,0,0:0:0:0:
192,224,14771,1,8,0:0:0:0:
128,160,14926,1,0,0:0:0:0:
128,160,15003,1,0,0:0:0:0:
128,160,15081,1,8,0:0:0:0:
128,160,15158,1,8,0:0:0:0:
128,160,15235,1,0,0:0:0:0:
256,224,15390,1,8,0:0:0:0:
192,224,15545,1,0,0:0:0:0:
288,224,15596,1,8,0:0:0:0:
288,224,15648,1,8,0:0:0:0:
224,192,15699,1,0,0:0:0:0:
192,128,15854,1,0,0:0:0:0:
256,160,15931,1,0,0:0:0:0:
192,128,16008,1,8,0:0:0:0:
192,160,16086,1,8,0:0:0:0:
192,160,16163,1,8,0:0:0:0:
192,160,16318,1,0,0:0:0:0:
192,160,16472,1,8,0:0:0:0:
128,192,16550,1,8,0:0:0:0:
192,160,16627,1,0,0:0:0:0:
192,160,16782,1,8,0:0:0:0:
192,160,16936,1,0,0:0:0:0:
192,160,17091,1,8,0:0:0:0:
64,192,17168,1,0,0:0:0:0:
192,160,17246,1,8,0:0:0:0:
192,160,17400,1,0,0:0:0:0:
160,96,17477,1,0,0:0:0:0:
192,160,17555,1,8,0:0:0:0:
160,160,17632,1,0,0:0:0:0:
160,160,17709,1,0,0:0:0:0:
192,160,17864,1,8,0:0:0:0:
256,192,18019,1,0,0:0:0:0:
160,128,18096,1,0,0:0:0:0:
256,224,18173,1,8,0:0:0:0:
256,224,18328,1,0,0:0:0:0:
256,224,18483,1,8,0:0:0:0:
224,128,18560,1,8,0:0:0:0:
256,224,18637,1,8,0:0:0:0:
160,160,18715,1,8,0:0:0:0:
224,128,18792,1,8,0:0:0:0:
224,128,18947,1,0,0:0:0:0:
224,160,19256,1,0,0:0:0:0:
224,160,19410,1,8,0:0:0:0:
224,160,19565,1,0,0:0:0:0:
224,160,19642,1,0,0:0:0:0:
224,160,19720,1,8,0:0:0:0:
224,160,19874,1,0,0:0:0:0:
224,160,19952,1,0,0:0:0:0:
224,160,20029,1,0,0:0:0:0:
224,160,20184,1,12,0:0:0:0:
192,128,20493,1,0,0:0:0:0:
192,128,20648,1,8,0:0:0:0:
192,192,20880,1,8,0:0:0:0:
288,160,20957,1,0,0:0:0:0:
288,160,21112,1,0,0:0:0:0:
192,128,21266,1,8,0:0:0:0:
160,128,21421,1,0,0:0:0:0:
224,160,21498,1,8,0:0:0:0:
192,128,21575,1,0,0:0:0:0:
192,128,21885,1,8,0:0:0:0:
160,128,22039,1,0,0:0:0:0:
96,160,22117,1,0,0:0:0:0:
192,128,22194,1,0,0:0:0:0:
160,128,22349,1,8,0:0:0:0:
288,160,22503,1,0,0:0:0:0:
192,128,22658,1,8,0:0:0:0:
192,128,22967,1,0,0:0:0:0:
192,128,23122,1,8,0:0:0:0:
192,96,23354,1,8,0:0:0:0:
192,128,23431,1,0,0:0:0:0:
96,160,23586,1,0,0:0:0:0:
192,128,23740,1,8,0:0:0:0:
192,128,24050,1,0,0:0:0:0:
192,128,24359,1,8,0:0:0:0:
288,192,24514,1,8,0:0:0:0:
192,160,24591,1,8,0:0:0:0:
192,128,24668,1,0,0:0:0:0:
32,160,24823,1,0,0:0:0:0:
288,192,24977,1,8,0:0:0:0:
96,256,25132,1,0,0:0:0:0:
192,128,25441,1,0,0:0:0:0:
192,128,25596,1,8,0:0:0:0:
128,128,25828,1,8,0:0:0:0:
192,128,25905,1,0,0:0:0:0:
160,160,26060,1,0,0:0:0:0:
192,128,26215,1,8,0:0:0:0:
224,160,26369,1,0,0:0:0:0:
224,160,26447,1,8,0:0:0:0:
192,128,26524,1,0,0:0:0:0:
192,128,26833,1,8,0:0:0:0:
192,128,26988,1,8,0:0:0:0:
96,160,27065,1,8,0:0:0:0:
192,128,27142,1,0,0:0:0:0:
192,128,27297,1,0,0:0:0:0:
192,128,27452,1,8,0:0:0:0:
192,128,27761,1,0,0:0:0:0:
192,128,28070,1,8,0:0:0:0:
256,160,28225,1,0,0:0:0:0:
256,160,28380,1,8,0:0:0:0:
256,160,28534,1,0,0:0:0:0:
256,160,28612,1,0,0:0:0:0:
192,128,28689,1,8,0:0:0:0:
256,160,28843,1,0,0:0:0:0:
192,128,28998,1,8,0:0:0:0:
192,128,29153,1,0,0:0:0:0:
192,128,29230,1,0,0:0:0:0:
256,160,29307,1,8,0:0:0:0:
192,128,29385,1,8,0:0:0:0:
256,160,29462,1,0,0:0:0:0:
192,128,29617,1,8,0:0:0:0:
192,128,29771,1,8,0:0:0:0:
224,96,29926,1,0,0:0:0:0:
192,128,30081,1,12,0:0:0:0:
192,160,30390,1,0,0:0:0:0:
192,160,30545,1,8,0:0:0:0:
192,160,30699,1,0,0:0:0:0:
192,160,30776,1,8,0:0:0:0:
192,160,30854,1,0,0:0:0:0:
192,160,31008,1,0,0:0:0:0:
192,160,31163,1,8,0:0:0:0:
128,64,31318,1,8,0:0:0:0:
128,128,31395,1,8,0:0:0:0:
128,128,31472,1,0,0:0:0:0:
128,128,31627,1,0,0:0:0:0:
128,128,31782,1,8,0:0:0:0:
128,128,31936,1,8,0:0:0:0:
128,128,32014,1,8,0:0:0:0:
128,128,32091,1,0,0:0:0:0:
224,128,32168,1,8,0:0:0:0:
128,128,32246,1,0,0:0:0:0:
128,128,32400,1,8,0:0:0:0:
128,128,32555,1,0,0:0:0:0:
192,160,32864,1,0,0:0:0:0:
192,160,33019,1,8,0:0:0:0:
128,96,33096,1,0,0:0:0:0:
256,128,33173,1,8,0:0:0:0:
192,160,33251,1,8,0:0:0:0:
192,160,33328,1,0,0:0:0:0:
192,160,33483,1,0,0:0:0:0:
192,160,33637,1,8,0:0:0:0:
224,160,33792,1,0,0:0:0:0:
192,96,33869,1,8,0:0:0:0:
224,192,33947,1,0,0:0:0:0:
96,160,34101,1,0,0:0:0:0:
224,192,34256,1,8,0:0:0:0:
224,192,34411,1,8,0:0:0:0:
160,128,34488,1,8,0:0:0:0:
224,192,34565,1,0,0:0:0:0:
224,192,34720,1,0,0:0:0:0:
128,160,34874,1,8,0:0:0:0:
128,160,35029,1,0,0:0:0:0:
128,160,35338,1,0,0:0:0:0:
128,160,35493,1,8,0:0:0:0:
192,192,35648,1,0,0:0:0:0:
160,64,35725,1,0,0:0:0:0:
128,160,35802,1,8,0:0:0:0:
128,160,35957,1,0,0:0:0:0:
128,160,36112,1,8,0:0:0:0:
192,192,36266,1,0,0:0:0:0:
192,192,36343,1,8,0:0:0:0:
128,160,36421,1,0,0:0:0:0:
160,192,36575,1,0,0:0:0:0:
128,160,36730,1,8,0:0:0:0:
192,192,36885,1,8,0:0:0:0:
192,192,36962,1,8,0:0:0:0:
128,160,37039,1,0,0:0:0:0:
128,160,37194,1,0,0:0:0:0:
128,160,37349,1,8,0:0:0:0:
128,160,37658,1,8,0:0:0:0:
256,160,37813,1,0,0:0:0:0:
256,160,37967,1,8,0:0:0:0:
256,160,38122,1,0,0:0:0:0:
256,160,38276,1,8,0:0:0:0:
256,160,38431,1,0,0:0:0:0:
160,128,38508,1,0,0:0:0:0:
256,160,38586,1,8,0:0:0:0:
256,160,38740,1,0,0:0:0:0:
256,160,38895,5,8,0:0:0:0:
256,160,39050,1,0,0:0:0:0:
192,96,39127,1,0,0:0:0:0:
256,160,39204,1,8,0:0:0:0:
192,128,39282,1,8,0:0:0:0:
256,160,39359,1,0,0:0:0:0:
224,96,39436,1,0,0:0:0:0:
192,96,39514,1,8,0:0:0:0:
256,160,39668,1,0,0:0:0:0:
224,160,39823,1,0,0:0:0:0:
256,160,39977,5,12,0:0:0:0:
256,192,40287,1,0,0:0:0:0:
256,192,40441,1,8,0:0:0:0:
96,192,40596,1,8,0:0:0:0:
256,192,40751,1,0,0:0:0:0:
256,192,41060,1,8,0:0:0:0:
256,192,41215,1,0,0:0:0:0:
256,192,41524,1,0,0:0:0:0:
256,192,41679,1,8,0:0:0:0:
256,192,41988,1,0,0:0:0:0:
256,192,42297,1,8,0:0:0:0:
256,192,42452,1,0,0:0:0:0:
256,192,42761,1,0,0:0:0:0:
256,192,42916,1,8,0:0:0:0:
160,192,43070,1,8,0:0:0:0:
256,192,43225,1,0,0:0:0:0:
256,192,43534,1,8,0:0:0:0:
256,192,43689,1,0,0:0:0:0:
256,192,43998,1,8,0:0:0:0:
256,192,44307,1,8,0:0:0:0:
256,192,44462,1,0,0:0:0:0:
224,128,44617,1,0,0:0:0:0:
256,192,44771,1,8,0:0:0:0:
256,192,44926,1,0,0:0:0:0:
256,192,45235,1,0,0:0:0:0:
256,192,45390,1,8,0:0:0:0:
160,128,45545,1,8,0:0:0:0:
256,192,45699,1,0,0:0:0:0:
160,128,46008,1,8,0:0:0:0:
288,160,46318,1,12,0:0:0:0:
288,160,46550,1,4,0:0:0:0:
288,160,46782,1,4,0:0:0:0:
288,160,46936,1,12,0:0:0:0:
160,160,47091,1,0,0:0:0:0:
160,160,47168,1,8,0:0:0:0:
160,160,47246,1,8,0:0:0:0:
160,160,47323,1,0,0:0:0:0:
160,160,47400,1,0,0:0:0:0:
288,160,47555,1,8,0:0:0:0:
320,160,47709,1,0,0:0:0:0:
256,256,47787,1,0,0:0:0:0:
320,160,47864,1,8,0:0:0:0:
320,160,48019,1,0,0:0:0:0:
320,160,48173,1,8,0:0:0:0:
256,256,48251,1,8,0:0:0:0:
320,160,48328,1,0,0:0:0:0:
320,160,48483,1,8,0:0:0:0:
320,160,48637,1,0,0:0:0:0:
192,128,48715,1,0,0:0:0:0:
288,160,48792,1,8,0:0:0:0:
256,256,48947,1,0,0:0:0:0:
256,256,49101,1,8,0:0:0:0:
256,256,49179,1,8,0:0:0:0:
192,128,49256,1,0,0:0:0:0:
64,160,49333,1,0,0:0:0:0:
192,96,49410,1,8,0:0:0:0:
192,96,49565,1,0,0:0:0:0:
192,96,49720,1,8,0:0:0:0:
256,192,50029,1,0,0:0:0:0:
256,192,50338,1,8,0:0:0:0:
192,96,50802,1,0,0:0:0:0:
256,192,50957,1,8,0:0:0:0:
256,192,51112,1,8,0:0:0:0:
192,96,51266,1,0,0:0:0:0:
192,128,51575,1,8,0:0:0:0:
192,128,51885,1,0,0:0:0:0:
192,128,52039,1,0,0:0:0:0:
192,128,52194,1,8,0:0:0:0:
192,128,52503,1,0,0:0:0:0:
192,128,52813,1,8,0:0:0:0:
96,128,52967,1,0,0:0:0:0:
192,128,53122,1,8,0:0:0:0:
192,128,53431,1,0,0:0:0:0:
192,128,53586,1,0,0:0:0:0:
224,160,54359,1,8,0:0:0:0:
224,160,54436,1,8,0:0:0:0:
224,160,54514,1,8,0:0:0:0:
224,160,54591,1,8,0:0:0:0:
224,160,54668,1,8,0:0:0:0:
224,160,54823,1,4,0:0:0:0:
224,160,55132,1,0,0:0:0:0:
224,160,55287,1,8,0:0:0:0:
224,160,55441,1,8,0:0:0:0:
192,160,55519,1,8,0:0:0:0:
192,160,55596,1,0,0:0:0:0:
224,160,55751,1,0,0:0:0:0:
224,160,55905,1,8,0:0:0:0:
224,160,56060,1,0,0:0:0:0:
224,160,56369,1,0,0:0:0:0:
224,160,56524,1,8,0:0:0:0:
224,160,56679,1,0,0:0:0:0:
192,160,56756,1,8,0:0:0:0:
192,160,56833,1,0,0:0:0:0:
224,160,56988,1,0,0:0:0:0:
224,160,57142,1,8,0:0:0:0:
224,160,57297,1,0,0:0:0:0:
192,160,57606,1,0,0:0:0:0:
192,160,57761,1,8,0:0:0:0:
192,160,57993,1,8,0:0:0:0:
192,160,58070,1,0,0:0:0:0:
224,160,58225,1,0,0:0:0:0:
224,160,58380,1,8,0:0:0:0:
224,160,58534,1,8,0:0:0:0:
192,160,58612,1,8,0:0:0:0:
224,160,58689,1,0,0:0:0:0:
224,160,58843,1,0,0:0:0:0:
224,160,58998,1,8,0:0:0:0:
224,160,59153,1,0,0:0:0:0:
192,160,59230,1,8,0:0:0:0:
224,160,59307,1,0,0:0:0:0:
224,160,59462,1,0,0:0:0:0:
192,160,59617,1,8,0:0:0:0:
224,160,59771,1,0,0:0:0:0:
192,64,60081,1,0,0:0:0:0:
224,160,60235,1,8,0:0:0:0:
192,128,60390,1,0,0:0:0:0:
192,128,60467,1,0,0:0:0:0:
224,160,60545,1,8,0:0:0:0:
224,160,60699,1,0,0:0:0:0:
224,160,60854,1,8,0:0:0:0:
224,160,61008,1,0,0:0:0:0:
224,160,61086,1,8,0:0:0:0:
224,160,61163,1,0,0:0:0:0:
224,160,61318,1,8,0:0:0:0:
224,160,61472,1,8,0:0:0:0:
224,160,61627,1,0,0:0:0:0:
224,160,61704,1,0,0:0:0:0:
224,160,61782,1,8,0:0:0:0:
224,160,61859,1,0,0:0:0:0:
192,192,61936,1,8,0:0:0:0:
192,160,62014,1,8,0:0:0:0:
224,160,62091,1,0,0:0:0:0:
192,160,62246,1,0,0:0:0:0:
224,160,62400,1,4,0:0:0:0:
192,192,62555,1,8,0:0:0:0:
192,192,62632,1,8,0:0:0:0:
192,192,62709,1,8,0:0:0:0:
192,192,62864,1,4,0:0:0:0:
192,192,63019,1,8,0:0:0:0:
192,192,63096,1,8,0:0:0:0:
192,192,63173,1,0,0:0:0:0:
192,192,63328,1,8,0:0:0:0:
160,192,63483,1,0,0:0:0:0:
160,192,63560,1,0,0:0:0:0:
160,192,63637,1,8,0:0:0:0:
192,96,63715,1,8,0:0:0:0:
160,192,63792,1,0,0:0:0:0:
160,160,63869,1,8,0:0:0:0:
160,192,63947,1,0,0:0:0:0:
160,192,64024,1,0,0:0:0:0:
160,192,64101,1,8,0:0:0:0:
160,192,64179,1,8,0:0:0:0:
160,192,64256,1,0,0:0:0:0:
160,192,64410,1,0,0:0:0:0:
160,192,64565,1,8,0:0:0:0:
160,192,64720,1,4,0:0:0:0:
288,224,65029,1,0,0:0:0:0:
288,224,65184,1,8,0:0:0:0:
288,224,65338,1,8,0:0:0:0:
192,160,65416,1,8,0:0:0:0:
256,192,65493,1,0,0:0:0:0:
288,224,65648,1,0,0:0:0:0:
256,224,65802,1,8,0:0:0:0:
288,224,65957,1,0,0:0:0:0:
288,224,66266,1,0,0:0:0:0:
288,224,66421,1,8,0:0:0:0:
288,224,66575,1,0,0:0:0:0:
192,128,66653,1,8,0:0:0:0:
192,128,66730,1,0,0:0:0:0:
288,224,66885,1,0,0:0:0:0:
288,224,67039,1,8,0:0:0:0:
288,224,67194,1,0,0:0:0:0:
288,224,67503,1,8,0:0:0:0:
288,224,67658,1,0,0:0:0:0:
256,192,67735,1,0,0:0:0:0:
256,192,67813,1,0,0:0:0:0:
256,192,67967,1,8,0:0:0:0:
256,192,68122,1,8,0:0:0:0:
256,192,68276,1,0,0:0:0:0:
256,192,68431,1,8,0:0:0:0:
256,160,68740,1,0,0:0:0:0:
256,160,68895,1,8,0:0:0:0:
256,160,69050,1,8,0:0:0:0:
256,160,69127,1,0,0:0:0:0:
256,160,69204,1,8,0:0:0:0:
256,160,69282,1,8,0:0:0:0:
256,160,69359,1,0,0:0:0:0:
256,160,69514,1,8,0:0:0:0:
256,160,69668,1,0,0:0:0:0:
256,192,69823,1,4,0:0:0:0:
256,192,70132,1,8,0:0:0:0:
256,192,70287,1,0,0:0:0:0:
256,192,70441,1,8,0:0:0:0:
256,192,70596,1,0,0:0:0:0:
256,192,70751,1,8,0:0:0:0:
256,192,70905,1,0,0:0:0:0:
128,96,70983,1,0,0:0:0:0:
256,192,71060,1,8,0:0:0:0:
256,192,71215,1,0,0:0:0:0:
256,192,71369,1,8,0:0:0:0:
256,192,71524,1,0,0:0:0:0:
32,192,71601,1,0,0:0:0:0:
256,192,71679,1,8,0:0:0:0:
64,192,71756,1,8,0:0:0:0:
64,192,71833,1,0,0:0:0:0:
256,192,71988,1,8,0:0:0:0:
256,192,72142,1,8,0:0:0:0:
256,192,72297,1,0,0:0:0:0:
224,128,72452,1,8,0:0:0:0:
224,128,72529,1,8,0:0:0:0:
224,128,72606,1,8,0:0:0:0:
224,128,72761,1,0,0:0:0:0:
64,192,72838,1,8,0:0:0:0:
224,128,72916,1,0,0:0:0:0:
224,128,72993,1,0,0:0:0:0:
224,128,73070,1,8,0:0:0:0:
160,32,73148,1,0,0:0:0:0:
224,128,73225,1,8,0:0:0:0:
224,128,73302,1,8,0:0:0:0:
224,128,73380,1,0,0:0:0:0:
224,128,73534,1,8,0:0:0:0:
224,160,74307,1,0,0:0:0:0:
224,160,74462,1,0,0:0:0:0:
224,160,74617,1,12,0:0:0:0:
288,288,74926,1,0,0:0:0:0:
288,288,75081,1,8,0:0:0:0:
288,288,75313,1,8,0:0:0:0:
288,288,75390,1,0,0:0:0:0:
288,288,75545,1,0,0:0:0:0:
288,288,75699,1,8,0:0:0:0:
128,224,75854,1,0,0:0:0:0:
192,160,75931,1,8,0:0:0:0:
288,288,76008,1,0,0:0:0:0:
160,64,76086,1,0,0:0:0:0:
128,160,76163,1,8,0:0:0:0:
288,288,76318,1,0,0:0:0:0:
288,288,76472,1,8,0:0:0:0:
160,192,76550,1,8,0:0:0:0:
192,96,76627,1,0,0:0:0:0:
288,288,76782,1,8,0:0:0:0:
160,192,76859,1,8,0:0:0:0:
288,288,76936,1,8,0:0:0:0:
288,288,77091,1,0,0:0:0:0:
288,288,77400,1,0,0:0:0:0:
288,288,77555,1,8,0:0:0:0:
224,96,77787,1,8,0:0:0:0:
288,288,77864,1,0,0:0:0:0:
224,160,78019,1,0,0:0:0:0:
288,288,78173,1,8,0:0:0:0:
288,288,78328,1,0,0:0:0:0:
320,96,78405,1,8,0:0:0:0:
288,288,78483,1,0,0:0:0:0:
288,288,78637,1,0,0:0:0:0:
288,288,78792,1,8,0:0:0:0:
288,288,78947,1,8,0:0:0:0:
192,224,79024,1,8,0:0:0:0:
160,192,79101,1,0,0:0:0:0:
288,288,79256,1,8,0:0:0:0:
288,288,79410,1,8,0:0:0:0:
288,288,79565,1,0,0:0:0:0:
192,160,79874,1,0,0:0:0:0:
288,288,80029,1,8,0:0:0:0:
192,160,80261,1,8,0:0:0:0:
288,288,80338,1,0,0:0:0:0:
192,160,80493,1,0,0:0:0:0:
288,288,80648,1,8,0:0:0:0:
288,288,80802,1,0,0:0:0:0:
192,32,80880,1,8,0:0:0:0:
288,288,80957,1,0,0:0:0:0:
288,288,81112,1,0,0:0:0:0:
160,64,81189,1,0,0:0:0:0:
288,288,81266,1,8,0:0:0:0:
288,288,81421,1,8,0:0:0:0:
128,192,81575,1,0,0:0:0:0:
160,192,81653,1,0,0:0:0:0:
160,192,81730,1,8,0:0:0:0:
160,192,81807,1,8,0:0:0:0:
288,288,81885,1,8,0:0:0:0:
288,288,82039,1,0,0:0:0:0:
288,288,82503,1,8,0:0:0:0:
288,288,82813,1,0,0:0:0:0:
256,256,83431,1,4,0:0:0:0:
224,224,83586,1,4,0:0:0:0:
224,224,83740,1,12,0:0:0:0:
224,224,83895,1,4,0:0:0:0:
