osu file format v14

[General]
AudioFilename: 08 Darekaga wasure teru kamo shirenai bokura ni daijina 001 no koto.mp3
AudioLeadIn: 0
PreviewTime: 62469
Countdown: 0
SampleSet: Normal
StackLeniency: 0.7
Mode: 0
LetterboxInBreaks: 0
WidescreenStoryboard: 0

[Editor]
Bookmarks: 5522
DistanceSpacing: 1
BeatDivisor: 4
GridSize: 4
TimelineZoom: 1

[Metadata]
Title:Dareka ga Wasurete Iru kamo Shirenai Bokura ni Daiji na 001 no Koto (D.A mix)
TitleUnicode:誰かが忘れているかもしれない僕らに大事な001のこと(D.A mix)
Artist:UNISON SQUARE GARDEN
ArtistUnicode:UNISON SQUARE GARDEN
Creator:-NanoRIPE-
Version:Normal
Source:
Tags:DUGOUT ACCIDENT Akitoshi Mako Sakata cut version Toys Factory
BeatmapID:957716
BeatmapSetID:445845

[Difficulty]
HPDrainRate:3
CircleSize:3.5
OverallDifficulty:3
ApproachRate:4
SliderMultiplier:1
SliderTickRate:1

[Events]
//Background and Video events
0,0,"Anime-Couple-Wallpaper-Backgrounds.jpg",0,0
//Break Periods
2,7159,9517
//Storyboard Layer 0 (Background)
//Storyboard Layer 1 (Fail)
//Storyboard Layer 2 (Pass)
//Storyboard Layer 3 (Foreground)
//Storyboard Sound Samples

[TimingPoints]
429,408.163265306122,4,1,1,40,1,0
429,-166.666666666667,4,1,1,40,0,0
5122,-100,4,1,1,50,0,0
5531,-100,4,1,1,60,0,0
10837,-100,4,1,1,40,0,0
11449,-100,4,1,1,40,0,0
11857,-100,4,1,1,40,0,0
12673,-100,4,1,1,50,0,0
13490,-100,4,1,1,60,0,0
20428,-100,4,1,1,50,0,0
33082,-100,4,1,1,50,0,0
33490,-100,4,1,1,50,0,0
46143,-100,4,1,1,40,0,0
55939,-100,4,1,1,60,0,0
62469,-100,3,1,1,70,0,1
74714,-100,3,1,1,70,0,0
75531,-100,3,1,1,70,0,1
86959,-100,3,1,1,60,0,0
99204,-100,3,1,1,50,0,0
99408,-100,3,1,1,50,0,0
100020,-100,3,1,1,40,0,0
100837,-100,3,1,1,35,0,0
101653,-100,3,1,1,30,0,0
102061,-100,3,1,1,30,0,0
102469,-100,3,1,1,25,0,0
103286,-100,3,1,1,20,0,0
103694,-100,3,1,1,20,0,0
104102,-100,3,1,1,15,0,0
104918,-100,3,1,1,10,0,0

[Colours]
Combo1 : 204,135,250
Combo2 : 192,192,192
Combo3 : 128,128,255
Combo4 : 179,188,232

[HitObjects]
260,68,429,6,0,P|216:48|88:76,1,179.999994506836,4|0,0:0|2:0,0:0:0:0:
48,144,2061,2,0,L|72:324,1,179.999994506836,4|0,0:0|2:0,0:0:0:0:
148,360,3694,6,0,P|220:376|308:316,1,179.999994506836,4|0,0:0|2:0,0:0:0:0:
332,280,5122,1,2,2:0:0:0:
420,228,5531,2,0,L|476:268,2,50
384,192,6143,2,0,P|328:180|272:200,1,100
220,260,6959,5,0,0:0:0:0:
88,124,10837,6,4,L|96:68,2,50,2|2|2,2:0|2:0|2:0,0:0:0:0:
100,172,11449,1,4,2:1:0:0:
188,218,11857,2,0,B|234:206|234:206|301:222,1,100,2|0,2:1|0:0,0:0:0:0:
356,288,12673,2,0,P|386:236|377:181,1,100,0|0,0:0|0:0,0:0:0:0:
370,150,13286,1,2,2:1:0:0:
348,104,13490,5,6,2:1:0:0:
296,20,13898,1,0,0:0:0:0:
216,79,14306,2,0,P|148:87|100:71,1,100,2|0,2:1|0:0,0:0:0:0:
36,137,15122,2,0,P|24:185|40:237,1,100,2|0,2:1|0:0,0:0:0:0:
130,270,15939,2,0,L|246:278,1,100,2|0,2:1|0:0,0:0:0:0:
278,264,16551,1,2,2:1:0:0:
318,235,16755,5,6,2:1:0:0:
372,148,17163,2,0,P|376:112|348:52,1,100,0|2,0:0|2:1,0:0:0:0:
252,48,17980,1,0,0:0:0:0:
160,88,18388,2,0,L|148:200,1,100,2|0,2:1|0:0,0:0:0:0:
168,284,19204,2,0,P|212:300|264:288,1,100
336,220,20020,5,6,2:1:0:0:
428,180,20428,2,0,P|452:208|460:284,2,100,0|2|0,0:0|2:1|0:0,0:0:0:0:
368,100,21653,1,2,2:1:0:0:
268,112,22061,2,0,L|164:112,1,100,0|2,0:0|2:1,0:0:0:0:
124,136,22673,2,0,L|56:136,2,50,2|0|2,2:1|0:0|2:1,0:0:0:0:
152,176,23286,5,2,2:1:0:0:
136,276,23694,2,0,P|184:276|228:236,1,100,0|2,0:0|2:1,0:0:0:0:
296,176,24510,1,0,0:0:0:0:
392,144,24918,2,0,L|496:144,1,100,2|0,2:1|0:0,0:0:0:0:
440,60,25735,2,0,L|492:60,2,50,2|2|0,2:1|2:1|0:0,0:0:0:0:
392,64,26347,1,2,2:1:0:0:
344,80,26551,6,0,L|240:80,1,100,2|0,2:3|0:0,0:0:0:0:
152,44,27367,2,0,P|96:68|76:100,1,100,2|0,2:1|0:0,0:0:0:0:
52,196,28184,2,0,L|64:304,1,100,2|0,2:1|0:0,0:0:0:0:
160,320,29000,2,0,P|192:316|224:324,1,50,2|2,2:1|2:1,2:1:0:0:
252,348,29408,2,0,P|300:360|356:340,1,100,0|2,0:0|2:1,0:0:0:0:
436,296,30224,5,0,0:0:0:0:
488,212,30633,2,0,L|472:108,1,100,2|0,2:1|0:0,2:1:0:0:
387,59,31449,2,0,P|339:47|287:59,1,100,2|0,2:1|0:0,0:0:0:0:
228,140,32265,2,0,L|228:208,2,50,2|0|0,2:1|0:0|0:0,0:0:0:0:
291,58,33082,1,2,2:2:0:0:
196,32,33490,6,0,P|148:20|88:40,2,100,0|2|0,0:0|2:1|0:0,0:0:0:0:
148,120,34714,1,2,2:1:0:0:
64,176,35122,2,0,L|56:296,1,100,0|2,0:0|2:1,0:0:0:0:
104,300,35735,2,0,L|100:364,2,50,2|0|2,2:1|0:0|2:1,0:0:0:0:
144,268,36347,5,2,2:3:0:0:
196,184,36755,2,0,B|244:176|244:176|300:188,1,100,0|2,0:0|2:1,0:0:0:0:
356,264,37571,1,0,0:0:0:0:
436,204,37980,2,0,P|456:244|444:308,2,100,2|0|2,2:1|0:0|2:1,0:0:0:0:
448,156,39000,2,0,L|508:148,2,50,2|0|2,2:1|0:0|2:1,0:0:0:0:
404,136,39612,5,2,2:3:0:0:
336,64,40020,2,0,P|288:52|224:72,1,100,0|2,0:0|2:1,0:0:0:0:
176,140,40837,1,0,0:0:0:0:
244,216,41245,2,0,P|292:228|356:208,1,100,2|0,2:1|0:0,0:0:0:0:
412,148,42061,2,0,L|464:148,1,50,2|2,2:1|2:1,0:0:0:0:
492,188,42469,2,0,P|504:228|488:284,1,100,0|2,0:0|2:3,0:0:0:0:
396,320,43286,5,0,0:0:0:0:
308,272,43694,2,0,P|256:260|200:280,1,100,2|0,2:1|0:0,0:0:0:0:
120,232,44510,1,2,2:1:0:0:
184,156,44918,1,0,0:0:0:0:
256,88,45326,2,8,L|256:32,2,50,2|2|0,0:0|2:1|0:0,0:0:0:0:
320,164,46143,6,0,P|372:160|416:116,2,100,4|2|2,0:0|2:1|2:1,0:0:0:0:
328,64,47367,1,0,0:0:0:0:
236,28,47775,2,0,P|184:20|136:28,2,100,2|2|2,2:2|2:1|2:1,0:0:0:0:
268,124,49000,1,0,0:0:0:0:
212,208,49408,5,2,2:2:0:0:
236,304,49816,2,0,L|352:316,1,100,2|2,2:1|2:1,0:0:0:0:
436,332,50633,1,0,0:0:0:0:
448,232,51041,2,0,P|456:184|444:132,1,100,2|2,2:2|2:1,0:0:0:0:
356,92,51857,1,2,2:1:0:0:
256,88,52265,1,0,0:0:0:0:
180,156,52673,6,0,B|166:193|166:193|169:269,1,100,2|2,2:2|2:1,0:0:0:0:
264,280,53490,2,0,B|278:243|278:243|276:164,1,100,2|0,2:1|0:0,0:0:0:0:
255,88,54306,1,2,2:1:0:0:
340,36,54714,2,0,P|392:28|452:48,1,100,12|2,2:1|2:1,0:0:0:0:
464,80,55326,2,8,L|524:80,2,50,2|2|2,2:1|2:1|2:1,0:0:0:0:
432,120,55939,5,4,2:1:0:0:
432,220,56347,2,0,P|384:248|328:248,1,100,0|2,0:0|2:1,0:0:0:0:
300,220,56959,2,0,P|256:208|184:232,1,100,0|2,2:0|2:1,0:0:0:0:
160,244,57571,1,0,2:0:0:0:
100,164,57980,1,0,0:0:0:0:
156,80,58388,2,0,P|202:92|270:69,1,100,2|0,2:3|0:0,0:0:0:0:
344,40,59204,5,4,2:1:0:0:
396,124,59612,2,0,P|412:172|408:232,1,100,2|2,2:1|2:1,0:0:0:0:
388,264,60224,2,0,L|288:272,1,100,2|2,2:1|3:0,0:0:0:0:
200,232,61041,2,0,L|144:236,2,50,4|2|0,2:1|2:1|0:0,0:0:0:0:
240,204,61653,2,0,P|248:156|236:100,1,100,0|0,0:0|0:0,0:0:0:0:
224,60,62265,1,0,0:0:0:0:
188,24,62469,5,6,2:1:0:0:
104,76,62877,2,0,P|68:120|68:176,1,100,0|2,0:0|2:1,0:0:0:0:
84,260,63694,1,0,0:0:0:0:
160,328,64102,2,0,B|208:320|208:320|276:336,1,100,2|0,2:1|0:0,0:0:0:0:
304,348,64714,1,0,2:0:0:0:
352,360,64918,2,0,B|400:372|400:372|464:356,1,100,2|0,2:1|0:0,0:0:0:0:
476,264,65735,6,0,L|456:160,1,100,6|0,2:1|0:0,0:0:0:0:
420,136,66347,1,0,2:0:0:0:
372,128,66551,2,0,P|316:131|276:160,1,100,2|0,2:1|0:0,0:0:0:0:
236,180,67163,1,0,2:0:0:0:
188,172,67367,2,0,P|172:128|184:64,2,100,2|0|2,2:1|0:0|2:1,0:0:0:0:
232,260,68592,1,0,0:0:0:0:
316,312,69000,5,6,2:1:0:0:
368,228,69408,2,0,P|404:176|412:120,1,100,2|2,0:0|2:1,0:0:0:0:
464,56,70224,1,0,0:0:0:0:
500,152,70633,2,0,P|492:204|460:264,1,100,2|0,2:1|0:0,0:0:0:0:
440,284,71245,2,0,B|388:292|388:292|324:284,1,100,0|2,2:0|2:1,0:0:0:0:
292,276,71857,2,0,L|232:276,1,50,2|0,2:1|2:0,0:0:0:0:
192,272,72265,5,6,2:1:0:0:
136,188,72673,1,0,0:0:0:0:
220,136,73082,2,0,B|272:136|272:136|324:164,1,100,2|0,2:1|0:0,0:0:0:0:
352,252,73898,2,0,P|408:264|464:240,1,100,2|0,2:1|0:0,0:0:0:0:
504,172,74714,2,0,L|484:116,1,50,0|0,0:0|0:0,0:0:0:0:
436,124,75122,2,0,L|412:64,1,50,0|0,0:0|0:0,0:0:0:0:
372,56,75531,5,6,2:1:0:0:
272,36,75939,2,0,P|228:64|216:112,1,100,0|2,0:0|2:1,0:0:0:0:
272,192,76755,1,0,0:0:0:0:
368,224,77163,2,0,L|380:324,1,100,2|0,2:1|0:0,0:0:0:0:
336,348,77775,1,0,2:0:0:0:
288,332,77980,2,0,P|232:324|188:336,1,100,2|0,2:1|0:0,0:0:0:0:
100,292,78796,6,0,P|84:248|96:184,1,100,6|0,2:1|0:0,0:0:0:0:
120,156,79408,1,0,2:0:0:0:
160,124,79612,2,0,L|264:124,1,100,2|0,2:1|0:0,0:0:0:0:
324,200,80428,1,6,2:1:0:0:
388,124,80837,2,0,L|444:124,1,50,0|0,0:0|2:0,0:0:0:0:
468,164,81245,2,0,P|480:224|456:272,1,100,2|0,2:1|0:0,0:0:0:0:
376,304,82061,6,0,L|260:292,1,100,6|0,2:1|0:0,0:0:0:0:
212,220,82877,2,0,L|108:208,1,100,2|0,2:1|0:0,0:0:0:0:
64,196,83490,1,0,2:0:0:0:
24,168,83694,2,0,P|32:106|59:77,1,100,2|2,2:3|2:1,0:0:0:0:
104,80,84306,2,0,P|176:96|252:76,1,150,4|0,0:0|0:0,0:0:0:0:
340,36,85326,5,4,0:0:0:0:
440,48,85735,2,0,P|452:100|440:152,1,100,4|2,0:0|0:0,0:0:0:0:
420,188,86347,2,0,L|400:244,1,50,2|2,0:0|0:0,0:0:0:0:
376,276,86755,1,2,0:0:0:0:
348,316,86959,6,0,P|296:324|236:308,1,100,6|0,2:1|0:0,0:0:0:0:
184,240,87775,2,0,P|132:228|76:244,1,100,2|0,2:1|0:0,0:0:0:0:
56,144,88592,2,0,L|68:36,1,100,2|0,2:1|0:0,0:0:0:0:
168,32,89408,1,2,2:1:0:0:
264,60,89816,2,0,L|328:60,1,50,0|2,0:0|2:1,0:0:0:0:
364,64,90224,6,0,P|400:92|408:148,1,100,2|0,2:1|0:0,0:0:0:0:
324,192,91041,2,0,P|302:242|309:302,1,100,2|0,2:1|0:0,0:0:0:0:
248,372,91857,2,0,L|128:360,1,100,2|0,2:1|0:0,0:0:0:0:
112,268,92673,2,0,L|104:200,1,50,2|0,2:3|0:0,0:0:0:0:
64,192,93082,2,0,L|60:136,1,50,0|2,0:0|2:1,0:0:0:0:
80,96,93490,5,6,2:1:0:0:
164,44,93898,1,0,0:0:0:0:
204,136,94306,2,0,P|256:148|312:136,1,100,2|0,2:1|0:0,0:0:0:0:
388,88,95122,2,0,P|440:76|496:92,1,100,2|0,2:1|0:0,0:0:0:0:
484,188,95939,2,0,L|468:292,1,100,2|0,2:1|0:0,0:0:0:0:
432,320,96551,1,2,2:1:0:0:
384,336,96755,6,0,P|328:344|284:332,1,100,6|0,2:1|0:0,0:0:0:0:
208,272,97571,2,0,P|200:224|216:164,1,100,2|0,2:1|0:0,0:0:0:0:
284,104,98388,2,0,P|332:116|396:100,1,100,2|0,2:3|0:0,0:0:0:0:
420,72,99000,2,0,L|476:72,1,50,0|4,0:0|0:0,0:0:0:0:
256,192,99408,12,0,104918,2:0:0:0:
