osu file format v14

[General]
AudioFilename: 08 Darekaga wasure teru kamo shirenai bokura ni daijina 001 no koto.mp3
AudioLeadIn: 0
PreviewTime: 62469
Countdown: 0
SampleSet: Normal
StackLeniency: 0.7
Mode: 0
LetterboxInBreaks: 0
WidescreenStoryboard: 0

[Editor]
DistanceSpacing: 1.6
BeatDivisor: 4
GridSize: 4
TimelineZoom: 2.1

[Metadata]
Title:Dareka ga Wasurete Iru kamo Shirenai Bokura ni Daiji na 001 no Koto (D.A mix)
TitleUnicode:誰かが忘れているかもしれない僕らに大事な001のこと(D.A mix)
Artist:UNISON SQUARE GARDEN
ArtistUnicode:UNISON SQUARE GARDEN
Creator:-NanoRIPE-
Version:Hard
Source:
Tags:DUGOUT ACCIDENT Akitoshi Mako Sakata cut version Toys Factory
BeatmapID:986515
BeatmapSetID:445845

[Difficulty]
HPDrainRate:5
CircleSize:4
OverallDifficulty:6
ApproachRate:7
SliderMultiplier:1.2
SliderTickRate:1

[Events]
//Background and Video events
0,0,"Anime-Couple-Wallpaper-Backgrounds.jpg",0,0
//Break Periods
2,7159,9937
//Storyboard Layer 0 (Background)
//Storyboard Layer 1 (Fail)
//Storyboard Layer 2 (Pass)
//Storyboard Layer 3 (Foreground)
//Storyboard Sound Samples

[TimingPoints]
429,408.163265306122,4,1,1,40,1,0
429,-200,4,1,1,40,0,0
5122,-100,4,1,1,50,0,0
5531,-100,4,1,1,60,0,0
10837,-100,4,1,1,40,0,0
11449,-100,4,1,1,40,0,0
11653,-100,4,1,1,40,0,0
12673,-100,4,1,1,50,0,0
13286,-100,4,1,1,50,0,0
13490,-100,4,1,1,60,0,0
20428,-100,4,1,1,50,0,0
33082,-100,4,1,1,50,0,0
33490,-100,4,1,1,50,0,0
46143,-125,4,1,1,40,0,0
55939,-125,4,1,1,60,0,0
56347,-100,4,1,1,60,0,0
60633,-100,4,1,1,60,0,0
62469,-83.3333333333333,3,1,1,70,0,1
74714,-83.3333333333333,3,1,1,70,0,0
75531,-83.3333333333333,3,1,1,70,0,1
86959,-100,3,1,1,60,0,0
99204,-100,3,1,1,50,0,0
99306,-100,3,1,1,50,0,0
100020,-100,3,1,1,40,0,0
100837,-100,3,1,1,35,0,0
101653,-100,3,1,1,30,0,0
102061,-100,3,1,1,30,0,0
102469,-100,3,1,1,25,0,0
103286,-100,3,1,1,20,0,0
103694,-100,3,1,1,20,0,0
104102,-100,3,1,1,15,0,0
104918,-100,3,1,1,10,0,0

[Colours]
Combo1 : 204,135,250
Combo2 : 192,192,192
Combo3 : 128,128,255
Combo4 : 179,188,232

[HitObjects]
44,292,429,6,0,B|80:256|112:252|112:252|148:276|180:276|180:276|216:276,1,180,4|0,0:0|2:0,0:0:0:0:
252,348,2061,6,0,P|276:320|236:196,1,180,4|0,0:0|2:0,0:0:0:0:
156,216,3694,6,0,P|159:167|275:127,1,180,4|0,0:0|2:0,0:0:0:0:
266,122,5122,1,2,2:0:0:0:
440,140,5531,6,0,L|380:140,1,60
308,204,5939,2,0,L|278:203,2,30
392,248,6347,2,0,P|396:284|384:332,1,60,0|0,2:0|0:0,0:0:0:0:
316,344,6755,1,0,0:0:0:0:
288,344,6857,1,0,0:0:0:0:
264,344,6959,5,0,0:0:0:0:
204,100,10837,6,0,L|156:100,2,30,2|0|2,2:0|2:0|2:0,2:0:0:0:
256,164,11245,1,2,2:0:0:0:
312,104,11449,1,4,2:1:0:0:
388,140,11653,1,2,2:1:0:0:
452,196,11857,6,0,L|460:276,1,60,2|2,2:1|2:1,0:0:0:0:
396,312,12265,1,0,0:0:0:0:
348,244,12469,1,2,2:1:0:0:
276,284,12673,2,0,L|264:360,2,60,0|2|0,0:0|2:1|0:0,0:0:0:0:
200,248,13286,1,2,2:1:0:0:
92,300,13490,6,0,P|76:248|100:180,1,120,6|0,2:1|0:0,0:0:0:0:
152,112,14102,1,2,2:1:0:0:
232,64,14306,2,0,L|364:64,1,120,2|0,2:1|0:0,0:0:0:0:
424,120,14918,1,2,2:1:0:0:
392,204,15122,6,0,P|340:220|276:200,1,120,2|0,2:1|0:0,0:0:0:0:
216,136,15735,1,2,2:1:0:0:
156,68,15939,2,0,P|99:51|36:72,1,120,2|0,2:1|0:0,0:0:0:0:
8,152,16551,1,2,2:1:0:0:
44,236,16755,6,0,P|101:252|158:236,1,120,6|0,2:1|0:0,0:0:0:0:
216,160,17367,1,2,2:1:0:0:
272,84,17571,2,0,P|300:120|296:204,1,120,2|0,2:1|0:0,0:0:0:0:
264,280,18184,1,2,2:1:0:0:
340,336,18388,6,0,P|416:352|476:328,1,120,2|0,2:1|0:0,0:0:0:0:
500,256,19000,1,2,2:1:0:0:
476,164,19204,2,0,L|476:116,3,30,0|0|0|0,0:0|0:0|0:0|0:0,0:0:0:0:
444,100,19612,2,8,L|444:48,3,30,0|0|0|0,0:0|0:0|0:0|0:0,0:0:0:0:
412,36,20020,5,6,2:1:0:0:
256,100,20428,1,0,0:0:0:0:
100,32,20837,2,0,L|88:108,1,60,2|2,2:1|2:1,0:0:0:0:
140,160,21245,2,0,L|132:232,1,60,0|0,0:0|2:0,0:0:0:0:
196,276,21653,6,0,P|235:272|268:281,1,60,2|0,2:1|2:0,0:0:0:0:
340,288,22061,1,0,0:0:0:0:
388,220,22265,2,0,B|432:188|432:188|464:216|512:208,1,120,0|2,2:0|2:1,0:0:0:0:
488,124,22877,1,0,0:0:0:0:
408,92,23082,1,2,2:1:0:0:
332,132,23286,6,0,P|280:148|216:128,1,120,2|0,2:1|0:0,0:0:0:0:
156,72,23898,1,0,2:0:0:0:
72,68,24102,2,0,P|52:120|80:192,1,120,2|0,2:1|0:0,0:0:0:0:
120,240,24714,1,0,2:0:0:0:
200,272,24918,6,0,P|228:240|240:212,1,60,2|0,2:1|2:0,0:0:0:0:
196,148,25326,1,0,0:0:0:0:
276,124,25531,2,0,P|324:136|356:208,1,120,0|2,2:0|2:1,0:0:0:0:
300,256,26143,1,0,0:0:0:0:
288,340,26347,1,2,2:1:0:0:
368,364,26551,6,0,P|412:348|428:320,1,60,2|0,2:3|2:0,0:0:0:0:
496,308,26959,2,0,L|492:240,1,60,0|0,0:0|2:0,0:0:0:0:
448,180,27367,2,0,L|440:44,1,120,2|0,2:1|0:0,0:0:0:0:
356,60,27980,1,0,2:0:0:0:
356,60,28184,6,0,L|364:180,1,120,2|0,2:1|0:0,0:0:0:0:
316,248,28796,1,0,2:0:0:0:
316,248,29000,2,0,P|272:252|232:240,1,60,2|2,2:1|2:1,0:0:0:0:
200,312,29408,2,0,P|156:308|124:316,1,60,0|2,0:0|2:1,0:0:0:0:
60,280,29816,5,2,2:1:0:0:
52,112,30224,1,0,0:0:0:0:
52,112,30428,2,0,P|108:128|184:96,1,120,0|2,2:0|2:1,0:0:0:0:
220,48,31041,2,0,L|284:48,1,60,0|0,0:0|2:0,0:0:0:0:
364,60,31449,6,0,P|344:100|320:116,1,60,2|0,2:1|2:0,0:0:0:0:
248,132,31857,2,0,P|220:164|216:192,1,60,0|0,0:0|2:0,0:0:0:0:
300,196,32265,2,0,P|308:236|292:292,1,90,2|0,2:1|0:0,0:0:0:0:
292,324,32673,2,0,P|348:344|364:344,1,60,0|2,0:0|2:1,0:0:0:0:
424,304,33082,5,2,2:2:0:0:
456,132,33490,2,0,L|444:212,1,60,0|0,0:0|2:0,0:0:0:0:
372,152,33898,2,0,L|382:91,1,60,2|0,2:1|2:0,0:0:0:0:
308,52,34306,2,0,L|296:122,1,60,0|0,0:0|2:0,0:0:0:0:
229,155,34714,6,0,P|197:159|157:155,2,60,2|0|0,2:1|2:0|0:0,0:0:0:0:
308,188,35326,2,0,P|324:244|308:312,1,120,0|2,2:0|2:1,0:0:0:0:
256,364,35939,1,0,0:0:0:0:
176,332,36143,1,2,2:1:0:0:
108,284,36347,6,0,B|132:252|164:252|164:252|184:188,1,120,2|0,2:3|0:0,0:0:0:0:
208,124,36959,1,0,2:0:0:0:
264,64,37163,2,0,P|232:48|184:56,2,60,2|0|0,2:1|2:0|0:0,0:0:0:0:
312,128,37775,1,0,2:0:0:0:
360,196,37980,6,0,P|408:196|440:184,1,60,2|0,2:1|2:0,0:0:0:0:
464,120,38388,1,0,0:0:0:0:
464,120,38592,2,0,L|456:252,1,120,0|2,2:0|2:1,0:0:0:0:
400,300,39204,1,0,0:0:0:0:
320,272,39408,1,2,2:1:0:0:
260,332,39612,6,0,P|224:338|191:330,1,60,2|0,2:3|2:0,0:0:0:0:
144,272,40020,1,0,0:0:0:0:
104,200,40224,1,0,2:0:0:0:
48,136,40428,2,0,P|124:120|176:152,1,120,2|0,2:1|0:0,0:0:0:0:
232,96,41041,1,0,2:0:0:0:
300,148,41245,6,0,L|272:272,1,120,2|0,2:1|0:0,0:0:0:0:
188,268,41857,1,0,2:0:0:0:
188,268,42061,2,0,L|124:268,1,60,2|2,2:1|2:1,0:0:0:0:
88,196,42469,2,0,L|152:196,1,60,0|2,0:0|2:1,0:0:0:0:
220,152,42877,6,0,B|264:144|264:144|348:172,1,120,2|0,2:3|0:0,0:0:0:0:
388,240,43490,2,0,P|408:216|408:124,1,120,0|0,2:0|2:0,0:0:0:0:
344,80,44102,1,0,0:0:0:0:
268,52,44306,1,0,2:0:0:0:
188,80,44510,6,0,L|176:148,1,60,2|2,2:1|2:1,0:0:0:0:
100,172,44918,2,0,L|116:240,1,60,0|0,0:0|2:0,0:0:0:0:
178,284,45326,2,0,P|213:280|252:287,1,60,2|2,0:0|2:1,0:0:0:0:
283,353,45735,1,0,0:0:0:0:
348,300,45939,1,2,2:1:0:0:
348,300,46041,1,2,2:1:0:0:
348,300,46143,6,0,P|356:252|336:200,1,96,4|2,0:0|2:1,0:0:0:0:
304,140,46755,1,0,2:0:0:0:
256,80,46959,1,2,2:1:0:0:
208,140,47163,1,0,0:0:0:0:
208,140,47265,1,0,0:0:0:0:
208,140,47367,2,0,L|148:140,1,48,0|0,0:0|2:0,0:0:0:0:
88,112,47775,6,0,P|32:136|16:164,1,96,2|2,2:2|2:1,0:0:0:0:
20,240,48388,1,0,2:0:0:0:
76,292,48592,1,2,2:1:0:0:
152,272,48796,1,0,0:0:0:0:
152,272,48898,1,0,0:0:0:0:
152,272,49000,2,0,L|208:272,1,48,0|0,0:0|2:0,0:0:0:0:
260,320,49408,6,0,P|304:328|352:300,1,96,2|2,2:2|2:1,0:0:0:0:
396,244,50020,1,0,2:0:0:0:
364,172,50224,1,2,2:1:0:0:
288,180,50428,1,0,0:0:0:0:
288,180,50531,1,0,0:0:0:0:
288,180,50633,2,0,L|228:180,1,48,0|0,0:0|2:0,0:0:0:0:
180,228,51041,6,0,P|140:236|80:208,1,96,2|2,2:2|2:1,0:0:0:0:
60,148,51653,1,0,2:0:0:0:
92,80,51857,1,2,2:1:0:0:
172,96,52061,1,0,0:0:0:0:
172,96,52163,1,0,0:0:0:0:
172,96,52265,2,0,L|232:96,1,48,0|0,0:0|2:0,0:0:0:0:
296,116,52673,6,0,P|328:148|332:208,1,96,2|2,2:2|2:1,0:0:0:0:
300,268,53286,1,0,2:0:0:0:
224,252,53490,1,2,2:1:0:0:
164,300,53694,1,0,0:0:0:0:
164,300,53796,1,0,0:0:0:0:
164,300,53898,2,0,L|100:300,1,48,0|0,0:0|2:0,0:0:0:0:
44,276,54306,6,0,P|28:236|40:176,1,96,2|12,2:1|2:1,0:0:0:0:
88,124,54918,1,2,2:1:0:0:
144,72,55122,2,0,L|204:72,1,48,2|2,2:1|2:1,0:0:0:0:
260,104,55531,2,0,L|328:104,1,48,2|2,2:1|2:1,0:0:0:0:
372,144,55939,1,4,2:1:0:0:
444,296,56347,6,0,P|396:292|368:300,1,60,0|2,0:0|2:1,0:0:0:0:
324,348,56755,1,2,2:1:0:0:
244,340,56959,1,0,2:0:0:0:
172,300,57163,2,0,P|166:270|171:241,1,60,0|2,0:0|2:1,0:0:0:0:
96,204,57571,5,0,2:0:0:0:
40,144,57775,2,0,P|84:124|108:128,1,60,2|0,2:1|0:0,0:0:0:0:
156,68,58184,1,2,2:1:0:0:
236,92,58388,1,2,2:3:0:0:
316,60,58592,1,0,0:0:0:0:
316,60,58694,1,0,0:0:0:0:
316,60,58796,2,0,L|364:60,2,30
236,92,59204,5,4,2:1:0:0:
268,168,59408,2,0,L|328:168,1,60,2|2,2:1|2:1,0:0:0:0:
324,252,59816,2,0,L|248:252,1,60,2|2,2:1|2:1,0:0:0:0:
180,252,60224,1,2,2:1:0:0:
116,196,60428,1,2,2:1:0:0:
116,112,60633,1,2,3:0:0:0:
280,76,61041,5,4,2:1:0:0:
220,132,61245,2,0,P|268:160|284:160,1,60,2|0,2:1|0:0,0:0:0:0:
312,160,61551,1,0,0:0:0:0:
312,160,61653,2,0,L|384:160,1,60,0|2,0:0|2:1,0:0:0:0:
404,236,62061,2,8,L|404:284,3,30,0|0|0|0,0:0|0:0|0:0|0:0,0:0:0:0:
404,316,62469,5,6,2:1:0:0:
492,264,62673,1,0,2:0:0:0:
456,172,62877,2,0,L|440:92,1,71.9999978027344,0|0,0:0|2:0,0:0:0:0:
348,68,63286,2,0,P|280:68|252:52,1,71.9999978027344,2|0,2:1|2:0,0:0:0:0:
140,128,63694,2,0,P|208:128|236:144,1,71.9999978027344,0|0,0:0|2:0,0:0:0:0:
296,184,64102,6,0,L|284:264,1,71.9999978027344,2|0,2:1|2:0,0:0:0:0:
184,268,64510,1,0,0:0:0:0:
240,352,64714,2,0,P|312:340|400:368,1,143.999995605469,0|2,2:0|2:1,0:0:0:0:
480,340,65326,2,0,L|452:256,1,71.9999978027344,0|0,0:0|2:0,0:0:0:0:
480,120,65735,6,0,L|456:200,1,71.9999978027344,6|0,2:1|2:0,0:0:0:0:
360,212,66143,1,0,0:0:0:0:
316,120,66347,2,0,P|252:104|176:128,1,143.999995605469,0|2,2:0|2:1,0:0:0:0:
88,172,66959,2,0,L|76:252,1,71.9999978027344,0|0,0:0|2:0,0:0:0:0:
104,340,67367,6,0,P|172:332|208:240,1,143.999995605469,2|0,2:1|0:0,0:0:0:0:
260,184,67980,1,0,2:0:0:0:
304,276,68184,2,0,P|348:340|428:348,1,143.999995605469,2|0,2:1|0:0,0:0:0:0:
480,280,68796,1,0,2:0:0:0:
488,152,69000,6,0,L|480:72,1,71.9999978027344,6|0,2:1|2:0,0:0:0:0:
396,28,69408,2,0,P|340:24|317:30,1,71.9999978027344,0|0,0:0|2:0,0:0:0:0:
264,108,69816,2,0,L|252:190,1,71.9999978027344,2|0,2:1|2:0,0:0:0:0:
152,309,70224,2,0,L|168:232,1,71.9999978027344,0|0,0:0|2:0,0:0:0:0:
253,179,70633,6,0,P|288:172|344:188,2,71.9999978027344,2|0|0,2:1|2:0|0:0,0:0:0:0:
300,268,71245,2,0,P|360:304|424:236,1,143.999995605469,0|2,2:0|2:1,0:0:0:0:
440,172,71857,2,0,L|432:92,1,71.9999978027344,2|0,2:1|2:0,0:0:0:0:
344,52,72265,5,6,2:1:0:0:
292,140,72469,1,2,2:1:0:0:
212,76,72673,2,0,P|177:67|142:75,1,71.9999978027344,0|2,0:0|2:1,0:0:0:0:
76,148,73082,2,0,L|75:227,1,71.9999978027344,2|0,2:1|2:0,0:0:0:0:
124,308,73490,1,0,0:0:0:0:
224,328,73694,1,2,2:1:0:0:
284,248,73898,6,0,L|284:176,1,71.9999978027344,2|2,2:1|2:1,0:0:0:0:
220,96,74306,1,0,0:0:0:0:
316,60,74510,1,2,2:1:0:0:
400,116,74714,2,8,L|400:164,3,35.9999989013672,0|0|0|0,0:0|0:0|0:0|0:0,0:0:0:0:
436,188,75122,2,8,L|436:240,3,35.9999989013672,0|0|0|0,0:0|0:0|0:0|0:0,0:0:0:0:
456,272,75531,5,6,2:1:0:0:
360,304,75735,1,0,2:0:0:0:
264,332,75939,2,0,L|184:332,1,71.9999978027344,0|0,0:0|2:0,0:0:0:0:
72,260,76347,2,0,L|160:260,1,71.9999978027344,2|0,2:1|2:0,0:0:0:0:
236,220,76755,2,0,P|248:184|240:140,1,71.9999978027344,0|0,0:0|2:0,0:0:0:0:
248,52,77163,6,0,L|332:52,1,71.9999978027344,2|0,2:1|2:0,0:0:0:0:
408,100,77571,1,0,0:0:0:0:
484,168,77775,2,0,P|500:236|476:320,1,143.999995605469,0|2,2:0|2:1,0:0:0:0:
388,336,78388,2,0,P|352:328|312:340,1,71.9999978027344,0|0,0:0|2:0,0:0:0:0:
181,293,78796,6,0,P|137:301|101:289,1,71.9999978027344,6|0,2:1|2:0,0:0:0:0:
30,233,79204,1,0,0:0:0:0:
37,132,79408,2,0,B|37:72|37:72|97:80|121:40,1,143.999995605469,0|2,2:0|2:1,0:0:0:0:
212,36,80020,2,0,L|224:112,1,71.9999978027344,0|0,0:0|2:0,0:0:0:0:
264,200,80428,6,0,B|332:212|332:212|416:196,1,143.999995605469,6|0,2:1|0:0,0:0:0:0:
472,124,81041,2,0,P|500:216|468:272,1,143.999995605469,0|2,2:0|2:1,0:0:0:0:
408,324,81653,1,0,0:0:0:0:
320,276,81857,1,0,2:0:0:0:
192,336,82061,6,0,P|112:352|48:320,1,143.999995605469,6|0,2:1|0:0,0:0:0:0:
32,232,82673,1,0,2:0:0:0:
60,136,82877,2,0,L|76:60,1,71.9999978027344,2|0,2:1|2:0,0:0:0:0:
172,96,83286,2,0,L|156:192,1,71.9999978027344,0|0,0:0|2:0,0:0:0:0:
212,256,83694,6,0,P|260:252|292:260,1,71.9999978027344,2|2,2:3|2:1,0:0:0:0:
332,272,84000,1,2,2:1:0:0:
332,272,84102,1,2,2:1:0:0:
424,308,84306,2,0,P|428:248|356:176,1,143.999995605469,4|2,0:0|2:1,0:0:0:0:
288,160,84918,1,0,0:0:0:0:
284,68,85122,1,0,2:0:0:0:
192,84,85326,6,0,P|156:92|120:84,1,71.9999978027344,4|0,0:0|2:0,0:0:0:0:
284,68,85735,2,0,P|324:60|364:72,1,71.9999978027344,4|0,0:0|2:0,0:0:0:0:
444,96,86143,1,2,0:0:0:0:
456,188,86347,1,2,0:0:0:0:
368,240,86551,1,2,0:0:0:0:
272,204,86755,1,2,0:0:0:0:
224,328,86959,6,0,P|150:339|98:319,1,120,6|0,2:1|0:0,0:0:0:0:
52,248,87571,1,2,2:1:0:0:
88,160,87775,2,0,P|152:152|208:180,1,120,2|0,2:1|0:0,0:0:0:0:
252,256,88388,1,2,2:1:0:0:
344,232,88592,6,0,P|360:172|324:100,1,120,2|0,2:1|0:0,0:0:0:0:
284,40,89204,1,2,2:1:0:0:
380,28,89408,2,0,L|444:28,1,60,2|0,2:1|2:1,0:0:0:0:
492,108,89816,2,0,L|424:108,1,60,0|2,0:0|2:1,0:0:0:0:
340,136,90224,6,0,P|280:148|212:128,1,120,2|0,2:1|0:0,0:0:0:0:
148,76,90837,1,2,2:1:0:0:
56,100,91041,2,0,P|32:148|40:240,1,120,2|0,2:1|0:0,0:0:0:0:
80,296,91653,1,2,2:1:0:0:
168,336,91857,6,0,L|300:336,1,120,2|0,2:1|0:0,0:0:0:0:
380,308,92469,1,2,2:1:0:0:
440,236,92673,2,0,L|440:152,1,60,2|0,2:3|0:0,0:0:0:0:
440,128,92980,1,0,0:0:0:0:
440,128,93082,1,0,0:0:0:0:
384,52,93286,1,2,2:1:0:0:
316,160,93490,6,0,P|264:172|188:152,1,120,6|0,2:1|0:0,0:0:0:0:
136,84,94102,1,2,2:1:0:0:
56,32,94306,2,0,P|40:84|76:160,1,120,2|0,2:1|0:0,0:0:0:0:
100,232,94918,1,2,2:1:0:0:
72,324,95122,6,0,P|144:320|184:280,1,120,2|0,2:1|0:0,0:0:0:0:
252,228,95735,1,2,2:1:0:0:
276,136,95939,2,0,P|324:164|344:236,1,120,2|0,2:1|0:0,0:0:0:0:
376,312,96551,1,2,2:1:0:0:
468,220,96755,6,0,L|476:80,1,120,6|0,2:1|0:0,0:0:0:0:
380,76,97367,1,2,2:1:0:0:
300,20,97571,2,0,P|284:72|312:144,1,120,2|0,2:1|0:0,0:0:0:0:
360,212,98184,1,2,2:1:0:0:
428,280,98388,6,0,P|388:304|364:304,1,60,2|0,2:3|0:0,0:0:0:0:
328,308,98694,1,0,0:0:0:0:
328,308,98796,1,0,0:0:0:0:
248,252,99000,1,0,0:0:0:0:
232,232,99102,1,0,0:0:0:0:
216,212,99204,1,4,0:0:0:0:
256,192,99306,12,0,104918,2:0:0:0:
