osu file format v14

[General]
AudioFilename: 08 Darekaga wasure teru kamo shirenai bokura ni daijina 001 no koto.mp3
AudioLeadIn: 0
PreviewTime: 62469
Countdown: 0
SampleSet: Normal
StackLeniency: 0.7
Mode: 0
LetterboxInBreaks: 0
WidescreenStoryboard: 0

[Editor]
Bookmarks: 5607
DistanceSpacing: 1.4
BeatDivisor: 4
GridSize: 4
TimelineZoom: 1.5

[Metadata]
Title:Dareka ga Wasurete Iru kamo Shirenai Bokura ni Daiji na 001 no Koto (D.A mix)
TitleUnicode:誰かが忘れているかもしれない僕らに大事な001のこと(D.A mix)
Artist:UNISON SQUARE GARDEN
ArtistUnicode:UNISON SQUARE GARDEN
Creator:-NanoRIPE-
Version:Advanced
Source:
Tags:DUGOUT ACCIDENT Akitoshi Mako Sakata cut version Toys Factory
BeatmapID:1016397
BeatmapSetID:445845

[Difficulty]
HPDrainRate:4
CircleSize:4
OverallDifficulty:5
ApproachRate:6
SliderMultiplier:1.1
SliderTickRate:1

[Events]
//Background and Video events
0,0,"Anime-Couple-Wallpaper-Backgrounds.jpg",0,0
//Break Periods
2,7159,9787
//Storyboard Layer 0 (Background)
//Storyboard Layer 1 (Fail)
//Storyboard Layer 2 (Pass)
//Storyboard Layer 3 (Foreground)
//Storyboard Sound Samples

[TimingPoints]
429,408.163265306122,4,1,1,40,1,0
429,-200,4,1,1,40,0,0
5122,-100,4,1,1,50,0,0
5531,-100,4,1,1,60,0,0
10837,-100,4,1,1,40,0,0
11449,-100,4,1,1,40,0,0
12673,-100,4,1,1,50,0,0
13490,-100,4,1,1,60,0,0
20428,-100,4,1,1,50,0,0
33082,-100,4,1,1,50,0,0
33490,-100,4,1,1,50,0,0
46143,-125,4,1,1,40,0,0
55939,-100,4,1,1,60,0,0
60633,-100,4,1,1,60,0,0
62469,-83.3333333333333,3,1,1,70,0,1
74714,-83.3333333333333,3,1,1,70,0,0
75531,-83.3333333333333,3,1,1,70,0,1
86959,-100,3,1,1,60,0,0
99204,-100,3,1,1,50,0,0
99306,-100,3,1,1,50,0,0
100020,-100,3,1,1,40,0,0
100837,-100,3,1,1,35,0,0
101653,-100,3,1,1,30,0,0
102469,-100,3,1,1,25,0,0
103286,-100,3,1,1,20,0,0
103694,-100,3,1,1,20,0,0
104102,-100,3,1,1,15,0,0
104918,-100,3,1,1,10,0,0

[Colours]
Combo1 : 204,135,250
Combo2 : 192,192,192
Combo3 : 128,128,255
Combo4 : 179,188,232

[HitObjects]
324,72,429,6,0,P|268:52|160:76,1,165,4|0,0:0|2:0,0:0:0:0:
116,132,2061,6,0,P|96:208|124:296,1,165,4|0,0:0|2:0,0:0:0:0:
180,336,3694,6,0,P|258:357|337:335,1,165,4|0,0:0|2:0,0:0:0:0:
337,334,5122,1,2,2:0:0:0:
436,216,5531,6,0,L|512:216,2,55
368,180,6143,1,0,0:0:0:0:
320,120,6347,2,0,P|296:116|248:124,2,55,0|0|0,2:0|0:0|0:0,0:0:0:0:
368,180,6959,5,0,0:0:0:0:
372,104,10837,6,0,L|416:104,2,27.5,2|0|2,2:0|2:0|2:0,0:0:0:0:
300,72,11245,2,0,L|232:72,1,55,2|4,2:0|2:1,0:0:0:0:
196,132,11653,1,2,2:1:0:0:
132,176,11857,2,0,L|132:252,2,55,2|2|0,2:1|2:1|0:0,0:0:0:0:
76,124,12469,5,2,2:1:0:0:
112,56,12673,2,0,P|148:52|168:56,1,55,0|2,0:0|2:1,0:0:0:0:
244,68,13082,1,0,0:0:0:0:
404,108,13490,6,0,P|436:164|432:232,1,110,6|0,2:1|0:0,0:0:0:0:
396,280,14102,1,2,2:1:0:0:
328,328,14306,2,0,P|276:316|208:332,1,110,2|0,2:1|0:0,0:0:0:0:
148,288,14918,1,2,2:1:0:0:
84,236,15122,6,0,P|72:168|92:112,1,110,2|0,2:1|0:0,0:0:0:0:
136,64,15735,1,2,2:1:0:0:
212,96,15939,2,0,P|268:108|324:96,1,110,2|0,2:1|0:0,0:0:0:0:
460,184,16755,6,0,P|476:244|460:304,1,110,6|0,2:1|0:0,0:0:0:0:
396,336,17367,1,2,2:1:0:0:
316,316,17571,2,0,L|220:256,1,110,2|0,2:1|0:0,0:0:0:0:
160,204,18184,1,2,2:1:0:0:
200,132,18388,6,0,P|256:120|312:136,1,110,2|0,2:1|0:0,0:0:0:0:
376,180,19000,1,2,2:1:0:0:
444,224,19204,2,0,P|484:224|508:220,2,55,0|0|0,0:0|0:0|0:0,0:0:0:0:
384,280,19816,1,0,0:0:0:0:
312,320,20020,5,6,2:1:0:0:
216,196,20428,2,0,P|152:184|100:204,2,110,0|2|0,0:0|2:1|0:0,0:0:0:0:
332,296,21653,6,0,L|404:296,2,55,2|0|0,2:1|2:0|0:0,0:0:0:0:
276,348,22265,2,0,P|224:360|164:348,1,110,0|2,2:0|2:1,0:0:0:0:
132,284,22877,2,0,L|132:220,1,55,0|2,0:0|2:1,0:0:0:0:
68,184,23286,5,2,2:1:0:0:
132,44,23694,2,0,P|180:56|244:40,1,110,0|2,0:0|2:1,0:0:0:0:
388,76,24510,2,0,P|384:108|392:140,1,55,0|0,0:0|2:0,0:0:0:0:
452,176,24918,6,0,P|456:212|448:244,1,55,2|0,2:1|2:0,0:0:0:0:
384,268,25326,1,0,0:0:0:0:
348,200,25531,2,0,P|296:184|236:200,1,110,0|2,2:0|2:1,0:0:0:0:
188,252,26143,1,0,0:0:0:0:
112,232,26347,1,2,2:1:0:0:
44,272,26551,6,0,B|44:316|44:316|72:348|124:348,1,110,2|0,2:3|0:0,0:0:0:0:
176,324,27163,1,0,2:0:0:0:
244,360,27367,2,0,L|364:360,1,110,2|0,2:1|0:0,0:0:0:0:
413,310,27980,1,0,2:0:0:0:
459,248,28184,6,0,P|469:193|440:126,1,110,2|0,2:1|0:0,0:0:0:0:
384,105,28796,1,0,2:0:0:0:
311,130,29000,2,0,B|257:143|257:143|189:128,1,110,2|0,2:1|0:0,0:0:0:0:
139,88,29612,1,2,2:1:0:0:
97,152,29816,5,2,2:1:0:0:
140,299,30224,2,0,L|204:299,1,55,0|0,0:0|2:0,0:0:0:0:
254,348,30633,2,0,P|318:344|334:296,1,110,2|0,2:1|0:0,0:0:0:0:
324,231,31245,1,0,2:0:0:0:
392,196,31449,6,0,L|457:196,2,55,2|0|0,2:1|2:0|0:0,0:0:0:0:
348,132,32061,1,0,2:0:0:0:
288,88,32265,2,0,P|232:76|160:100,1,110,2|0,2:1|0:0,0:0:0:0:
132,224,33082,5,2,2:2:0:0:
284,236,33490,2,8,P|272:280|296:348,2,110,0|2|0,0:0|2:1|0:0,0:0:0:0:
420,160,34714,6,0,L|484:160,2,55,2|0|0,2:1|2:0|0:0,0:0:0:0:
376,96,35326,2,0,P|322:83|269:95,1,110,0|2,2:0|2:1,0:0:0:0:
216,152,35939,2,0,L|156:152,1,55,0|2,0:0|2:1,0:0:0:0:
84,156,36347,6,0,B|68:212|68:212|72:284,1,110,2|0,2:3|0:0,0:0:0:0:
224,280,37163,2,0,L|212:344,2,55,2|0|0,2:1|2:0|0:0,0:0:0:0:
292,240,37775,1,0,2:0:0:0:
344,184,37980,6,0,P|368:220|368:256,2,55,2|0|0,2:1|2:0|0:0,0:0:0:0:
276,144,38592,2,0,P|264:112|280:36,1,110,0|2,2:0|2:1,0:0:0:0:
352,20,39204,1,0,0:0:0:0:
420,56,39408,1,2,2:1:0:0:
448,128,39612,6,0,P|480:108|496:84,2,55,2|0|0,2:3|2:0|0:0,0:0:0:0:
384,172,40224,1,0,2:0:0:0:
324,224,40428,2,0,P|268:208|208:228,1,110,2|0,2:1|0:0,0:0:0:0:
160,272,41041,1,0,2:0:0:0:
132,200,41245,6,0,B|132:132|132:132|160:84,1,110,2|0,2:1|0:0,0:0:0:0:
228,76,41857,1,0,2:0:0:0:
284,128,42061,2,0,B|316:160|316:160|400:160,1,110,2|0,2:1|0:0,0:0:0:0:
456,144,42673,1,2,2:1:0:0:
468,220,42877,5,2,2:3:0:0:
332,296,43286,2,0,L|277:301,1,55,0|0,0:0|2:0,0:0:0:0:
204,324,43694,2,0,P|136:332|96:284,1,110,2|0,2:1|0:0,0:0:0:0:
84,236,44306,1,0,2:0:0:0:
152,196,44510,6,0,L|216:196,1,55,2|2,2:1|2:1,0:0:0:0:
244,128,44918,2,0,L|308:128,1,55,0|0,0:0|2:0,0:0:0:0:
364,168,45326,2,0,B|392:216|392:216|392:296,1,110,2|0,0:0|0:0,0:0:0:0:
336,328,45939,1,2,2:1:0:0:
300,260,46143,6,0,P|272:252|208:264,1,88,4|2,0:0|2:1,0:0:0:0:
160,288,46755,1,0,2:0:0:0:
100,292,46959,2,0,P|72:256|68:196,1,88,2|0,2:1|0:0,0:0:0:0:
48,92,47775,6,0,L|156:96,1,88,2|2,2:2|2:1,0:0:0:0:
196,100,48388,1,0,2:0:0:0:
256,108,48592,2,0,P|264:168|248:204,1,88,2|0,2:1|0:0,0:0:0:0:
152,260,49408,6,0,P|192:300|236:308,1,88,2|2,2:2|2:1,0:0:0:0:
284,312,50020,1,0,2:0:0:0:
344,320,50224,2,0,L|416:324,2,66,2|0|0,2:1|0:0|2:0,0:0:0:0:
284,312,51041,6,0,P|272:272|284:216,1,88,2|2,2:2|2:1,0:0:0:0:
272,104,51857,2,0,L|212:104,1,44,2|0,2:1|0:0,0:0:0:0:
168,104,52265,1,0,0:0:0:0:
60,164,52673,6,0,P|48:224|64:264,1,88,2|2,2:2|2:1,0:0:0:0:
92,296,53286,1,0,2:0:0:0:
152,312,53490,2,8,L|260:316,1,88,2|0,2:1|0:0,0:0:0:0:
364,320,54306,6,0,P|400:284|408:236,1,88,2|12,2:1|2:1,0:0:0:0:
420,128,55122,1,2,2:1:0:0:
456,76,55326,2,8,L|500:76,2,44,2|2|2,2:1|2:1|2:1,0:0:0:0:
404,40,55939,5,4,2:1:0:0:
252,60,56347,2,0,L|264:128,1,55,0|2,0:0|2:1,0:0:0:0:
284,188,56755,1,2,2:1:0:0:
228,244,56959,2,0,P|192:232|152:160,1,110,0|2,2:0|2:1,0:0:0:0:
76,172,57571,6,0,L|60:296,1,110,0|0,2:0|0:0,0:0:0:0:
108,344,58184,1,2,2:1:0:0:
184,340,58388,2,0,B|224:340|224:340|252:352|252:352|304:352,1,110,2|0,2:3|0:0,0:0:0:0:
360,316,59000,1,0,0:0:0:0:
412,260,59204,6,0,L|412:205,1,55,4|2,2:1|2:1,0:0:0:0:
428,132,59612,1,2,2:1:0:0:
364,92,59816,2,8,L|364:28,2,55,2|2|2,2:1|2:1|2:1,0:0:0:0:
308,144,60428,2,0,L|244:144,1,55,2|2,2:1|3:0,0:0:0:0:
112,72,61041,5,4,2:1:0:0:
148,140,61245,1,2,2:1:0:0:
96,196,61449,2,0,L|36:196,2,55,0|0|2,0:0|0:0|2:1,0:0:0:0:
134,262,62061,2,8,L|206:262,1,55,0|0,0:0|0:0,0:0:0:0:
253,328,62469,6,0,P|313:344|381:328,1,131.99999597168,6|0,2:1|0:0,0:0:0:0:
452,272,63082,1,0,2:0:0:0:
488,188,63286,2,0,L|492:108,1,65.9999979858399,2|0,2:1|2:0,0:0:0:0:
400,120,63694,2,0,L|392:32,1,65.9999979858399,0|0,0:0|2:0,0:0:0:0:
308,24,64102,6,0,B|271:24|271:24|223:40,1,65.9999979858399,2|0,2:1|2:0,0:0:0:0:
164,80,64510,1,0,0:0:0:0:
92,136,64714,2,0,P|68:196|88:276,1,131.99999597168,0|2,2:0|2:1,0:0:0:0:
148,320,65326,1,0,0:0:0:0:
328,268,65735,6,0,P|314:227|317:192,1,65.9999979858399,6|0,2:1|2:0,0:0:0:0:
368,132,66143,1,0,0:0:0:0:
316,56,66347,2,0,P|240:40|172:76,1,131.99999597168,0|2,2:0|2:1,0:0:0:0:
136,132,66959,2,0,L|131:217,1,65.9999979858399,0|0,0:0|2:0,0:0:0:0:
188,272,67367,6,0,P|219:279|252:274,1,65.9999979858399,2|0,2:1|2:0,0:0:0:0:
340,244,67775,1,0,0:0:0:0:
424,200,67980,2,0,L|432:68,1,131.99999597168,0|2,2:0|2:1,0:0:0:0:
348,28,68592,1,0,0:0:0:0:
169,34,69000,6,0,P|90:82|75:141,1,131.99999597168,6|0,2:1|0:0,0:0:0:0:
81,207,69612,1,0,2:0:0:0:
108,296,69816,2,0,L|192:300,1,65.9999979858399,2|0,2:1|2:0,0:0:0:0:
260,260,70224,2,0,L|340:264,1,65.9999979858399,0|0,0:0|2:0,0:0:0:0:
412,296,70633,6,0,P|416:332|404:368,2,65.9999979858399,2|0|0,2:1|2:0|0:0,0:0:0:0:
400,204,71245,2,0,B|332:180|332:180|272:180,1,131.99999597168,0|2,2:0|2:1,0:0:0:0:
192,228,71857,2,0,P|161:233|120:224,1,65.9999979858399,2|0,2:1|2:0,0:0:0:0:
80,148,72265,5,6,2:1:0:0:
256,88,72673,2,0,L|328:88,1,65.9999979858399,0|2,0:0|2:1,0:0:0:0:
388,152,73082,1,2,2:1:0:0:
412,240,73286,2,0,P|388:296|308:312,1,131.99999597168,0|2,2:0|2:1,0:0:0:0:
256,256,73898,5,2,2:1:0:0:
180,312,74102,2,0,P|118:294|96:220,1,131.99999597168,2|2,2:1|2:1,0:0:0:0:
64,148,74714,2,0,P|104:144|144:156,1,65.9999979858399,0|0,0:0|0:0,0:0:0:0:
216,116,75122,2,0,P|248:120|296:108,1,65.9999979858399,0|0,0:0|0:0,0:0:0:0:
368,144,75531,6,0,L|368:228,1,65.9999979858399,6|0,2:1|2:0,0:0:0:0:
448,260,75939,2,0,L|448:344,1,65.9999979858399,0|0,0:0|2:0,0:0:0:0:
360,360,76347,2,0,P|296:380|232:356,1,131.99999597168,2|0,2:1|0:0,0:0:0:0:
256,268,76959,1,0,2:0:0:0:
208,192,77163,6,0,P|180:188|136:196,1,65.9999979858399,2|0,2:1|2:0,0:0:0:0:
92,268,77571,1,0,0:0:0:0:
36,196,77775,2,0,B|36:104|36:104|48:60|80:56,1,131.99999597168,0|2,2:0|2:1,0:0:0:0:
140,36,78388,1,0,0:0:0:0:
284,160,78796,6,0,L|360:160,1,65.9999979858399,6|0,2:1|2:0,0:0:0:0:
424,212,79204,1,0,0:0:0:0:
408,304,79408,2,0,B|320:304|320:304|280:336,1,131.99999597168,0|2,2:0|2:1,0:0:0:0:
192,320,80020,1,0,0:0:0:0:
108,280,80224,1,0,2:0:0:0:
152,196,80428,6,0,B|188:164|188:164|188:76,1,131.99999597168,6|0,2:1|0:0,0:0:0:0:
256,20,81041,1,0,2:0:0:0:
324,84,81245,2,0,B|324:167|324:167|360:199,1,131.99999597168,2|0,2:1|0:0,0:0:0:0:
412,276,81857,1,0,2:0:0:0:
352,344,82061,6,0,P|312:352|276:340,1,65.9999979858399,6|0,2:1|2:0,0:0:0:0:
248,264,82469,2,0,P|184:244|116:268,1,131.99999597168,0|2,0:0|2:1,0:0:0:0:
36,236,83082,1,0,2:0:0:0:
84,156,83286,2,0,L|84:90,1,65.9999979858399,0|0,0:0|2:0,0:0:0:0:
156,32,83694,6,0,P|236:28|232:92,1,131.99999597168,2|2,2:3|2:1,0:0:0:0:
324,112,84306,2,0,P|284:152|208:144,1,131.99999597168,4|2,0:0|2:1,0:0:0:0:
120,148,84918,1,0,0:0:0:0:
152,236,85122,1,0,2:0:0:0:
208,308,85326,6,0,P|264:312|284:304,1,65.9999979858399,4|0,0:0|2:0,0:0:0:0:
356,272,85735,2,0,P|404:268|428:276,1,65.9999979858399,4|0,0:0|2:0,0:0:0:0:
460,188,86143,2,0,L|460:116,1,65.9999979858399,2|2,0:0|0:0,0:0:0:0:
396,56,86551,2,8,L|324:56,1,65.9999979858399,2|2,0:0|0:0,0:0:0:0:
256,96,86959,6,0,P|240:148|252:201,1,110,6|0,2:1|0:0,0:0:0:0:
304,264,87571,1,2,2:1:0:0:
252,328,87775,2,0,L|124:328,1,110,2|0,2:1|0:0,0:0:0:0:
92,260,88388,1,2,2:1:0:0:
124,184,88592,6,0,L|252:184,1,110,2|0,2:1|0:0,0:0:0:0:
276,256,89204,1,2,2:1:0:0:
356,236,89408,2,0,P|388:200|388:124,1,110,2|0,2:1|0:0,0:0:0:0:
328,92,90020,1,2,2:1:0:0:
248,116,90224,6,0,P|180:104|132:124,1,110,2|0,2:1|0:0,0:0:0:0:
76,168,90837,1,2,2:1:0:0:
24,232,91041,2,0,L|44:348,1,110,2|0,2:1|0:0,0:0:0:0:
124,344,91653,1,2,2:1:0:0:
184,288,91857,6,0,P|232:276|304:300,1,110,2|0,2:1|0:0,0:0:0:0:
356,340,92469,1,2,2:1:0:0:
424,292,92673,1,2,2:3:0:0:
360,240,92877,2,8,L|360:188,2,27.5,0|0|0,0:0|0:0|0:0,0:0:0:0:
289,290,93286,1,2,2:1:0:0:
224,236,93490,6,0,P|192:196|188:132,1,110,6|0,2:1|0:0,0:0:0:0:
244,80,94102,1,2,2:1:0:0:
172,40,94306,2,0,P|120:28|56:44,1,110,2|0,2:1|0:0,0:0:0:0:
24,112,94918,1,2,2:1:0:0:
16,196,95122,6,0,B|16:260|16:260|36:304,1,110,2|0,2:1|0:0,0:0:0:0:
112,332,95735,1,2,2:1:0:0:
192,348,95939,2,0,B|240:348|240:348|308:348,1,110,2|0,2:1|0:0,0:0:0:0:
380,324,96551,1,2,2:1:0:0:
440,268,96755,6,0,P|452:208|428:148,1,110,6|0,2:1|0:0,0:0:0:0:
384,100,97367,1,2,2:1:0:0:
320,152,97571,2,0,P|264:164|200:144,1,110,2|0,2:1|0:0,0:0:0:0:
156,92,98184,1,2,2:1:0:0:
116,164,98388,6,0,L|116:284,1,110,2|0,2:3|0:0,0:0:0:0:
188,316,99000,1,0,0:0:0:0:
272,316,99204,1,4,0:0:0:0:
256,192,99306,12,0,104918,2:0:0:0:
