osu file format v14

[General]
AudioFilename: audio.mp3
AudioLeadIn: 0
PreviewTime: 63221
Countdown: 0
SampleSet: Soft
StackLeniency: 0.7
Mode: 0
LetterboxInBreaks: 0
WidescreenStoryboard: 1

[Editor]
Bookmarks: 6855
DistanceSpacing: 1
BeatDivisor: 4
GridSize: 16
TimelineZoom: 2.000006

[Metadata]
Title:Counter Identity (TV Size)
TitleUnicode:カウンターアイデンティティ (TV Size)
Artist:UNISON SQUARE GARDEN
ArtistUnicode:UNISON SQUARE GARDEN
Creator:genga
Version:Basen's Extra
Source:ソウルイーターリピートショー
Tags:opening soul eater repeat show
BeatmapID:1935935
BeatmapSetID:914260

[Difficulty]
HPDrainRate:5.6
CircleSize:3.8
OverallDifficulty:8.6
ApproachRate:9.2
SliderMultiplier:1.4
SliderTickRate:1

[Events]
//Background and Video events
0,0,"bg.jpg",0,0
//Break Periods
//Storyboard Layer 0 (Background)
//Storyboard Layer 1 (Fail)
//Storyboard Layer 2 (Pass)
//Storyboard Layer 3 (Foreground)
//Storyboard Sound Samples

[TimingPoints]
5434,315.789473684211,4,2,1,60,1,0
9065,315.789473684211,4,2,1,60,1,0
10486,315.789473684211,4,2,1,60,1,0
12380,333.333333333333,4,1,1,60,1,0
12380,-200,4,1,1,60,0,0
13006,315.789473684211,4,1,1,60,1,0
13006,-66.6666666666667,4,1,1,60,0,0
22006,-76.9230769230769,4,1,1,60,0,0
22321,-90.9090909090909,4,1,1,60,0,0
22637,344.827586206897,4,1,1,60,1,0
22637,-111.111111111111,4,1,1,60,0,0
23154,333.333333333333,4,2,1,60,1,0
23154,-133.333333333333,4,2,1,60,0,0
23487,315.789473684211,4,2,1,60,1,0
23802,300,4,2,1,60,1,0
24252,315.789473684211,4,2,1,60,1,0
24252,-90.9090909090909,4,2,1,60,0,0
25673,315.789473684211,4,2,1,60,1,0
25673,-133.333333333333,4,2,1,60,0,0
26767,307.692307692308,4,2,1,60,1,0
26767,-105.263157894737,4,2,1,60,0,0
27074,324.324324324324,4,2,1,60,1,0
27074,-133.333333333333,4,2,1,60,0,0
27884,303.030303030303,4,2,1,60,1,0
27884,-133.333333333333,4,2,1,60,0,0
28188,315.789473684211,4,2,1,60,1,0
28188,-133.333333333333,4,2,1,60,0,0
29293,315.789473684211,4,2,1,60,1,0
29293,-133.333333333333,4,2,1,60,0,0
30714,315.789473684211,4,2,1,60,1,0
30714,-133.333333333333,4,2,1,60,0,0
31812,315.789473684211,4,2,1,60,1,0
31812,-133.333333333333,4,2,1,60,0,0
33233,315.789473684211,4,2,1,60,1,0
33233,-133.333333333333,4,2,1,60,0,0
34326,315.789473684211,4,2,1,60,1,0
34326,-133.333333333333,4,2,1,60,0,0
35747,315.789473684211,4,2,1,60,1,0
35747,-133.333333333333,4,2,1,60,0,0
36848,333.333333333333,4,2,1,60,1,0
36848,-133.333333333333,4,2,1,60,0,0
37181,337.078651685393,4,2,1,60,1,0
37349,292.682926829268,4,2,1,60,1,0
37349,-133.333333333333,4,2,1,60,0,0
37641,315.789473684211,4,2,1,60,1,0
37641,-133.333333333333,4,2,1,60,0,0
38114,333.333333333333,4,2,1,60,1,0
38280,315.789473684211,4,2,1,60,1,0
38280,-133.333333333333,4,2,1,60,0,0
39385,315.789473684211,4,2,1,60,1,0
39385,-133.333333333333,4,2,1,60,0,0
40806,315.789473684211,4,2,1,60,1,0
40806,-133.333333333333,4,2,1,60,0,0
41880,342.857142857143,4,2,1,60,1,0
41880,-133.333333333333,4,2,1,60,0,0
42394,333.333333333333,4,2,1,60,1,0
42394,-133.333333333333,4,2,1,60,0,0
42694,315.789473684211,4,1,1,60,1,0
43325,315.789473684211,4,1,1,60,1,0
43325,-105.263157894737,4,1,1,60,0,0
45851,-95.2380952380954,4,1,1,60,0,0
58482,-100,4,1,1,60,0,0
63535,-80,4,1,1,70,0,1
83746,-100,4,1,1,60,0,0
84851,-66.6666666666667,4,1,1,60,0,0
87377,300,4,1,1,60,1,0
87677,315.789473684211,4,1,1,60,1,0
88624,324.324324324324,4,1,1,60,1,0
89921,285.714285714286,4,1,1,60,1,0
90206,315.789473684211,4,1,1,60,1,0
91153,315.789473684211,4,1,1,60,1,0
91153,-133.333333333333,4,1,1,60,0,0

[Colours]
Combo1 : 221,244,241
Combo2 : 233,103,139
Combo3 : 97,209,122
Combo4 : 219,68,68

[HitObjects]
443,184,5434,6,0,P|425:156|364:125,2,70,0|0|0,0:0|0:0|0:0,0:0:0:0:
371,359,5907,2,0,L|361:213,1,140,0|0,0:0|0:0,0:0:0:0:
291,168,6381,2,0,L|209:171,1,70,0|0,0:0|0:0,0:0:0:0:
151,220,6697,6,0,P|135:186|145:138,1,70,0|0,0:0|0:0,0:0:0:0:
179,74,7012,1,0,0:0:0:0:
298,153,7170,1,0,0:0:0:0:
300,26,7328,5,0,0:0:0:0:
171,59,7486,1,0,0:0:0:0:
373,90,7644,1,0,0:0:0:0:
288,169,7802,1,0,0:0:0:0:
316,16,7960,2,0,P|366:-4|445:30,1,140,0|0,0:0|0:0,0:0:0:0:
477,113,8434,2,0,L|473:258,1,140,0|0,0:0|0:0,0:0:0:0:
472,353,8907,1,0,0:0:0:0:
247,315,9065,6,0,P|309:295|400:303,1,140,0|0,0:0|0:0,0:0:0:0:
168,253,9538,2,0,P|155:195|156:162,1,70,0|0,0:0|0:0,0:0:0:0:
298,151,9854,2,0,P|254:191|225:206,1,70,0|0,0:0|0:0,0:0:0:0:
147,88,10170,2,0,P|203:105|231:123,1,70,0|0,0:0|0:0,0:0:0:0:
161,267,10486,6,0,B|127:260|127:260|71:225,1,70,0|0,0:0|0:0,0:0:0:0:
306,136,10801,1,0,0:0:0:0:
82,249,10959,2,0,P|64:178|59:90,1,140,0|0,0:0|0:0,0:0:0:0:
73,20,11433,1,0,0:0:0:0:
224,89,11591,2,0,L|143:77,1,70,0|0,0:0|0:0,0:0:0:0:
297,188,11907,2,0,L|314:105,1,70,0|0,0:0|0:0,0:0:0:0:
327,26,12222,1,0,0:0:0:0:
40,261,13006,6,0,B|72:246|72:246|180:230,1,105.000004005432,0|0,0:0|0:0,0:0:0:0:
156,234,13242,1,0,0:0:0:0:
171,231,13321,1,8,0:0:0:0:
110,364,13479,1,0,0:0:0:0:
108,348,13558,1,0,0:0:0:0:
105,332,13637,1,0,0:0:0:0:
315,275,13795,1,0,0:0:0:0:
89,1,14111,6,0,B|86:54|86:54|100:91|100:91|93:175,1,157.500006008148,0|0,0:0|0:0,0:0:0:0:
94,171,14427,1,0,0:0:0:0:
212,105,14584,2,0,B|261:95|261:95|351:96,1,105.000004005432,8|0,0:0|0:0,0:0:0:0:
331,96,14821,1,0,0:0:0:0:
346,96,14900,1,0,0:0:0:0:
217,248,15058,1,0,0:0:0:0:
479,162,15374,5,0,0:0:0:0:
475,177,15453,1,0,0:0:0:0:
471,192,15532,2,0,L|462:312,1,105.000004005432,0|0,0:0|0:0,0:0:0:0:
313,359,15848,1,8,0:0:0:0:
284,177,16006,1,0,0:0:0:0:
298,178,16084,1,0,0:0:0:0:
313,179,16163,1,0,0:0:0:0:
148,324,16321,1,0,0:0:0:0:
142,49,16637,6,0,B|141:100|141:100|144:109|144:109|144:186,1,105.000004005432,0|0,0:0|0:0,0:0:0:0:
144,240,16953,1,0,0:0:0:0:
246,134,17111,1,8,0:0:0:0:
44,179,17269,2,0,P|32:239|30:301,1,105.000004005432,0|0,0:0|0:0,0:0:0:0:
212,304,17584,2,0,P|166:263|113:230,1,105.000004005432,0|0,0:0|0:0,0:0:0:0:
18,378,17900,6,0,P|75:358|130:329,1,105.000004005432,0|0,0:0|0:0,0:0:0:0:
198,292,18216,1,0,0:0:0:0:
36,164,18374,2,0,L|174:171,1,105.000004005432,8|0,0:0|0:0,0:0:0:0:
156,169,18611,1,0,0:0:0:0:
171,171,18690,1,0,0:0:0:0:
24,270,18848,1,0,0:0:0:0:
48,55,19163,6,0,B|114:56|114:56|145:42|145:42|246:42,1,157.500006008148,0|0,0:0|0:0,0:0:0:0:
218,42,19479,1,0,0:0:0:0:
195,277,19637,2,0,L|184:162,1,105.000004005432,8|0,0:0|0:0,0:0:0:0:
183,156,19874,1,0,0:0:0:0:
182,140,19953,1,0,0:0:0:0:
359,230,20111,1,0,0:0:0:0:
377,61,20427,5,0,0:0:0:0:
393,62,20506,1,0,0:0:0:0:
409,63,20584,2,0,B|462:76|462:76|494:161,1,105.000004005432,0|0,0:0|0:0,0:0:0:0:
471,217,20900,1,8,0:0:0:0:
294,140,21058,1,0,0:0:0:0:
293,124,21137,1,0,0:0:0:0:
293,108,21216,1,0,0:0:0:0:
463,309,21374,1,0,0:0:0:0:
158,345,21690,6,0,P|163:280|161:238,1,105.000004005432,8|0,0:0|0:0,0:0:0:0:
152,157,22006,6,0,P|147:222|149:253,1,90.9999958343508,8|0,0:0|0:0,0:0:0:0:
252,238,22321,6,0,P|187:233|160:232,1,77.0000023498536,8|0,0:0|0:0,0:0:0:0:
12,264,22637,6,0,P|76:264|143:254,1,125.999996154785
283,72,23154,6,0,L|279:131,1,52.5000020027161
399,235,23487,2,0,L|392:159,1,70,0|0,0:0|0:0,0:0:0:0:
383,72,23802,1,0,0:0:0:0:
383,72,23952,1,0,0:0:0:0:
420,327,24252,6,0,P|468:298|489:256,1,77.0000023498536
330,306,24567,2,0,L|325:393,1,77.0000023498536,0|0,0:0|0:0,0:0:0:0:
252,243,24883,2,0,L|329:203,1,77.0000023498536,0|0,0:0|0:0,0:0:0:0:
237,340,25199,2,0,L|164:292,1,77.0000023498536
235,235,25515,1,0,0:0:0:0:
94,239,25673,5,0,0:0:0:0:
94,239,25830,1,0,0:0:0:0:
176,169,25988,1,0,0:0:0:0:
176,169,26146,1,0,0:0:0:0:
64,141,26304,6,0,P|65:90|73:26,1,105.000004005432,0|0,0:0|0:0,0:0:0:0:
273,63,26767,2,0,B|222:53|231:98|165:79,1,99.7499973363877,0|0,0:0|0:0,0:0:0:0:
166,95,27074,6,0,L|168:212,1,105.000004005432,0|0,0:0|0:0,0:0:0:0:
307,185,27560,2,0,P|277:174|244:178,1,52.5000020027161,0|0,0:0|0:0,0:0:0:0:
198,300,27884,2,0,P|222:279|235:248,1,52.5000020027161,0|0,0:0|0:0,0:0:0:0:
110,275,28188,1,0,0:0:0:0:
110,275,28345,2,0,L|106:340,1,52.5000020027161,0|0,0:0|0:0,0:0:0:0:
229,250,28661,5,0,0:0:0:0:
81,189,28819,2,0,P|50:203|33:225,1,52.5000020027161,0|0,0:3|0:0,0:0:0:0:
171,165,29135,1,0,0:0:0:0:
106,53,29293,2,0,P|72:50|45:61,1,52.5000020027161,0|0,0:3|0:0,0:0:0:0:
239,104,29608,5,0,0:0:0:0:
239,104,29766,2,0,L|313:107,1,52.5000020027161,0|0,0:0|0:0,0:0:0:0:
385,109,30082,1,0,0:0:0:0:
338,188,30240,1,0,0:0:0:0:
400,262,30398,5,0,0:0:0:0:
400,262,30556,2,0,P|342:286|295:273,1,105.000004005432,0|0,0:0|0:0,0:0:0:0:
466,323,31029,2,0,L|463:379,1,52.5000020027161,0|0,0:0|0:0,0:0:0:0:
485,236,31345,6,0,B|499:167|463:190|482:112,1,105.000004005432,0|0,0:0|0:0,0:0:0:0:
348,210,31812,2,0,L|415:214,1,52.5000020027161,0|0,0:0|0:0,0:0:0:0:
408,78,32127,6,0,L|301:83,1,105.000004005432,0|0,0:0|0:0,0:0:0:0:
170,117,32601,2,0,L|245:123,1,52.5000020027161,0|0,0:0|0:0,0:0:0:0:
93,157,32917,2,0,P|84:131|84:94,1,52.5000020027161,0|0,0:0|0:0,0:0:0:0:
170,204,33233,1,0,0:0:0:0:
170,204,33390,2,0,L|165:275,1,52.5000020027161,0|0,0:0|0:0,0:0:0:0:
344,344,33706,6,0,P|350:295|372:236,1,105.000004005432,0|0,0:0|0:0,0:0:0:0:
434,176,34180,1,0,0:0:0:0:
288,163,34326,2,0,L|339:155,1,52.5000020027161,0|0,0:0|0:0,0:0:0:0:
407,80,34641,5,0,0:0:0:0:
407,80,34799,1,0,0:0:0:0:
316,40,34957,1,0,0:0:0:0:
237,97,35115,2,0,L|173:88,1,52.5000020027161,0|0,0:0|0:0,0:0:0:0:
75,65,35431,5,0,0:0:0:0:
98,166,35589,1,0,0:0:0:0:
212,187,35747,1,0,0:0:0:0:
212,187,35904,2,0,B|220:221|220:221|221:293,1,105.000004005432,0|0,0:0|0:0,0:0:0:0:
347,356,36378,6,0,L|295:351,1,52.5000020027161,0|0,0:0|0:0,0:0:0:0:
430,287,36694,1,0,0:0:0:0:
430,287,36848,2,0,L|482:281,1,52.5000020027161,0|0,0:0|0:0,0:0:0:0:
322,197,37181,5,0,0:0:0:0:
322,197,37349,2,0,L|318:267,1,52.5000020027161,0|0,0:0|0:0,0:0:0:0:
251,130,37641,2,0,L|315:100,1,52.5000020027161,0|0,0:0|0:0,0:0:0:0:
231,221,37956,2,0,L|173:180,1,52.5000020027161,0|0,0:0|0:0,0:0:0:0:
335,189,38280,1,0,0:0:0:0:
335,189,38437,2,0,L|400:183,1,52.5000020027161,0|0,0:0|0:0,0:0:0:0:
484,183,38753,5,0,0:0:0:0:
438,263,38911,2,0,L|444:316,1,52.5000020027161,0|0,0:0|0:0,0:0:0:0:
360,347,39227,1,0,0:0:0:0:
278,314,39385,2,0,L|284:256,1,52.5000020027161,0|0,0:0|0:0,0:0:0:0:
269,162,39700,6,0,B|343:155|311:183|374:175,1,105.000004005432,0|0,0:0|0:0,0:0:0:0:
356,87,40174,2,0,P|356:50|348:27,1,52.5000020027161,0|0,0:0|0:0,0:0:0:0:
220,74,40490,2,0,L|282:79,1,52.5000020027161,0|0,0:0|0:0,0:0:0:0:
135,68,40806,6,0,P|135:105|143:134,1,52.5000020027161,0|0,0:0|0:0,0:0:0:0:
192,187,41121,2,0,L|189:254,1,52.5000020027161,0|0,0:0|0:0,0:0:0:0:
187,335,41437,1,0,0:0:0:0:
187,335,41595,1,0,0:0:0:0:
292,257,41753,5,0,0:0:0:0:
292,257,41880,2,0,B|301:329,1,52.5000020027161,0|0,0:0|0:0,0:0:0:0:
392,266,42222,2,0,L|398:203,1,52.5000020027161,0|0,0:0|0:0,0:0:0:0:
404,119,42560,1,0,0:0:0:0:
57,46,42694,5,8,0:0:0:0:
397,102,42851,1,0,0:0:0:0:
113,313,43167,5,0,0:0:0:0:
109,278,43246,1,0,0:0:0:0:
106,242,43325,2,0,L|110:151,1,66.4999982242585,0|0,0:0|0:0,0:0:0:0:
207,108,43640,2,0,L|211:199,1,66.4999982242585,0|0,0:0|0:0,0:0:0:0:
303,245,43956,2,0,L|307:154,1,66.4999982242585,0|0,0:0|0:0,0:0:0:0:
313,82,44272,1,0,0:0:0:0:
267,339,44430,6,0,B|315:346|315:346|418:303,1,132.999996448517,8|0,0:0|0:0,0:0:0:0:
451,238,44903,1,0,0:0:0:0:
323,172,45061,1,0,0:0:0:0:
407,332,45219,2,0,L|497:340,1,66.4999982242585,0|0,0:0|0:0,0:0:0:0:
416,152,45535,1,0,0:0:0:0:
360,256,45693,1,0,0:0:0:0:
492,149,45851,6,0,P|454:134|398:143,1,73.4999977569581,0|0,0:0|0:0,0:0:0:0:
263,242,46167,2,0,P|294:216|315:163,1,73.4999977569581,0|0,0:0|0:0,0:0:0:0:
295,0,46482,2,0,P|301:40|336:84,1,73.4999977569581,0|0,0:0|0:0,0:0:0:0:
406,128,46798,1,0,0:0:0:0:
198,72,46956,6,0,B|161:72|161:72|100:81,1,73.4999977569581,0|0,0:0|0:0,0:0:0:0:
164,239,47272,2,0,L|174:153,1,73.4999977569581,0|0,0:0|0:0,0:0:0:0:
66,275,47588,2,0,L|69:372,1,73.4999977569581,0|0,0:0|0:0,0:0:0:0:
221,319,47903,1,0,0:0:0:0:
67,255,48061,1,0,0:0:0:0:
152,384,48219,1,0,0:0:0:0:
289,248,48377,6,0,B|301:211|301:211|295:101,1,146.999995513916,0|0,0:0|0:0,0:0:0:0:
278,7,48851,1,0,0:0:0:0:
154,110,49009,2,0,L|151:198,1,73.4999977569581,0|0,0:0|0:0,0:0:0:0:
148,281,49325,1,0,0:0:0:0:
447,105,49482,5,8,0:0:0:0:
283,232,49640,2,0,B|288:287|288:287|306:316|306:316|311:390,1,146.999995513916,0|0,0:0|0:0,0:0:0:0:
384,248,50114,1,0,0:0:0:0:
167,194,50272,2,0,L|84:181,1,73.4999977569581,0|0,0:0|0:0,0:0:0:0:
136,363,50588,2,0,P|154:327|157:275,1,73.4999977569581,0|0,0:0|0:0,0:0:0:0:
137,98,50903,6,0,B|222:65|204:138|300:96,1,146.999995513916,0|0,0:0|0:0,0:0:0:0:
363,62,51377,1,0,0:0:0:0:
63,44,51535,2,0,P|45:107|57:136,1,73.4999977569581,0|0,0:0|0:0,0:0:0:0:
175,173,51851,1,0,0:0:0:0:
0,273,52009,6,0,B|34:255|34:255|93:251,1,73.4999977569581,8|0,0:0|0:0,0:0:0:0:
185,261,52325,1,0,0:0:0:0:
221,264,52403,1,0,0:0:0:0:
257,269,52482,1,8,0:0:0:0:
47,167,52640,1,0,0:0:0:0:
56,125,52718,1,0,0:0:0:0:
79,97,52797,5,0,0:0:0:0:
120,82,52876,1,0,0:0:0:0:
155,81,52955,1,0,0:0:0:0:
191,88,53034,1,0,0:0:0:0:
218,113,53113,1,0,0:0:0:0:
252,129,53192,1,0,0:0:0:0:
290,137,53271,1,0,0:0:0:0:
321,134,53350,1,0,0:0:0:0:
348,120,53430,6,0,L|444:111,1,73.4999977569581,0|0,0:0|0:0,0:0:0:0:
283,35,53746,1,0,0:0:0:0:
349,229,53903,1,0,0:0:0:0:
508,101,54061,2,0,P|493:62|447:33,1,73.4999977569581,0|0,0:0|0:0,0:0:0:0:
378,37,54377,1,0,0:0:0:0:
458,277,54535,5,8,0:0:0:0:
504,122,54693,2,0,L|421:112,1,73.4999977569581,0|0,0:0|0:0,0:0:0:0:
334,134,55009,1,0,0:0:0:0:
401,204,55167,1,0,0:0:0:0:
200,85,55325,2,0,P|248:66|293:71,1,73.4999977569581,0|0,0:0|0:0,0:0:0:0:
164,178,55640,1,0,0:0:0:0:
106,106,55798,1,0,0:0:0:0:
320,148,55956,6,0,L|312:235,1,73.4999977569581,0|0,0:0|0:0,0:0:0:0:
224,338,56272,2,0,L|216:251,1,73.4999977569581,0|0,0:0|0:0,0:0:0:0:
306,315,56588,1,0,0:0:0:0:
137,329,56746,1,0,0:0:0:0:
296,219,56903,1,0,0:0:0:0:
89,114,57061,6,0,P|53:148|51:197,1,73.4999977569581,8|0,0:0|0:0,0:0:0:0:
85,252,57377,1,0,0:0:0:0:
194,187,57535,1,0,0:0:0:0:
155,35,57693,1,0,0:0:0:0:
83,272,57851,1,0,0:0:0:0:
307,96,58009,1,0,0:0:0:0:
0,59,58167,1,0,0:0:0:0:
273,280,58325,5,8,0:0:0:0:
280,244,58403,1,8,0:0:0:0:
287,209,58482,2,0,P|344:188|369:195,1,70,8|0,0:0|0:0,0:0:0:0:
443,208,58798,5,8,0:0:0:0:
175,277,58956,1,0,0:0:0:0:
227,66,59114,5,8,0:0:0:0:
225,353,59272,1,0,0:0:0:0:
123,196,59430,5,8,0:0:0:0:
404,98,59588,1,0,0:0:0:0:
374,365,59746,6,0,L|368:280,1,70,8|0,0:0|0:0,0:0:0:0:
358,203,60061,5,8,0:0:0:0:
508,365,60219,1,0,0:0:0:0:
213,262,60377,5,8,0:0:0:0:
499,149,60535,1,0,0:0:0:0:
244,374,60693,5,8,0:0:0:0:
154,76,60851,1,0,0:0:0:0:
486,165,61009,6,0,L|402:164,1,70,8|0,0:0|0:0,0:0:0:0:
319,167,61325,5,8,0:0:0:0:
511,1,61482,1,0,0:0:0:0:
488,262,61640,5,8,0:0:0:0:
168,85,61798,1,0,0:0:0:0:
409,33,61956,5,8,0:0:0:0:
299,367,62114,1,0,0:0:0:0:
293,332,62193,1,0,0:0:0:0:
286,297,62272,2,0,P|268:264|224:250,1,70,0|0,0:0|0:0,0:0:0:0:
144,277,62588,5,0,0:0:0:0:
108,254,62667,1,0,0:0:0:0:
92,215,62746,1,0,0:0:0:0:
90,173,62825,1,0,0:0:0:0:
139,156,62903,5,0,0:0:0:0:
190,146,62982,1,0,0:0:0:0:
241,134,63061,1,0,0:0:0:0:
290,119,63140,1,0,0:0:0:0:
251,88,63219,5,0,0:0:0:0:
189,75,63298,1,0,0:0:0:0:
128,61,63377,1,0,0:0:0:0:
68,43,63456,1,0,0:0:0:0:
2,26,63535,6,0,L|11:139,1,87.5,0|0,0:0|0:0,0:0:0:0:
181,304,63851,2,0,B|188:257|188:257|168:197,1,87.5,8|0,0:0|0:0,0:0:0:0:
154,182,64088,1,0,0:0:0:0:
154,182,64167,1,0,0:0:0:0:
46,342,64325,1,0,0:0:0:0:
315,270,64482,2,0,L|424:263,1,87.5,8|0,0:0|0:0,0:0:0:0:
402,173,64798,5,0,0:0:0:0:
197,313,64956,1,0,0:0:0:0:
430,352,65114,2,0,P|470:332|492:266,1,87.5,8|0,0:0|0:0,0:0:0:0:
401,154,65430,5,0,0:0:0:0:
416,363,65588,1,0,0:0:0:0:
512,120,65746,1,8,0:0:0:0:
288,189,65904,1,0,0:0:0:0:
476,207,66061,6,0,B|419:197|419:197|370:211|370:211|298:203,1,175,0|8,0:0|0:0,0:0:0:0:
187,331,66535,1,0,0:0:0:0:
187,331,66614,1,0,0:0:0:0:
187,331,66693,2,0,P|201:263|192:193,1,131.25,0|0,0:0|0:0,0:0:0:0:
161,166,67009,1,8,0:0:0:0:
13,345,67167,2,0,B|109:313|100:395|219:336,1,175,0|0,0:0|0:0,0:0:0:0:
55,220,67640,1,8,0:0:0:0:
272,97,67798,5,0,0:0:0:0:
272,97,67877,1,0,0:0:0:0:
272,97,67956,1,0,0:0:0:0:
42,206,68114,2,0,B|124:225|124:225|227:184,1,175,0|0,0:0|0:0,0:0:0:0:
115,18,68588,5,0,0:0:0:0:
30,189,68746,1,0,0:0:0:0:
354,146,68903,1,8,0:0:0:0:
123,130,69061,1,0,0:0:0:0:
123,130,69140,1,0,0:0:0:0:
123,130,69219,1,0,0:0:0:0:
209,321,69377,1,0,0:0:0:0:
247,63,69535,5,8,0:0:0:0:
195,335,69693,2,0,B|242:347|242:347|371:296,1,175
106,278,70167,2,0,L|95:377,1,87.5,8|0,0:0|0:0,0:0:0:0:
512,230,70482,6,0,B|449:218|449:218|410:222|410:222|328:201,1,175,0|8,0:0|0:0,0:0:0:0:
449,309,70956,1,0,0:0:0:0:
165,173,71114,6,0,P|213:185|270:170,1,87.5,0|0,0:0|0:0,0:0:0:0:
98,91,71430,1,8,0:0:0:0:
85,243,71588,1,0,0:0:0:0:
232,62,71746,1,0,0:0:0:0:
266,297,71903,1,0,0:0:0:0:
19,161,72061,1,8,0:0:0:0:
331,108,72219,2,0,B|347:152|347:152|349:226,1,87.5,0|0,0:0|0:0,0:0:0:0:
151,23,72535,5,8,0:0:0:0:
457,170,72693,1,8,0:0:0:0:
176,270,72851,1,8,0:0:0:0:
183,226,72930,1,8,0:0:0:0:
190,182,73009,1,8,0:0:0:0:
384,327,73167,5,0,0:0:0:0:
332,319,73245,1,0,0:0:0:0:
281,332,73324,1,0,0:0:0:0:
236,358,73403,1,0,0:0:0:0:
185,372,73482,1,0,0:0:0:0:
134,364,73561,1,0,0:0:0:0:
93,331,73640,6,0,L|82:209,1,87.5,0|0,0:0|0:0,0:0:0:0:
269,124,73956,2,0,B|284:167|284:167|268:243,1,87.5,8|0,0:0|0:0,0:0:0:0:
247,246,74193,1,0,0:0:0:0:
247,246,74272,1,0,0:0:0:0:
87,100,74430,1,0,0:0:0:0:
443,143,74588,2,0,L|430:267,1,87.5,8|0,0:0|0:0,0:0:0:0:
425,330,74903,1,0,0:0:0:0:
261,110,75061,5,0,0:0:0:0:
460,140,75219,1,8,0:0:0:0:
305,253,75377,1,0,0:0:0:0:
347,0,75535,1,0,0:0:0:0:
476,140,75693,1,0,0:0:0:0:
208,210,75851,2,0,L|100:188,1,87.5,8|0,0:0|0:0,0:0:0:0:
371,187,76167,6,0,P|398:240|387:292,1,87.5
280,135,76482,1,8,0:0:0:0:
405,292,76640,1,0,0:0:0:0:
405,292,76719,1,0,0:0:0:0:
405,292,76798,2,0,L|317:286,1,87.5,0|0,0:0|0:0,0:0:0:0:
378,62,77114,5,8,0:0:0:0:
475,336,77272,1,0,0:0:0:0:
215,57,77430,1,0,0:0:0:0:
477,182,77588,1,0,0:0:0:0:
195,315,77746,2,0,L|206:190,1,87.5,8|0,0:0|0:0,0:0:0:0:
230,190,77982,1,0,0:0:0:0:
230,190,78061,1,0,0:0:0:0:
465,349,78219,6,0,B|346:355|426:298|281:310,1,175,0|0,0:0|0:0,0:0:0:0:
447,110,78693,2,0,P|468:180|458:233,1,87.5,0|0,0:0|0:0,0:0:0:0:
192,25,79009,5,8,0:0:0:0:
440,93,79167,1,0,0:0:0:0:
91,137,79325,5,8,0:0:0:0:
326,62,79482,2,0,L|333:172,1,87.5,0|0,0:0|0:0,0:0:0:0:
30,217,79798,2,0,B|96:232|96:232|138:221|138:221|200:233,1,175,8|0,0:0|0:0,0:0:0:0:
166,17,80272,5,8,0:0:0:0:
205,247,80430,1,0,0:0:0:0:
101,150,80588,5,8,0:0:0:0:
412,166,80746,2,0,P|342:156|305:183,1,87.5,0|0,0:0|0:0,0:0:0:0:
54,305,81061,2,0,B|185:295|96:347|238:340,1,175,8|0,0:0|0:0,0:0:0:0:
323,149,81535,5,8,0:0:0:0:
227,353,81693,1,0,0:0:0:0:
130,150,81851,5,8,0:0:0:0:
315,278,82009,1,0,0:0:0:0:
49,285,82167,5,0,0:0:0:0:
422,101,82325,1,8,0:0:0:0:
237,340,82482,2,0,P|215:297|223:243,1,87.5,0|8,0:0|0:0,0:0:0:0:
429,117,82798,2,0,L|421:213,1,87.5,8|0,0:0|0:0,0:0:0:0:
334,30,83114,1,8,0:0:0:0:
324,270,83272,2,0,L|316:167,1,87.5,0|0,0:0|0:0,0:0:0:0:
403,329,83588,1,0,0:0:0:0:
361,361,83667,1,0,0:0:0:0:
308,364,83746,1,0,0:0:0:0:
35,161,83903,5,0,0:0:0:0:
77,129,83982,1,0,0:0:0:0:
130,126,84061,1,8,0:0:0:0:
192,352,84219,5,0,0:0:0:0:
150,319,84298,1,0,0:0:0:0:
133,269,84377,1,0,0:0:0:0:
316,167,84535,1,0,0:0:0:0:
102,82,84851,6,0,B|123:51|123:51|251:22,1,157.500006008148
260,20,85167,1,0,0:0:0:0:
216,340,85325,2,0,L|206:230,1,105.000004005432,8|0,0:0|0:0,0:0:0:0:
204,214,85561,1,0,0:0:0:0:
203,192,85640,1,0,0:0:0:0:
417,293,85798,1,0,0:0:0:0:
35,310,86114,5,0,0:0:0:0:
55,312,86193,1,0,0:0:0:0:
75,314,86272,2,0,B|145:310|145:310|178:323|178:323|275:322,1,157.500006008148
250,319,86588,1,8,0:0:0:0:
112,142,86746,1,0,0:0:0:0:
110,162,86825,1,0,0:0:0:0:
107,182,86903,1,0,0:0:0:0:
345,163,87061,1,0,0:0:0:0:
8,227,87377,6,0,P|5:169|13:129,1,70
146,286,87677,2,0,P|88:289|48:281,1,70
215,149,87992,2,0,P|218:207|210:247,1,70
77,90,88308,1,0,0:0:0:0:
334,45,88466,1,8,0:0:0:0:
339,79,88545,1,8,0:0:0:0:
344,114,88624,6,0,L|443:121,1,70
329,275,88948,2,0,L|335:176,1,70
319,364,89272,2,0,L|220:357,1,70,0|0,0:0|0:0,3:0:0:0:
416,241,89596,1,0,0:0:0:0:
195,145,89759,1,8,0:0:0:0:
190,179,89840,1,8,0:0:0:0:
183,218,89921,6,0,B|195:252|195:252|143:273|74:265,1,140
57,268,90284,1,0,0:0:0:0:
22,272,90363,1,0,0:0:0:0:
91,159,90521,1,0,0:0:0:0:
268,302,90679,1,8,0:0:0:0:
279,268,90758,1,8,0:0:0:0:
279,232,90837,1,0,0:0:0:0:
99,384,90995,1,0,0:0:0:0:
475,259,91153,6,0,B|417:244|400:198|400:198|368:217|368:217|356:110|186:107|186:236,1,420.000016021729,4|0,0:0|0:0,0:0:0:0:
