osu file format v14

[General]
AudioFilename: audio.mp3
AudioLeadIn: 0
PreviewTime: 30156
Countdown: 0
SampleSet: Soft
StackLeniency: 0.4
Mode: 0
LetterboxInBreaks: 0
WidescreenStoryboard: 1

[Editor]
Bookmarks: 52018
DistanceSpacing: 1.5
BeatDivisor: 4
GridSize: 8
TimelineZoom: 2

[Metadata]
Title:Cheap Cheap Endroll
TitleUnicode:Cheap Cheap Endroll
Artist:UNISON SQUARE GARDEN
ArtistUnicode:UNISON SQUARE GARDEN
Creator:Nevo
Version:Break
Source:
Tags:dr.izzy male vocals japanese addy2607 lapp killian -nanoripe- rock jrock j-rock cherry blossoms xandit bokeru KaedeharaKazuha nanoripe unison-s-g unisonsg
BeatmapID:2681519
BeatmapSetID:613629

[Difficulty]
HPDrainRate:6
CircleSize:4
OverallDifficulty:9.3
ApproachRate:9.6
SliderMultiplier:1.7
SliderTickRate:1

[Events]
//Background and Video events
0,0,"8f8f956f19fb4d4b6396fcde3ea1c7d2.jpg",0,0
//Break Periods
//Storyboard Layer 0 (Background)
//Storyboard Layer 1 (Fail)
//Storyboard Layer 2 (Pass)
//Storyboard Layer 3 (Foreground)
//Storyboard Layer 4 (Overlay)
//Storyboard Sound Samples

[TimingPoints]
85,283.018867924528,4,2,1,85,1,0
9990,-100,4,2,1,75,0,0
10273,-100,4,2,1,75,0,0
12820,-100,4,2,3,75,0,0
12838,-100,4,2,1,75,0,0
13103,-100,4,2,3,75,0,0
13121,-100,4,2,1,75,0,0
13386,-100,4,2,3,75,0,0
13404,-100,4,2,1,75,0,0
13669,-100,4,2,3,75,0,0
13687,-100,4,2,1,75,0,0
13952,-100,4,2,3,75,0,0
13970,-100,4,2,1,75,0,0
14235,-100,4,2,3,75,0,0
14253,-100,4,2,1,75,0,0
14518,-100,4,2,3,75,0,0
14536,-100,4,2,1,75,0,0
14801,-100,4,2,3,75,0,0
14819,-100,4,2,1,75,0,0
15084,-100,4,2,3,75,0,0
15102,-100,4,2,1,75,0,0
15368,-100,4,2,3,75,0,0
15386,-100,4,2,1,75,0,0
15651,-100,4,2,3,75,0,0
15669,-100,4,2,1,75,0,0
15934,-100,4,2,3,75,0,0
15952,-100,4,2,1,75,0,0
17349,-100,4,2,3,75,0,0
17367,-100,4,2,1,75,0,0
17632,-100,4,2,3,75,0,0
17650,-100,4,2,1,75,0,0
17915,-100,4,2,3,75,0,0
17933,-100,4,2,1,75,0,0
18198,-100,4,2,3,75,0,0
18216,-100,4,2,1,75,0,0
18481,-100,4,2,3,75,0,0
18499,-100,4,2,1,75,0,0
18764,-100,4,2,3,75,0,0
18782,-100,4,2,1,75,0,0
19047,-100,4,2,3,75,0,0
19065,-100,4,2,1,75,0,0
19330,-100,4,2,3,75,0,0
19348,-100,4,2,1,75,0,0
19613,-100,4,2,3,75,0,0
19631,-100,4,2,1,75,0,0
19896,-100,4,2,3,75,0,0
19914,-100,4,2,1,75,0,0
20179,-100,4,2,3,75,0,0
20197,-100,4,2,1,75,0,0
20462,-100,4,2,3,75,0,0
20480,-100,4,2,1,75,0,0
21877,-100,4,2,3,75,0,0
21895,-100,4,2,1,75,0,0
22160,-100,4,2,3,75,0,0
22178,-100,4,2,1,75,0,0
22443,-100,4,2,3,75,0,0
22461,-100,4,2,1,75,0,0
22726,-100,4,2,3,75,0,0
22744,-100,4,2,1,75,0,0
23009,-100,4,2,3,75,0,0
23027,-100,4,2,1,75,0,0
23292,-100,4,2,3,75,0,0
23310,-100,4,2,1,75,0,0
23575,-100,4,2,3,75,0,0
23593,-100,4,2,1,75,0,0
23858,-100,4,2,3,75,0,0
23876,-100,4,2,1,75,0,0
24141,-100,4,2,3,75,0,0
24159,-100,4,2,1,75,0,0
24424,-100,4,2,3,75,0,0
24442,-100,4,2,1,75,0,0
24707,-100,4,2,3,75,0,0
24725,-100,4,2,1,75,0,0
24990,-100,4,2,3,75,0,0
25008,-100,4,2,1,75,0,0
26405,-100,4,2,3,75,0,0
26423,-100,4,2,1,75,0,0
26688,-100,4,2,3,75,0,0
26706,-100,4,2,1,75,0,0
26971,-100,4,2,3,75,0,0
26989,-100,4,2,1,75,0,0
27254,-100,4,2,3,75,0,0
27272,-100,4,2,1,75,0,0
27537,-100,4,2,3,75,0,0
27555,-100,4,2,1,75,0,0
27820,-100,4,2,3,75,0,0
27838,-100,4,2,1,75,0,0
28103,-100,4,2,3,75,0,0
28121,-100,4,2,1,75,0,0
28386,-100,4,2,3,75,0,0
28404,-100,4,2,1,75,0,0
30651,-83.3333333333333,4,2,1,85,0,1
31217,-83.3333333333333,4,2,3,85,0,1
31235,-83.3333333333333,4,2,1,85,0,1
31500,-83.3333333333333,4,2,3,85,0,1
31518,-83.3333333333333,4,2,1,85,0,1
31783,-83.3333333333333,4,2,3,85,0,1
31801,-83.3333333333333,4,2,1,85,0,1
32066,-83.3333333333333,4,2,3,85,0,1
32084,-83.3333333333333,4,2,1,85,0,1
32349,-83.3333333333333,4,2,3,85,0,1
32367,-83.3333333333333,4,2,1,85,0,1
32632,-83.3333333333333,4,2,3,85,0,1
32650,-83.3333333333333,4,2,1,85,0,1
32915,-83.3333333333333,4,2,3,85,0,1
32933,-83.3333333333333,4,2,1,85,0,1
33198,-83.3333333333333,4,2,3,85,0,1
33216,-83.3333333333333,4,2,1,85,0,1
33481,-83.3333333333333,4,2,3,85,0,1
33499,-83.3333333333333,4,2,1,85,0,1
33764,-83.3333333333333,4,2,3,85,0,1
33782,-83.3333333333333,4,2,1,85,0,1
34047,-83.3333333333333,4,2,3,85,0,1
34065,-83.3333333333333,4,2,1,85,0,1
34330,-83.3333333333333,4,2,3,85,0,1
34348,-83.3333333333333,4,2,1,85,0,1
34613,-83.3333333333333,4,2,3,85,0,1
34631,-83.3333333333333,4,2,1,85,0,1
34896,-83.3333333333333,4,2,3,85,0,1
34914,-83.3333333333333,4,2,1,85,0,1
35179,-100,4,2,1,85,0,1
35462,-100,4,2,3,85,0,1
35480,-100,4,2,1,85,0,1
35745,-100,4,2,3,85,0,1
35763,-100,4,2,1,85,0,1
36028,-100,4,2,3,85,0,1
36046,-100,4,2,1,85,0,1
36311,-100,4,2,3,85,0,1
36329,-100,4,2,1,85,0,1
36594,-100,4,2,3,85,0,1
36612,-100,4,2,1,85,0,1
36877,-100,4,2,3,85,0,1
36895,-100,4,2,1,85,0,1
37160,-100,4,2,3,85,0,1
37178,-100,4,2,1,85,0,1
37726,-100,4,2,2,85,0,1
37744,-100,4,2,1,85,0,1
38009,-100,4,2,2,85,0,1
38027,-100,4,2,1,85,0,1
38292,-100,4,2,2,85,0,1
38310,-100,4,2,1,85,0,1
38858,-100,4,2,2,85,0,1
38876,-100,4,2,1,85,0,1
39141,-100,4,2,3,85,0,1
39159,-100,4,2,1,85,0,1
39707,-83.3333333333333,4,2,1,85,0,1
39990,-83.3333333333333,4,2,3,85,0,1
40008,-83.3333333333333,4,2,1,85,0,1
40273,-83.3333333333333,4,2,3,85,0,1
40291,-83.3333333333333,4,2,1,85,0,1
40556,-83.3333333333333,4,2,3,85,0,1
40574,-83.3333333333333,4,2,1,85,0,1
40839,-83.3333333333333,4,2,3,85,0,1
40857,-83.3333333333333,4,2,1,85,0,1
41122,-83.3333333333333,4,2,3,85,0,1
41140,-83.3333333333333,4,2,1,85,0,1
41405,-83.3333333333333,4,2,3,85,0,1
41423,-83.3333333333333,4,2,1,85,0,1
41688,-83.3333333333333,4,2,3,85,0,1
41706,-83.3333333333333,4,2,1,85,0,1
41971,-83.3333333333333,4,2,3,85,0,1
41989,-83.3333333333333,4,2,1,85,0,1
42254,-83.3333333333333,4,2,3,85,0,1
42272,-83.3333333333333,4,2,1,85,0,1
42537,-83.3333333333333,4,2,3,85,0,1
42555,-83.3333333333333,4,2,1,85,0,1
42820,-83.3333333333333,4,2,3,85,0,1
42838,-83.3333333333333,4,2,1,85,0,1
43103,-83.3333333333333,4,2,3,85,0,1
43121,-83.3333333333333,4,2,1,85,0,1
43386,-83.3333333333333,4,2,3,85,0,1
43404,-83.3333333333333,4,2,1,85,0,1
43669,-83.3333333333333,4,2,3,85,0,1
43687,-83.3333333333333,4,2,1,85,0,1
43952,-83.3333333333333,4,2,3,85,0,1
43970,-83.3333333333333,4,2,1,85,0,1
44518,-83.3333333333333,4,2,3,85,0,1
44536,-83.3333333333333,4,2,1,85,0,1
44801,-83.3333333333333,4,2,3,85,0,1
44819,-83.3333333333333,4,2,1,85,0,1
45084,-83.3333333333333,4,2,3,85,0,1
45102,-83.3333333333333,4,2,1,85,0,1
45368,-83.3333333333333,4,2,3,85,0,1
45386,-83.3333333333333,4,2,1,85,0,1
45651,-83.3333333333333,4,2,3,85,0,1
45669,-83.3333333333333,4,2,1,85,0,1
46500,-83.3333333333333,4,2,1,85,0,0
48339,-83.3333333333333,4,2,1,65,0,0
48764,-83.3333333333333,4,2,1,75,0,0
51028,-100,4,2,1,75,0,0
51594,-100,4,2,3,75,0,0
51612,-100,4,2,1,75,0,0
51877,-100,4,2,3,75,0,0
51895,-100,4,2,1,75,0,0
52160,-100,4,2,3,75,0,0
52178,-100,4,2,1,75,0,0
52443,-100,4,2,3,75,0,0
52461,-100,4,2,1,75,0,0
52726,-100,4,2,3,75,0,0
52744,-100,4,2,1,75,0,0
53009,-100,4,2,3,75,0,0
53027,-100,4,2,1,75,0,0
53292,-100,4,2,3,75,0,0
53310,-100,4,2,1,75,0,0
53575,-100,4,2,3,75,0,0
53593,-100,4,2,1,75,0,0
53858,-100,4,2,3,75,0,0
53876,-100,4,2,1,75,0,0
54141,-100,4,2,3,75,0,0
54159,-100,4,2,1,75,0,0
54424,-100,4,2,3,75,0,0
54442,-100,4,2,1,75,0,0
55839,-100,4,2,3,75,0,0
55857,-100,4,2,1,75,0,0
56122,-100,4,2,3,75,0,0
56140,-100,4,2,1,75,0,0
56405,-100,4,2,3,75,0,0
56423,-100,4,2,1,75,0,0
56688,-100,4,2,3,75,0,0
56706,-100,4,2,1,75,0,0
56971,-100,4,2,3,75,0,0
56989,-100,4,2,1,75,0,0
57254,-100,4,2,3,75,0,0
57272,-100,4,2,1,75,0,0
57537,-100,4,2,3,75,0,0
57555,-100,4,2,1,75,0,0
57820,-100,4,2,3,75,0,0
57838,-100,4,2,1,75,0,0
58103,-100,4,2,3,75,0,0
58121,-100,4,2,1,75,0,0
58386,-100,4,2,3,75,0,0
58404,-100,4,2,1,75,0,0
58811,-166.666666666667,4,2,1,75,0,0
62066,-100,4,2,1,75,0,0
62632,-100,4,2,3,75,0,0
62650,-100,4,2,1,75,0,0
62915,-100,4,2,3,75,0,0
62933,-100,4,2,1,75,0,0
63198,-100,4,2,3,75,0,0
63216,-100,4,2,1,75,0,0
63481,-100,4,2,3,75,0,0
63499,-100,4,2,1,75,0,0
63764,-100,4,2,3,75,0,0
63782,-100,4,2,1,75,0,0
64047,-100,4,2,3,75,0,0
64065,-100,4,2,1,75,0,0
64330,-100,4,2,3,75,0,0
64348,-100,4,2,1,75,0,0
64613,-100,4,2,3,75,0,0
64631,-100,4,2,1,75,0,0
64896,-100,4,2,3,75,0,0
64914,-100,4,2,1,75,0,0
65179,-100,4,2,3,75,0,0
65197,-100,4,2,1,75,0,0
65462,-100,4,2,3,75,0,0
65480,-100,4,2,1,75,0,0
65745,-100,4,2,3,75,0,0
65763,-100,4,2,1,75,0,0
67160,-100,4,2,2,75,0,0
67178,-100,4,2,1,75,0,0
67443,-100,4,2,2,75,0,0
67461,-100,4,2,1,75,0,0
67726,-100,4,2,2,75,0,0
67744,-100,4,2,1,75,0,0
68009,-100,4,2,2,75,0,0
68027,-100,4,2,1,75,0,0
68292,-100,4,2,2,75,0,0
68310,-100,4,2,1,75,0,0
68575,-100,4,2,2,75,0,0
68593,-100,4,2,1,75,0,0
68858,-100,4,2,2,75,0,0
68876,-100,4,2,1,75,0,0
69141,-100,4,2,2,75,0,0
69159,-100,4,2,1,75,0,0
71405,-83.3333333333333,4,2,1,85,0,1
71971,-83.3333333333333,4,2,3,85,0,1
71989,-83.3333333333333,4,2,1,85,0,1
72254,-83.3333333333333,4,2,3,85,0,1
72272,-83.3333333333333,4,2,1,85,0,1
72537,-83.3333333333333,4,2,3,85,0,1
72555,-83.3333333333333,4,2,1,85,0,1
72820,-83.3333333333333,4,2,3,85,0,1
72838,-83.3333333333333,4,2,1,85,0,1
73103,-83.3333333333333,4,2,3,85,0,1
73121,-83.3333333333333,4,2,1,85,0,1
73386,-83.3333333333333,4,2,3,85,0,1
73404,-83.3333333333333,4,2,1,85,0,1
73669,-83.3333333333333,4,2,3,85,0,1
73687,-83.3333333333333,4,2,1,85,0,1
73952,-83.3333333333333,4,2,3,85,0,1
73970,-83.3333333333333,4,2,1,85,0,1
74235,-83.3333333333333,4,2,3,85,0,1
74253,-83.3333333333333,4,2,1,85,0,1
74518,-83.3333333333333,4,2,3,85,0,1
74536,-83.3333333333333,4,2,1,85,0,1
74801,-83.3333333333333,4,2,3,85,0,1
74819,-83.3333333333333,4,2,1,85,0,1
75084,-83.3333333333333,4,2,3,85,0,1
75102,-83.3333333333333,4,2,1,85,0,1
75367,-83.3333333333333,4,2,3,85,0,1
75385,-83.3333333333333,4,2,1,85,0,1
75650,-83.3333333333333,4,2,3,85,0,1
75668,-83.3333333333333,4,2,1,85,0,1
76216,-83.3333333333333,4,2,3,85,0,1
76234,-83.3333333333333,4,2,1,85,0,1
76499,-83.3333333333333,4,2,3,85,0,1
76517,-83.3333333333333,4,2,1,85,0,1
76782,-83.3333333333333,4,2,3,85,0,1
76800,-83.3333333333333,4,2,1,85,0,1
77065,-83.3333333333333,4,2,3,85,0,1
77083,-83.3333333333333,4,2,1,85,0,1
77348,-83.3333333333333,4,2,3,85,0,1
77366,-83.3333333333333,4,2,1,85,0,1
77631,-83.3333333333333,4,2,3,85,0,1
77649,-83.3333333333333,4,2,1,85,0,1
77914,-83.3333333333333,4,2,3,85,0,1
77932,-83.3333333333333,4,2,1,85,0,1
78480,-83.3333333333333,4,2,2,85,0,1
78498,-83.3333333333333,4,2,1,85,0,1
78763,-83.3333333333333,4,2,2,85,0,1
78781,-83.3333333333333,4,2,1,85,0,1
79046,-83.3333333333333,4,2,2,85,0,1
79064,-83.3333333333333,4,2,1,85,0,1
79612,-83.3333333333333,4,2,2,85,0,1
79630,-83.3333333333333,4,2,1,85,0,1
79895,-83.3333333333333,4,2,3,85,0,1
79913,-83.3333333333333,4,2,1,85,0,1
80744,-83.3333333333333,4,2,3,85,0,1
80762,-83.3333333333333,4,2,1,85,0,1
81027,-83.3333333333333,4,2,3,85,0,1
81045,-83.3333333333333,4,2,1,85,0,1
81310,-83.3333333333333,4,2,3,85,0,1
81328,-83.3333333333333,4,2,1,85,0,1
81593,-83.3333333333333,4,2,3,85,0,1
81611,-83.3333333333333,4,2,1,85,0,1
81876,-83.3333333333333,4,2,3,85,0,1
81894,-83.3333333333333,4,2,1,85,0,1
82159,-83.3333333333333,4,2,3,85,0,1
82177,-83.3333333333333,4,2,1,85,0,1
82442,-83.3333333333333,4,2,3,85,0,1
82460,-83.3333333333333,4,2,1,85,0,1
82725,-83.3333333333333,4,2,3,85,0,1
82743,-83.3333333333333,4,2,1,85,0,1
83008,-83.3333333333333,4,2,3,85,0,1
83026,-83.3333333333333,4,2,1,85,0,1
83291,-83.3333333333333,4,2,3,85,0,1
83309,-83.3333333333333,4,2,1,85,0,1
83574,-83.3333333333333,4,2,3,85,0,1
83592,-83.3333333333333,4,2,1,85,0,1
83857,-83.3333333333333,4,2,3,85,0,1
83875,-83.3333333333333,4,2,1,85,0,1
84140,-83.3333333333333,4,2,3,85,0,1
84158,-83.3333333333333,4,2,1,85,0,1
84423,-83.3333333333333,4,2,3,85,0,1
84441,-83.3333333333333,4,2,1,85,0,1
84706,-83.3333333333333,4,2,3,85,0,1
84724,-83.3333333333333,4,2,1,85,0,1
85272,-83.3333333333333,4,2,3,85,0,1
85290,-83.3333333333333,4,2,1,85,0,1
85555,-83.3333333333333,4,2,3,85,0,1
85573,-83.3333333333333,4,2,1,85,0,1
85838,-83.3333333333333,4,2,3,85,0,1
85856,-83.3333333333333,4,2,1,85,0,1
86122,-83.3333333333333,4,2,3,85,0,1
86140,-83.3333333333333,4,2,1,85,0,1
86405,-83.3333333333333,4,2,3,85,0,1
86423,-83.3333333333333,4,2,1,85,0,1
86688,-83.3333333333333,4,2,3,85,0,1
86706,-83.3333333333333,4,2,1,85,0,1
86971,-83.3333333333333,4,2,3,85,0,1
86989,-83.3333333333333,4,2,1,85,0,1
87254,-83.3333333333333,4,2,3,85,0,0
87272,-83.3333333333333,4,2,1,85,0,0
87820,-83.3333333333333,4,2,3,85,0,0
87838,-83.3333333333333,4,2,1,85,0,0
89518,-83.3333333333333,4,2,1,85,0,0
89801,-83.3333333333333,4,2,2,85,0,0
89819,-83.3333333333333,4,2,1,85,0,0
90084,-83.3333333333333,4,2,2,85,0,0
90102,-83.3333333333333,4,2,1,85,0,0
90368,-83.3333333333333,4,2,2,85,0,0
90386,-83.3333333333333,4,2,1,85,0,0
90651,-83.3333333333333,4,2,2,85,0,0
90669,-83.3333333333333,4,2,1,85,0,0
90934,-83.3333333333333,4,2,2,85,0,0
90952,-83.3333333333333,4,2,1,85,0,0
91217,-83.3333333333333,4,2,2,85,0,0
91235,-83.3333333333333,4,2,1,85,0,0
91500,-83.3333333333333,4,2,2,85,0,0
91518,-83.3333333333333,4,2,1,85,0,0
91783,-83.3333333333333,4,2,2,85,0,0
91801,-83.3333333333333,4,2,1,85,0,0
92066,-83.3333333333333,4,2,2,85,0,0
92084,-83.3333333333333,4,2,1,85,0,0
92349,-83.3333333333333,4,2,2,85,0,0
92367,-83.3333333333333,4,2,1,85,0,0
92632,-83.3333333333333,4,2,2,85,0,0
92650,-83.3333333333333,4,2,1,85,0,0
92915,-83.3333333333333,4,2,2,85,0,0
92933,-83.3333333333333,4,2,1,85,0,0
94330,-83.3333333333333,4,2,2,85,0,0
94348,-83.3333333333333,4,2,1,85,0,0
94613,-83.3333333333333,4,2,2,85,0,0
94631,-83.3333333333333,4,2,1,85,0,0
94896,-83.3333333333333,4,2,2,85,0,0
94914,-83.3333333333333,4,2,1,85,0,0
95179,-83.3333333333333,4,2,2,85,0,0
95197,-83.3333333333333,4,2,1,85,0,0
95462,-83.3333333333333,4,2,2,85,0,0
95480,-83.3333333333333,4,2,1,85,0,0
95745,-83.3333333333333,4,2,2,85,0,0
95763,-83.3333333333333,4,2,1,85,0,0
96028,-83.3333333333333,4,2,2,85,0,0
96046,-83.3333333333333,4,2,1,85,0,0
96311,-83.3333333333333,4,2,2,85,0,0
96329,-83.3333333333333,4,2,1,85,0,0
96594,-83.3333333333333,4,2,2,85,0,0
96612,-83.3333333333333,4,2,1,85,0,0
96877,-83.3333333333333,4,2,2,85,0,0
96895,-83.3333333333333,4,2,1,85,0,0
97160,-83.3333333333333,4,2,2,85,0,0
97178,-83.3333333333333,4,2,1,85,0,0
97443,-83.3333333333333,4,2,2,85,0,0
97461,-83.3333333333333,4,2,1,85,0,0
97726,-83.3333333333333,4,2,1,85,0,1
97868,-83.3333333333333,4,2,1,85,0,0
98009,-83.3333333333333,4,2,1,85,0,1
98151,-83.3333333333333,4,2,1,85,0,0
98292,-83.3333333333333,4,2,1,85,0,1
98434,-83.3333333333333,4,2,1,85,0,0
98858,-83.3333333333333,4,2,2,85,0,0
98876,-83.3333333333333,4,2,1,85,0,0
99141,-83.3333333333333,4,2,2,85,0,0
99159,-83.3333333333333,4,2,1,85,0,0
99424,-83.3333333333333,4,2,2,85,0,0
99442,-83.3333333333333,4,2,1,85,0,0
99707,-83.3333333333333,4,2,2,85,0,0
99725,-83.3333333333333,4,2,1,85,0,0
99990,-83.3333333333333,4,2,2,85,0,0
100008,-83.3333333333333,4,2,1,85,0,0
100273,-83.3333333333333,4,2,2,85,0,0
100291,-83.3333333333333,4,2,1,85,0,0
100556,-83.3333333333333,4,2,2,85,0,0
100574,-83.3333333333333,4,2,1,85,0,0
100839,-83.3333333333333,4,2,2,85,0,0
100857,-83.3333333333333,4,2,1,85,0,0
101122,-83.3333333333333,4,2,2,85,0,0
101140,-83.3333333333333,4,2,1,85,0,0
101405,-83.3333333333333,4,2,2,85,0,0
101423,-83.3333333333333,4,2,1,85,0,0
101688,-83.3333333333333,4,2,2,85,0,0
101706,-83.3333333333333,4,2,1,85,0,0
101971,-83.3333333333333,4,2,2,85,0,0
101989,-83.3333333333333,4,2,1,85,0,0
102254,-83.3333333333333,4,2,1,85,0,1
102396,-83.3333333333333,4,2,1,85,0,0
102537,-83.3333333333333,4,2,1,85,0,1
102679,-83.3333333333333,4,2,1,85,0,0
102820,-83.3333333333333,4,2,1,85,0,1
102962,-83.3333333333333,4,2,1,85,0,0
103103,-83.3333333333333,4,2,1,85,0,1
103386,-83.3333333333333,4,2,2,85,0,1
103404,-83.3333333333333,4,2,1,85,0,1
103669,-83.3333333333333,4,2,2,85,0,1
103687,-83.3333333333333,4,2,1,85,0,1
103952,-83.3333333333333,4,2,2,85,0,1
103970,-83.3333333333333,4,2,1,85,0,1
104235,-83.3333333333333,4,2,2,85,0,1
104253,-83.3333333333333,4,2,1,85,0,1
104518,-83.3333333333333,4,2,2,85,0,1
104536,-83.3333333333333,4,2,1,85,0,1
104801,-83.3333333333333,4,2,2,85,0,1
104819,-83.3333333333333,4,2,1,85,0,1
105084,-83.3333333333333,4,2,2,85,0,1
105102,-83.3333333333333,4,2,1,85,0,1
107490,-83.3333333333333,4,2,1,85,0,0
107632,-71.4285714285714,4,2,1,85,0,1
108198,-71.4285714285714,4,2,3,85,0,1
108216,-71.4285714285714,4,2,1,85,0,1
108481,-71.4285714285714,4,2,3,85,0,1
108499,-71.4285714285714,4,2,1,85,0,1
108764,-71.4285714285714,4,2,3,85,0,1
108782,-71.4285714285714,4,2,1,85,0,1
109047,-71.4285714285714,4,2,3,85,0,1
109065,-71.4285714285714,4,2,1,85,0,1
109330,-71.4285714285714,4,2,3,85,0,1
109348,-71.4285714285714,4,2,1,85,0,1
109613,-71.4285714285714,4,2,3,85,0,1
109631,-71.4285714285714,4,2,1,85,0,1
109896,-71.4285714285714,4,2,3,85,0,1
109914,-71.4285714285714,4,2,1,85,0,1
110179,-71.4285714285714,4,2,3,85,0,1
110197,-71.4285714285714,4,2,1,85,0,1
110462,-71.4285714285714,4,2,3,85,0,1
110480,-71.4285714285714,4,2,1,85,0,1
110745,-71.4285714285714,4,2,3,85,0,1
110763,-71.4285714285714,4,2,1,85,0,1
111028,-71.4285714285714,4,2,3,85,0,1
111046,-71.4285714285714,4,2,1,85,0,1
111311,-71.4285714285714,4,2,3,85,0,1
111329,-71.4285714285714,4,2,1,85,0,1
111594,-71.4285714285714,4,2,3,85,0,1
111612,-71.4285714285714,4,2,1,85,0,1
111877,-71.4285714285714,4,2,3,85,0,1
111895,-71.4285714285714,4,2,1,85,0,1
112443,-71.4285714285714,4,2,3,85,0,1
112461,-71.4285714285714,4,2,1,85,0,1
112726,-71.4285714285714,4,2,3,85,0,1
112744,-71.4285714285714,4,2,1,85,0,1
113009,-71.4285714285714,4,2,3,85,0,1
113027,-71.4285714285714,4,2,1,85,0,1
113292,-71.4285714285714,4,2,3,85,0,1
113310,-71.4285714285714,4,2,1,85,0,1
113575,-71.4285714285714,4,2,3,85,0,1
113593,-71.4285714285714,4,2,1,85,0,1
113858,-71.4285714285714,4,2,3,85,0,1
113876,-71.4285714285714,4,2,1,85,0,1
114141,-71.4285714285714,4,2,3,85,0,1
114159,-71.4285714285714,4,2,1,85,0,1
114707,-71.4285714285714,4,2,2,85,0,1
114725,-71.4285714285714,4,2,1,85,0,1
114990,-71.4285714285714,4,2,2,85,0,1
115008,-71.4285714285714,4,2,1,85,0,1
115273,-71.4285714285714,4,2,2,85,0,1
115291,-71.4285714285714,4,2,1,85,0,1
115839,-71.4285714285714,4,2,2,85,0,1
115857,-71.4285714285714,4,2,1,85,0,1
116122,-71.4285714285714,4,2,3,85,0,1
116140,-71.4285714285714,4,2,1,85,0,1
116971,-71.4285714285714,4,2,3,85,0,1
116989,-71.4285714285714,4,2,1,85,0,1
117254,-71.4285714285714,4,2,3,85,0,1
117272,-71.4285714285714,4,2,1,85,0,1
117537,-71.4285714285714,4,2,3,85,0,1
117555,-71.4285714285714,4,2,1,85,0,1
117820,-71.4285714285714,4,2,3,85,0,1
117838,-71.4285714285714,4,2,1,85,0,1
118103,-71.4285714285714,4,2,3,85,0,1
118121,-71.4285714285714,4,2,1,85,0,1
118386,-71.4285714285714,4,2,3,85,0,1
118404,-71.4285714285714,4,2,1,85,0,1
118669,-71.4285714285714,4,2,3,85,0,1
118687,-71.4285714285714,4,2,1,85,0,1
118952,-71.4285714285714,4,2,3,85,0,1
118970,-71.4285714285714,4,2,1,85,0,1
119235,-71.4285714285714,4,2,3,85,0,1
119253,-71.4285714285714,4,2,1,85,0,1
119518,-71.4285714285714,4,2,3,85,0,1
119536,-71.4285714285714,4,2,1,85,0,1
119801,-71.4285714285714,4,2,3,85,0,1
119819,-71.4285714285714,4,2,1,85,0,1
120084,-71.4285714285714,4,2,3,85,0,1
120102,-71.4285714285714,4,2,1,85,0,1
120367,-71.4285714285714,4,2,3,85,0,1
120385,-71.4285714285714,4,2,1,85,0,1
120650,-71.4285714285714,4,2,3,85,0,1
120668,-71.4285714285714,4,2,1,85,0,1
120933,-71.4285714285714,4,2,3,85,0,1
120951,-71.4285714285714,4,2,1,85,0,1
121499,-71.4285714285714,4,2,3,85,0,1
121517,-71.4285714285714,4,2,1,85,0,1
121782,-71.4285714285714,4,2,3,85,0,1
121800,-71.4285714285714,4,2,1,85,0,1
122065,-71.4285714285714,4,2,3,85,0,1
122083,-71.4285714285714,4,2,1,85,0,1
122349,-71.4285714285714,4,2,3,85,0,1
122367,-71.4285714285714,4,2,1,85,0,1
122632,-71.4285714285714,4,2,3,85,0,1
122650,-71.4285714285714,4,2,1,85,0,1
123481,-71.4285714285714,4,2,1,85,0,0
125320,-71.4285714285714,4,2,1,65,0,0
125745,-71.4285714285714,4,2,1,75,0,0

[Colours]
Combo1 : 164,164,164
Combo2 : 217,13,44
Combo3 : 165,217,9
Combo4 : 125,83,236

[HitObjects]
126,54,10273,5,6,1:2:0:0:
445,192,10698,1,6,1:2:0:0:
126,330,11122,1,6,1:2:0:0:
255,41,11547,1,6,1:2:0:0:
256,316,11971,5,6,1:2:0:0:
256,316,12254,1,8,0:3:0:0:
445,192,12537,6,0,L|356:200,1,85,6|2,1:2|0:0,0:0:0:0:
185,249,12820,1,8,0:0:0:0:
198,72,12962,2,0,P|241:106|256:152,1,85,2|0,0:0|1:2,0:0:0:0:
103,298,13245,1,2,1:2:0:0:
161,158,13386,1,8,0:0:0:0:
256,316,13528,6,0,P|311:340|411:296,1,170,2|2,0:0|0:0,0:0:0:0:
416,144,13952,1,10,0:0:0:0:
325,244,14094,1,0,0:0:0:0:
499,336,14235,2,0,L|491:180,1,127.5,2|0,1:2|0:0,0:0:0:0:
416,144,14518,1,10,0:0:0:0:
350,355,14660,1,2,0:0:0:0:
187,85,14801,5,2,1:2:0:0:
244,301,14943,1,0,0:0:0:0:
342,29,15084,1,10,0:0:0:0:
313,247,15226,1,0,0:0:0:0:
112,20,15368,1,2,1:2:0:0:
186,235,15509,1,2,1:2:0:0:
402,147,15651,1,8,0:0:0:0:
76,187,15792,1,2,0:0:0:0:
252,384,15934,6,0,L|240:264,1,85,0|0,1:2|1:2,0:0:0:0:
415,293,16217,2,0,P|372:323|321:332,1,85,12|0,0:0|1:2,0:0:0:0:
357,148,16500,2,0,P|351:190|332:228,1,85,12|0,0:0|1:2,0:0:0:0:
220,85,16783,2,0,P|246:119|259:160,1,85,12|0,0:0|0:0,0:0:0:0:
103,280,17066,5,6,1:2:0:0:
340,331,17207,2,0,L|461:308,1,85,2|8,0:0|0:0,0:0:0:0:
156,166,17490,2,0,L|35:143,1,85,2|0,0:0|1:2,0:0:0:0:
219,336,17773,2,0,P|231:274|221:219,1,85,2|8,1:2|0:0,0:0:0:0:
133,68,18056,1,2,0:0:0:0:
91,251,18198,5,0,1:2:0:0:
299,166,18339,1,2,0:0:0:0:
72,150,18481,1,10,0:0:0:0:
356,258,18622,1,0,0:0:0:0:
118,349,18764,1,2,1:2:0:0:
185,135,18905,1,0,1:2:0:0:
310,347,19047,2,0,P|374:360|418:346,1,85,10|2,0:0|0:0,0:0:0:0:
299,166,19330,5,2,1:2:0:0:
215,376,19471,1,0,0:0:0:0:
127,225,19613,1,10,0:0:0:0:
356,258,19754,1,0,0:0:0:0:
222,69,19896,2,0,L|215:153,1,85,2|2,1:2|1:2,0:0:0:0:
425,16,20179,2,0,L|433:100,1,85,8|2,0:0|0:0,0:0:0:0:
213,235,20462,5,0,1:2:0:0:
474,275,20603,1,0,1:2:0:0:
131,324,20745,5,12,0:0:0:0:
359,211,20886,1,0,1:2:0:0:
77,178,21028,5,12,0:0:0:0:
302,295,21169,2,0,B|320:250|320:250|301:99,1,170,0|0,1:2|0:0,0:0:0:0:
131,324,21594,6,0,P|170:339|241:327,1,85,6|2,1:2|0:0,0:0:0:0:
405,189,21877,1,8,0:0:0:0:
169,161,22018,2,0,L|182:273,1,85,2|0,0:0|1:2,0:0:0:0:
414,104,22301,2,0,L|401:216,1,85,2|8,1:2|0:0,0:0:0:0:
218,78,22584,1,2,0:0:0:0:
442,6,22726,6,0,P|487:29|515:66,1,85,0|2,1:2|0:0,0:0:0:0:
460,265,23009,1,8,0:0:0:0:
253,168,23151,2,0,L|147:159,1,85,2|0,0:0|1:2,0:0:0:0:
334,89,23434,1,2,1:2:0:0:
346,238,23575,2,0,P|340:280|321:319,1,85,8|2,0:0|0:0,0:0:0:0:
82,361,23858,6,0,P|138:340|238:351,1,127.5,2|0,1:2|0:0,0:0:0:0:
204,340,24141,2,0,P|154:319|113:314,1,85,10|0,0:0|0:0,0:0:0:0:
29,206,24424,1,2,1:2:0:0:
183,224,24566,1,0,1:2:0:0:
96,72,24707,2,0,L|106:163,1,85,10|2,0:0|0:0,0:0:0:0:
204,340,24990,5,0,1:2:0:0:
240,120,25132,1,2,1:2:0:0:
348,351,25273,1,14,0:0:0:0:
334,96,25415,1,0,1:2:0:0:
133,273,25556,5,14,0:0:0:0:
428,270,25698,1,0,1:2:0:0:
129,167,25839,1,14,0:0:0:0:
426,131,25981,1,0,0:0:0:0:
230,384,26122,6,0,P|215:300|217:205,1,170,6|8,1:2|0:0,0:0:0:0:
315,62,26547,1,2,0:0:0:0:
306,252,26688,1,2,1:2:0:0:
164,142,26830,1,2,1:2:0:0:
403,229,26971,1,10,0:0:0:0:
120,261,27113,1,0,0:2:0:0:
348,147,27254,6,0,B|396:123|439:140|439:140|486:160|532:132,1,170,2|8,1:2|0:0,0:0:0:0:
265,95,27679,1,2,0:0:0:0:
403,229,27820,1,2,1:2:0:0:
475,56,27962,1,2,1:2:0:0:
267,214,28103,1,10,0:0:0:0:
208,27,28245,1,0,0:0:0:0:
333,295,28386,5,2,1:2:0:0:
361,13,28528,1,0,1:2:0:0:
132,198,28669,2,0,L|23:183,1,85,14|0,0:0|0:0,0:0:0:0:
290,84,28952,5,2,1:2:0:0:
239,294,29094,1,0,1:2:0:0:
87,102,29235,1,14,0:0:0:0:
139,332,29377,1,2,0:0:0:0:
139,332,29448,1,8,0:0:0:0:
139,332,29518,5,10,1:2:0:0:
196,156,29660,1,8,0:0:0:0:
319,339,29801,1,10,1:2:0:0:
290,84,29943,1,10,0:0:0:0:
62,267,30084,5,8,1:2:0:0:
369,151,30226,1,10,0:0:0:0:
69,163,30368,1,10,1:2:0:0:
380,278,30509,1,10,0:0:0:0:
239,384,30651,6,0,P|208:304|226:234,1,152.999995330811,6|0,1:2|0:0,0:0:0:0:
290,192,30934,1,14,0:0:0:0:
105,341,31075,1,2,0:0:0:0:
69,163,31217,2,0,L|180:183,1,101.999996887207,2|0,1:2|1:2,0:0:0:0:
301,312,31500,1,10,0:0:0:0:
362,66,31641,6,0,P|302:104|288:140,1,101.999996887207,2|0,0:0|1:2,0:0:0:0:
474,167,31924,2,0,P|431:148|378:155,1,101.999996887207,2|8,0:0|0:0,0:0:0:0:
501,257,32207,2,0,L|515:51,1,203.999993774414,2|0,0:0|1:2,0:0:0:0:
301,312,32632,1,8,0:0:0:0:
306,329,32915,6,0,P|236:312|147:313,1,152.999995330811,2|0,1:2|0:0,0:0:0:0:
88,362,33198,1,10,0:0:0:0:
266,216,33339,1,2,0:0:0:0:
49,122,33481,1,2,1:2:0:0:
133,228,33622,1,0,1:2:0:0:
200,27,33764,1,10,0:0:0:0:
31,239,33905,2,0,L|134:227,1,101.999996887207,2|0,0:0|1:2,0:0:0:0:
353,129,34188,2,0,L|251:115,1,101.999996887207,2|8,0:0|0:0,0:0:0:0:
2,342,34471,6,0,L|211:307,1,203.999993774414,2|0,0:0|1:2,0:0:0:0:
397,212,34896,1,10,0:0:0:0:
363,346,35037,1,2,0:0:0:0:
223,236,35179,6,0,L|315:255,1,85,6|0,1:2|0:0,0:0:0:0:
475,301,35462,1,10,0:0:0:0:
425,65,35603,2,0,P|381:115|397:212,1,170,2|2,0:0|1:2,0:0:0:0:
512,100,36028,1,10,0:0:0:0:
287,155,36169,1,0,0:0:0:0:
475,301,36311,6,0,L|363:315,1,85,2|0,1:2|0:0,0:0:0:0:
173,346,36594,1,10,0:0:0:0:
213,124,36735,2,0,P|257:174|241:271,1,170,2|0,0:0|1:2,0:0:0:0:
111,119,37160,2,0,B|199:111|199:111|243:81,1,127.5,10|0,0:0|0:0,0:0:0:0:
320,17,37443,6,0,L|307:136,1,85,6|0,1:2|0:0,0:0:0:0:
487,160,37726,2,0,L|500:279,1,85,10|0,0:0|0:0,0:0:0:0:
289,300,38009,2,0,L|276:419,1,85,2|0,1:2|1:2,0:0:0:0:
390,242,38292,1,10,0:0:0:0:
221,175,38434,6,0,P|161:170|112:194,1,85,6|0,1:2|0:0,0:0:0:0:
141,335,38717,2,0,P|175:285|179:231,1,85,2|8,1:2|0:0,0:0:0:0:
139,76,39000,1,2,0:0:0:0:
80,262,39141,1,2,1:2:0:0:
287,230,39283,1,8,0:0:0:0:
57,160,39424,1,10,0:0:0:0:
268,102,39566,1,8,0:0:0:0:
186,351,39707,6,0,L|197:190,1,152.999995330811,6|0,1:2|0:0,0:0:0:0:
184,117,39990,1,10,0:0:0:0:
412,288,40132,1,2,0:0:0:0:
416,51,40273,1,2,1:2:0:0:
287,230,40415,1,0,1:2:0:0:
498,180,40556,1,10,0:0:0:0:
304,17,40698,6,0,P|220:27|191:47,1,101.999996887207,2|0,0:0|1:2,0:0:0:0:
150,210,40981,2,0,P|183:132|180:97,1,101.999996887207,2|8,0:0|0:0,0:0:0:0:
15,326,41264,2,0,P|91:303|232:308,1,203.999993774414,2|0,0:0|1:2,0:0:0:0:
455,358,41688,1,8,0:0:0:0:
464,373,41971,6,0,B|461:251|461:251|432:213,1,152.999995330811,2|0,1:2|0:0,0:0:0:0:
353,179,42254,1,10,0:0:0:0:
502,109,42396,1,2,0:0:0:0:
241,84,42537,1,2,1:2:0:0:
396,38,42679,1,0,1:2:0:0:
236,189,42820,1,10,0:0:0:0:
489,299,42962,6,0,L|485:188,1,101.999996887207,2|0,0:0|1:2,0:0:0:0:
297,346,43245,2,0,L|301:235,1,101.999996887207,2|8,0:0|0:0,0:0:0:0:
35,305,43528,2,0,P|106:340|211:264,1,203.999993774414,2|0,0:0|1:2,0:0:0:0:
317,140,43952,1,10,0:0:0:0:
112,238,44094,1,2,0:0:0:0:
80,42,44235,6,0,L|95:158,1,101.999996887207,6|0,1:2|0:0,0:0:0:0:
205,280,44518,1,10,0:0:0:0:
384,196,44660,2,0,P|439:170|480:166,1,101.999996887207,2|0,0:0|1:2,0:0:0:0:
328,307,44943,1,2,1:2:0:0:
238,155,45084,1,8,0:0:0:0:
157,345,45226,1,2,0:0:0:0:
51,232,45368,6,0,L|185:220,1,101.999996887207,2|0,1:2|1:2,0:0:0:0:
319,114,45651,1,10,0:0:0:0:
426,276,45792,2,0,P|382:223|251:248,1,203.999993774414,2|2,1:2|1:2,0:0:0:0:
157,345,46217,1,10,0:0:0:0:
328,307,46358,1,2,1:2:0:0:
147,106,46500,5,10,0:0:0:0:
250,366,46641,1,2,1:2:0:0:
244,384,46924,5,10,0:3:0:0:
331,109,47066,1,10,0:3:0:0:
351,112,47349,5,10,0:0:0:0:
106,281,47490,1,2,1:2:0:0:
94,297,47773,5,10,0:0:0:0:
410,321,47915,1,10,0:0:0:0:
268,176,48056,1,10,0:0:0:0:
268,176,48764,5,6,1:2:0:0:
76,361,49188,1,6,1:2:0:0:
41,91,49613,1,6,1:2:0:0:
305,278,50037,1,6,1:2:0:0:
41,244,50462,5,10,1:2:0:0:
255,182,50603,1,8,0:0:0:0:
122,296,50745,1,8,1:2:0:0:
67,144,50886,1,8,0:0:0:0:
241,298,51028,5,6,1:2:0:0:
241,298,51169,2,0,P|301:307|347:297,1,85,2|12,0:0|0:0,0:0:0:0:
409,166,51452,2,0,L|397:284,1,85,2|0,0:0|1:2,0:0:0:0:
498,343,51735,2,0,L|486:225,1,85,2|8,1:2|0:0,0:0:0:0:
420,70,52018,6,0,P|362:82|332:108,1,85,2|0,0:0|1:2,0:0:0:0:
222,198,52301,1,2,0:0:0:0:
156,126,52443,1,10,0:0:0:0:
319,189,52584,1,0,0:0:0:0:
167,282,52726,2,0,P|117:268|75:266,1,85,2|0,1:2|1:2,0:0:0:0:
206,363,53009,1,10,0:0:0:0:
273,296,53151,1,2,0:0:0:0:
434,383,53292,6,0,L|448:269,1,85,2|0,1:2|0:0,0:0:0:0:
417,97,53575,1,10,0:0:0:0:
319,189,53717,1,0,0:0:0:0:
160,63,53858,1,2,1:2:0:0:
293,82,54000,1,2,1:2:0:0:
104,155,54141,2,0,P|36:158|7:146,1,85,8|2,0:0|0:0,0:0:0:0:
171,260,54424,5,0,1:2:0:0:
278,288,54566,1,0,1:2:0:0:
455,153,54707,5,12,0:0:0:0:
367,181,54849,1,0,1:2:0:0:
404,365,54990,5,12,0:0:0:0:
432,251,55132,1,0,1:2:0:0:
209,69,55273,5,12,0:0:0:0:
242,192,55415,1,0,0:0:0:0:
387,80,55556,6,0,P|339:83|301:108,1,85,6|2,1:2|0:0,0:0:0:0:
193,267,55839,1,8,0:0:0:0:
49,167,55981,2,0,L|149:175,1,85,2|0,0:0|1:2,0:0:0:0:
121,339,56264,2,0,P|92:290|90:251,1,85,2|8,1:2|0:0,0:0:0:0:
423,262,56547,6,0,P|415:304|391:339,1,85,2|0,0:0|1:2,0:0:0:0:
256,363,56830,1,2,0:0:0:0:
256,363,56971,1,10,0:0:0:0:
218,181,57113,1,0,0:0:0:0:
218,181,57254,2,0,L|314:190,1,85,2|0,1:2|1:2,0:0:0:0:
478,119,57537,1,10,0:0:0:0:
405,76,57679,1,2,0:0:0:0:
362,287,57820,5,2,1:2:0:0:
489,225,57962,1,2,1:2:0:0:
262,264,58103,5,10,0:0:0:0:
291,357,58245,1,0,0:0:0:0:
337,189,58386,5,2,1:2:0:0:
219,114,58528,1,2,1:2:0:0:
132,237,58669,1,8,0:0:0:0:
213,94,58811,6,0,B|271:56|321:78|321:78|388:103|434:60|434:60|395:136|444:199|444:199|473:160|513:159|513:159|479:219|497:270|497:270|531:332|490:379|490:379|439:371|424:338|424:338|393:328|370:341,1,815.999975097657,6|8,1:2|0:0,0:0:0:0:
312,359,61146,1,8,0:0:0:0:
312,359,61217,5,8,0:0:0:0:
284,165,61358,1,8,0:0:0:0:
148,338,61500,5,8,0:3:0:0:
305,270,61641,1,10,0:3:0:0:
78,228,61783,1,6,0:3:0:0:
176,78,61924,1,4,0:3:0:0:
194,250,62066,2,0,B|179:247|155:224|155:224|137:235|137:235|97:226|57:230,1,127.5,2|0,1:2|0:0,0:0:0:0:
151,181,62349,6,0,P|210:165|252:179,1,85,6|0,1:2|0:0,0:0:0:0:
397,249,62632,1,8,0:0:0:0:
333,90,62773,2,0,L|343:190,1,85,2|0,0:0|1:2,0:0:0:0:
472,35,63056,2,0,L|462:135,1,85,2|8,1:2|0:0,0:0:0:0:
249,56,63339,6,0,P|281:18|320:0,1,85,2|0,0:0|1:2,0:0:0:0:
151,181,63622,2,0,P|119:143|80:125,1,85,2|8,0:0|0:0,0:0:0:0:
249,306,63905,2,0,P|281:268|320:250,1,85,2|0,0:0|1:2,0:0:0:0:
136,384,64188,1,2,1:2:0:0:
61,231,64330,1,8,0:0:0:0:
150,299,64471,1,2,0:0:0:0:
301,160,64613,6,0,L|399:175,1,85,2|0,1:2|0:0,0:0:0:0:
256,6,64896,2,0,P|234:47|231:94,1,85,10|0,0:0|0:0,0:0:0:0:
322,257,65179,1,2,1:2:0:0:
334,71,65320,1,0,1:2:0:0:
167,171,65462,1,10,0:0:0:0:
418,83,65603,2,0,L|333:70,1,85,2|0,0:0|1:2,0:0:0:0:
145,80,65886,5,2,1:2:0:0:
117,90,66028,1,14,0:0:0:0:
276,165,66169,5,0,1:2:0:0:
314,177,66311,1,14,0:0:0:0:
136,264,66452,5,0,1:2:0:0:
89,280,66594,1,14,0:0:0:0:
269,360,66735,5,0,0:0:0:0:
346,384,66877,2,0,P|423:368|439:271,1,170,6|8,1:2|0:0,0:0:0:0:
393,149,67301,1,2,0:0:0:0:
217,252,67443,2,0,P|155:267|112:255,1,85,2|2,1:2|1:2,0:0:0:0:
112,88,67726,2,0,P|174:73|217:85,1,85,10|0,0:0|0:2,0:0:0:0:
79,179,68009,6,0,L|62:-2,1,170,2|8,1:2|0:0,0:0:0:0:
253,181,68434,1,2,0:0:0:0:
253,181,68575,2,0,L|150:166,1,85,2|2,1:2|1:2,0:0:0:0:
321,95,68858,2,0,L|424:80,1,85,10|0,0:0|0:0,0:0:0:0:
404,252,69141,6,0,P|378:194|382:149,1,85,2|0,1:2|1:2,0:0:0:0:
509,246,69424,2,0,P|503:287|482:324,1,85,14|0,0:0|0:0,0:0:0:0:
235,340,69707,1,2,1:2:0:0:
404,252,69849,1,0,1:2:0:0:
110,212,69990,1,14,0:0:0:0:
301,267,70132,1,2,0:0:0:0:
51,360,70273,5,10,1:2:0:0:
54,153,70415,1,8,0:0:0:0:
235,340,70556,1,10,1:2:0:0:
168,125,70698,1,10,0:0:0:0:
14,281,70839,5,8,1:2:0:0:
95,66,70981,1,10,0:0:0:0:
301,267,71122,1,10,1:2:0:0:
212,11,71264,1,10,0:0:0:0:
96,241,71405,6,0,P|162:252|243:202,1,152.999995330811,6|0,1:2|0:0,0:0:0:0:
310,162,71688,1,14,0:0:0:0:
174,355,71830,1,2,0:0:0:0:
152,157,71971,2,0,L|144:37,1,101.999996887207,2|0,1:2|1:2,0:0:0:0:
329,279,72254,1,10,0:0:0:0:
20,273,72396,6,0,P|64:242|116:231,1,101.999996887207,2|0,0:0|1:2,0:0:0:0:
303,384,72679,2,0,P|264:366|229:312,1,101.999996887207,2|8,0:0|0:0,0:0:0:0:
387,109,72962,2,0,P|322:189|209:205,1,203.999993774414,2|0,0:0|1:2,0:0:0:0:
135,77,73386,1,10,0:0:0:0:
135,77,73669,6,0,P|74:60|35:67,1,101.999996887207,2|0,1:2|0:0,0:0:0:0:
227,208,73952,1,10,0:0:0:0:
287,123,74094,1,2,0:0:0:0:
165,290,74235,1,2,1:2:0:0:
359,260,74377,1,0,1:2:0:0:
123,209,74518,1,10,0:0:0:0:
256,384,74660,6,0,L|269:278,1,101.999996887207,2|0,0:0|1:2,0:0:0:0:
39,372,74943,2,0,L|26:262,1,101.999996887207,2|8,0:0|0:0,0:0:0:0:
121,89,75226,2,0,B|184:69|228:93|228:93|267:115|335:97,1,203.999993774414,2|0,0:0|1:2,0:0:0:0:
451,46,75651,1,10,0:0:0:0:
276,17,75792,1,2,0:0:0:0:
459,207,75934,6,0,L|354:189,1,101.999996887207,6|0,1:2|0:0,0:0:0:0:
172,167,76217,1,10,0:0:0:0:
308,384,76358,2,0,P|324:323|269:236,1,152.999995330811,2|0,0:0|0:0,0:0:0:0:
200,245,76641,1,2,1:2:0:0:
413,315,76783,1,10,0:0:0:0:
344,173,76924,1,0,0:0:0:0:
135,338,77066,6,0,L|263:326,1,101.999996887207,2|0,1:2|0:0,0:0:0:0:
429,218,77349,1,10,0:0:0:0:
199,49,77490,2,0,B|172:114|172:114|200:248,1,203.999993774414,2|0,0:0|1:2,0:0:0:0:
368,89,77915,2,0,P|358:53|314:4,1,101.999996887207,10|0,0:0|0:0,0:0:0:0:
4,212,78198,6,0,L|104:197,1,101.999996887207,6|0,1:2|0:0,0:0:0:0:
308,343,78481,2,0,L|208:328,1,101.999996887207,10|0,0:0|0:0,0:0:0:0:
454,127,78764,2,0,B|472:161|472:161|459:243,1,101.999996887207,2|0,1:2|1:2,0:0:0:0:
304,256,79047,1,10,0:0:0:0:
185,83,79188,6,0,B|167:117|167:117|180:199,1,101.999996887207,6|0,1:2|0:0,0:0:0:0:
296,34,79471,1,2,1:2:0:0:
94,54,79613,1,8,0:0:0:0:
262,175,79754,1,2,0:0:0:0:
23,138,79896,1,2,1:2:0:0:
339,110,80037,5,8,0:0:0:0:
128,280,80179,1,10,0:0:0:0:
185,83,80320,1,8,0:0:0:0:
308,333,80462,6,0,P|381:336|434:276,1,152.999995330811,6|0,1:2|0:0,0:0:0:0:
462,204,80745,1,10,0:0:0:0:
216,269,80886,1,2,0:0:0:0:
394,93,81028,1,2,1:2:0:0:
218,147,81169,1,0,1:2:0:0:
345,251,81311,1,10,0:0:0:0:
292,67,81452,6,0,P|221:33|161:40,1,101.999996887207,2|0,0:0|1:2,0:0:0:0:
394,93,81735,2,0,P|465:59|525:66,1,101.999996887207,2|8,0:0|0:0,0:0:0:0:
218,147,82018,2,0,B|151:122|71:139|71:139|104:156|126:185,1,203.999993774414,2|0,0:0|1:2,0:0:0:0:
249,276,82443,2,0,P|304:281|366:269,1,101.999996887207,8|0,0:0|0:0,0:0:0:0:
40,230,82726,6,0,L|56:344,1,101.999996887207,2|0,1:2|0:0,0:0:0:0:
297,186,83009,1,10,0:0:0:0:
75,139,83151,1,2,0:0:0:0:
293,63,83292,1,2,1:2:0:0:
150,269,83434,1,0,1:2:0:0:
90,41,83575,1,10,0:0:0:0:
398,197,83717,6,0,L|271:182,1,101.999996887207,2|0,0:0|1:2,0:0:0:0:
43,368,84000,2,0,L|170:353,1,101.999996887207,2|8,0:0|0:0,0:0:0:0:
90,41,84283,2,0,B|55:99|55:99|79:263,1,203.999993774414,2|0,0:0|1:2,0:0:0:0:
296,185,84707,1,10,0:0:0:0:
157,127,84849,1,2,0:0:0:0:
345,53,84990,6,0,P|428:41|471:55,1,101.999996887207,6|0,1:2|0:0,0:0:0:0:
398,197,85273,1,10,0:0:0:0:
217,41,85415,2,0,P|134:29|91:43,1,101.999996887207,2|0,0:0|1:2,0:0:0:0:
42,195,85698,1,2,1:2:0:0:
157,127,85839,1,10,0:0:0:0:
184,325,85981,1,0,0:0:0:0:
17,289,86122,6,0,B|88:281|88:281|133:296|133:296|237:283,1,203.999993774414,2|10,1:2|0:0,0:0:0:0:
398,197,86547,2,0,P|315:218|260:117,1,203.999993774414,2|2,0:0|1:2,0:0:0:0:
455,80,86971,1,10,0:0:0:0:
417,302,87113,1,0,0:0:0:0:
171,166,87254,5,2,1:2:0:0:
341,29,87396,2,0,P|347:79|341:129,1,101.999996887207,2|12,1:2|0:0,0:0:0:0:
50,203,87679,5,2,0:0:0:0:
275,313,87820,2,0,P|281:262|275:212,1,101.999996887207,2|0,1:2|1:2,0:0:0:0:
138,47,88103,5,14,0:0:0:0:
444,137,88245,1,2,0:0:0:0:
108,211,88386,5,8,1:2:0:0:
345,107,88528,1,10,0:0:0:0:
231,326,88669,1,10,1:2:0:0:
162,136,88811,1,10,0:0:0:0:
362,300,88952,1,8,1:2:0:0:
65,282,89094,1,10,0:0:0:0:
267,122,89235,1,10,1:2:0:0:
229,358,89377,1,8,0:0:0:0:
4,190,89518,6,0,B|41:169|84:184|84:184|125:197|160:176,1,152.999995330811,6|0,1:2|0:0,0:0:0:0:
44,125,89801,2,0,B|85:114|122:139|122:139|159:163|198:151,1,152.999995330811,10|0,0:0|0:0,0:0:0:0:
99,72,90084,2,0,B|141:72|171:106|171:106|200:138|241:137,1,152.999995330811,2|0,1:2|0:0,0:0:0:0:
166,35,90368,2,0,B|207:46|226:87|226:87|246:125|286:135,1,152.999995330811,10|0,0:0|0:0,0:0:0:0:
406,174,90651,6,0,P|341:155|265:193,1,152.999995330811,2|0,1:2|0:0,0:0:0:0:
387,219,90934,2,0,P|354:159|273:132,1,152.999995330811,10|0,0:0|0:0,0:0:0:0:
341,237,91217,2,0,P|359:172|321:96,1,152.999995330811,2|0,1:2|0:0,0:0:0:0:
296,218,91500,2,0,P|355:185|382:104,1,152.999995330811,10|0,0:0|0:0,0:0:0:0:
291,28,91783,6,0,B|235:30|235:30|200:58|200:58|120:66,1,152.999995330811,2|0,1:2|0:0,0:0:0:0:
26,119,92066,2,0,B|82:121|82:121|117:149|117:149|197:157,1,152.999995330811,10|0,0:0|0:0,0:0:0:0:
250,237,92349,2,0,B|143:246|143:246,1,101.999996887207,2|0,1:2|1:2,0:0:0:0:
324,295,92632,1,10,0:0:0:0:
346,258,92702,1,0,0:0:0:0:
347,215,92773,1,2,3:2:0:0:
327,178,92844,1,0,3:2:0:0:
290,156,92915,6,0,P|268:108|274:54,1,101.999996887207,2|0,1:2|1:2,0:0:0:0:
459,81,93198,2,0,B|411:107|411:107|360:94,1,101.999996887207,14|2,0:0|1:2,0:0:0:0:
92,166,93481,2,0,B|140:192|140:192|191:179,1,101.999996887207,12|2,0:0|1:2,0:0:0:0:
60,75,93764,1,14,0:0:0:0:
19,103,93834,1,0,3:2:0:0:
0,151,93905,1,0,3:2:0:0:
5,203,93976,1,0,3:2:0:0:
36,243,94047,6,0,L|79:278,1,50.9999984436036,6|0,1:2|3:2,0:0:0:0:
105,370,94188,2,0,L|148:335,1,50.9999984436036,2|0,0:0|3:2,0:0:0:0:
203,277,94330,1,8,0:0:0:0:
250,261,94401,1,0,3:2:0:0:
298,278,94471,1,0,3:2:0:0:
345,294,94542,1,0,3:2:0:0:
392,277,94613,2,0,P|396:238|388:210,1,50.9999984436036,2|0,1:2|3:2,0:0:0:0:
482,169,94754,2,0,P|456:138|430:124,1,50.9999984436036,2|0,1:2|3:2,0:0:0:0:
333,92,94896,2,0,L|318:36,3,50.9999984436036,8|0|2|0,0:0|3:2|0:0|3:2,0:0:0:0:
260,181,95179,5,2,1:2:0:0:
231,213,95250,1,0,3:2:0:0:
193,233,95320,1,0,1:2:0:0:
150,238,95391,1,0,3:2:0:0:
109,228,95462,1,10,0:0:0:0:
73,204,95533,1,0,3:2:0:0:
50,167,95603,1,2,0:0:0:0:
41,124,95674,1,0,3:2:0:0:
48,81,95745,6,0,L|117:74,1,50.9999984436036,2|0,1:2|3:2,0:0:0:0:
161,15,95886,2,0,L|217:20,1,50.9999984436036,0|0,1:2|3:2,0:0:0:0:
265,85,96028,1,10,0:0:0:0:
299,94,96099,1,0,1:0:0:0:
338,93,96169,1,0,1:0:0:0:
372,76,96240,1,0,1:0:0:0:
399,47,96311,5,0,1:2:0:0:
348,49,96382,1,0,1:0:0:0:
310,81,96452,1,0,1:0:0:0:
300,130,96523,1,0,1:0:0:0:
321,175,96594,2,0,L|340:232,3,50.9999984436036,10|0|2|0,0:0|3:2|0:0|3:2,0:0:0:0:
441,270,96877,2,0,L|422:326,3,50.9999984436036,0|0|0|0,1:2|3:2|1:2|3:2,0:0:0:0:
324,352,97160,2,0,P|276:324|203:326,1,101.999996887207,10|0,0:0|3:2,0:0:0:0:
26,363,97443,5,2,1:2:0:0:
237,224,97584,1,2,1:2:0:0:
51,100,97726,6,0,L|76:212,1,101.999996887207,14|2,0:0|1:2,0:0:0:0:
255,41,98009,2,0,L|232:140,1,101.999996887207,14|0,0:0|1:2,0:0:0:0:
414,105,98292,2,0,L|439:217,1,101.999996887207,12|0,0:0|0:0,0:0:0:0:
235,300,98575,6,0,B|280:250|362:273|362:273|403:314|457:301,1,203.999993774414,4|8,1:2|0:0,0:0:0:0:
263,179,99000,1,0,0:0:0:0:
147,358,99141,2,0,P|78:366|32:348,1,101.999996887207,0|0,1:2|1:2,0:0:0:0:
0,275,99353,1,0,0:0:0:0:
0,275,99424,2,0,L|8:149,1,101.999996887207,10|0,0:0|0:0,0:0:0:0:
251,77,99707,6,0,L|263:186,1,101.999996887207,0|0,1:2|1:2,0:0:0:0:
336,243,99919,1,0,0:0:0:0:
336,243,99990,2,0,L|316:365,1,101.999996887207,10|0,0:0|0:0,0:0:0:0:
182,203,100273,1,0,1:2:0:0:
348,115,100415,1,0,1:2:0:0:
127,28,100556,2,0,P|73:17|9:39,1,101.999996887207,8|0,0:0|0:0,0:0:0:0:
252,143,100839,6,0,B|335:130|335:130|376:150|376:150|477:132,1,203.999993774414,2|10,1:2|0:0,0:0:0:0:
280,40,101264,1,0,3:2:0:0:
182,203,101405,2,0,P|204:263|258:292,1,101.999996887207,2|0,1:2|1:2,0:0:0:0:
433,356,101688,2,0,L|325:348,1,101.999996887207,10|0,0:0|3:2,0:0:0:0:
96,221,101971,5,2,1:2:0:0:
349,259,102113,1,0,1:2:0:0:
74,321,102254,6,0,L|99:209,1,101.999996887207,14|0,0:0|1:2,0:0:0:0:
278,380,102537,2,0,L|255:281,1,101.999996887207,14|0,0:0|1:2,0:0:0:0:
437,316,102820,2,0,L|462:204,1,101.999996887207,14|0,0:0|0:0,0:0:0:0:
360,134,103103,5,6,1:2:0:0:
315,110,103174,1,0,3:2:0:0:
264,106,103245,1,0,3:2:0:0:
217,122,103316,1,0,3:2:0:0:
180,157,103386,1,8,0:0:0:0:
140,188,103457,1,0,3:2:0:0:
90,192,103528,1,0,3:2:0:0:
46,167,103599,1,0,3:2:0:0:
24,122,103669,5,2,1:2:0:0:
31,73,103740,1,0,3:2:0:0:
64,35,103811,1,0,1:2:0:0:
113,23,103882,1,0,3:2:0:0:
160,40,103952,1,10,0:0:0:0:
196,60,104023,1,0,3:2:0:0:
238,71,104094,1,0,3:2:0:0:
278,72,104165,1,0,3:2:0:0:
318,49,104235,5,2,1:2:0:0:
281,83,104306,1,0,3:2:0:0:
266,131,104377,1,0,1:2:0:0:
277,181,104448,1,2,0:0:0:0:
310,218,104518,2,0,P|347:224|376:218,1,50.9999984436036,8|0,0:0|3:2,0:0:0:0:
395,308,104660,2,0,P|425:286|441:261,1,50.9999984436036,2|0,0:0|3:2,0:0:0:0:
393,135,104801,5,2,1:2:0:0:
245,293,104943,1,0,1:2:0:0:
167,146,105084,1,10,0:0:0:0:
117,136,105155,1,0,3:2:0:0:
67,146,105226,1,0,3:2:0:0:
26,175,105297,1,0,3:2:0:0:
0,218,105368,6,0,L|19:330,1,101.999996887207,6|8,1:2|0:0,0:0:0:0:
298,359,105651,1,8,0:0:0:0:
122,233,105792,1,10,0:0:0:0:
318,170,105934,1,4,1:2:0:0:
171,353,106075,1,10,0:0:0:0:
109,111,106217,1,10,1:2:0:0:
349,279,106358,1,8,0:0:0:0:
371,21,106500,5,6,1:2:0:0:
200,172,106641,1,8,0:0:0:0:
497,236,106783,1,8,0:0:0:0:
122,233,106924,1,8,0:0:0:0:
480,101,107066,1,8,0:0:0:0:
336,377,107207,1,10,0:0:0:0:
171,77,107349,1,10,0:0:0:0:
424,180,107490,1,10,0:0:0:0:
236,347,107632,6,0,B|169:335|169:335|113:357|113:357|40:348,1,178.499994552612,6|0,1:2|0:0,0:0:0:0:
0,261,107915,1,14,0:0:0:0:
239,203,108056,1,2,0:0:0:0:
4,101,108198,1,2,1:2:0:0:
123,288,108339,1,0,1:2:0:0:
178,69,108481,1,10,0:0:0:0:
357,214,108622,6,0,L|216:200,1,118.999996368408,2|0,0:0|1:2,0:0:0:0:
392,33,108905,2,0,L|533:19,1,118.999996368408,2|8,0:0|0:0,0:0:0:0:
186,289,109188,2,0,P|140:217|238:104,1,237.999992736817,2|0,0:0|1:2,0:0:0:0:
411,345,109613,1,8,0:0:0:0:
400,359,109896,6,0,L|273:352,1,118.999996368408,2|0,1:2|0:0,0:0:0:0:
67,306,110179,1,10,0:0:0:0:
252,149,110320,1,2,0:0:0:0:
175,373,110462,1,2,1:2:0:0:
100,162,110603,1,0,1:2:0:0:
306,254,110745,1,10,0:0:0:0:
305,47,110886,6,0,P|264:95|252:163,1,118.999996368408,2|0,0:0|1:2,0:0:0:0:
480,137,111169,2,0,P|458:77|406:33,1,118.999996368408,2|8,0:0|0:0,0:0:0:0:
192,253,111452,2,0,B|244:281|307:254|307:254|370:226|424:253,1,237.999992736817,2|0,0:0|1:2,0:0:0:0:
235,361,111877,2,0,P|164:345|103:300,1,118.999996368408,10|2,0:0|0:0,0:0:0:0:
250,34,112160,6,0,P|314:76|325:145,1,118.999996368408,6|0,1:2|0:0,0:0:0:0:
192,253,112443,1,10,0:0:0:0:
0,131,112584,2,0,B|90:118|90:118|153:145|153:145|233:129,1,237.999992736817,2|2,0:0|1:2,0:0:0:0:
414,231,113009,2,0,L|270:213,1,118.999996368408,10|0,0:0|0:0,0:0:0:0:
477,151,113292,6,0,P|510:243|376:331,1,237.999992736817,2|10,1:2|0:0,0:0:0:0:
108,221,113717,2,0,P|99:108|197:52,1,237.999992736817,2|0,0:0|1:2,0:0:0:0:
307,187,114141,2,0,P|231:180|177:133,1,118.999996368408,10|0,0:0|0:0,0:0:0:0:
466,32,114424,6,0,L|479:178,1,118.999996368408,6|0,1:2|0:0,0:0:0:0:
216,340,114707,2,0,L|229:194,1,118.999996368408,10|0,0:0|0:0,0:0:0:0:
419,370,114990,1,2,1:2:0:0:
118,278,115132,1,0,1:2:0:0:
394,185,115273,1,10,0:0:0:0:
120,80,115415,6,0,P|60:73|1:101,1,118.999996368408,6|0,1:2|0:0,0:0:0:0:
323,35,115698,2,0,P|383:28|442:56,1,118.999996368408,2|8,1:2|0:0,0:0:0:0:
242,317,115981,1,2,0:0:0:0:
187,116,116122,1,2,1:2:0:0:
352,365,116264,1,8,0:0:0:0:
374,126,116405,1,10,0:0:0:0:
119,237,116547,1,8,0:0:0:0:
440,331,116688,6,0,P|502:296|501:195,1,178.499994552612,6|0,1:2|0:0,0:0:0:0:
465,117,116971,1,10,0:0:0:0:
241,316,117113,1,2,0:0:0:0:
234,64,117254,1,2,1:2:0:0:
427,245,117396,1,0,1:2:0:0:
330,0,117537,1,10,0:0:0:0:
192,220,117679,6,0,P|121:221|78:191,1,118.999996368408,2|0,0:0|1:2,0:0:0:0:
317,269,117962,2,0,P|388:270|431:240,1,118.999996368408,2|8,0:0|0:0,0:0:0:0:
140,333,118245,2,0,P|58:309|-30:162,1,237.999992736817,2|0,0:0|1:2,0:0:0:0:
234,64,118669,1,8,0:0:0:0:
242,77,118952,6,0,L|226:208,1,118.999996368408,2|0,1:2|0:0,0:0:0:0:
413,366,119235,1,10,0:0:0:0:
381,166,119377,1,2,0:0:0:0:
215,364,119518,1,2,1:2:0:0:
443,263,119660,1,0,1:2:0:0:
132,269,119801,1,10,0:0:0:0:
381,166,119943,6,0,P|436:146|495:151,1,118.999996368408,2|0,0:0|1:2,0:0:0:0:
155,78,120226,2,0,P|99:58|40:63,1,118.999996368408,2|8,0:0|0:0,0:0:0:0:
256,289,120509,2,0,L|275:44,1,237.999992736817,2|0,0:0|1:2,0:0:0:0:
151,237,120934,1,10,0:0:0:0:
367,293,121075,1,2,0:0:0:0:
160,355,121217,6,0,L|149:218,1,118.999996368408,6|0,1:2|0:0,0:0:0:0:
231,93,121500,1,10,0:0:0:0:
442,253,121641,2,0,L|316:230,1,118.999996368408,2|0,0:0|1:2,0:0:0:0:
142,103,121924,1,2,1:2:0:0:
405,143,122066,1,8,0:0:0:0:
159,191,122207,1,2,0:0:0:0:
464,52,122349,6,0,P|384:41|340:66,1,118.999996368408,2|0,1:2|1:2,0:0:0:0:
252,184,122632,1,10,0:0:0:0:
55,31,122773,2,0,L|197:4,1,118.999996368408,2|8,1:2|0:0,0:0:0:0:
203,281,123056,1,2,1:2:0:0:
13,146,123198,1,10,0:0:0:0:
261,67,123339,1,2,1:2:0:0:
61,253,123481,5,10,0:0:0:0:
378,291,123622,1,2,1:2:0:0:
388,308,123905,5,10,0:3:0:0:
65,356,124047,1,2,0:3:0:0:
53,370,124330,5,10,0:0:0:0:
139,92,124471,1,2,1:2:0:0:
149,79,124754,5,10,0:0:0:0:
293,327,124896,1,10,0:0:0:0:
386,54,125037,1,10,0:0:0:0:
386,54,125745,5,6,1:2:0:0:
67,192,126169,1,6,1:2:0:0:
386,330,126594,1,6,1:2:0:0:
257,41,127018,1,6,1:2:0:0:
256,316,127443,1,6,1:2:0:0:
