osu file format v14

[General]
AudioFilename: audio.mp3
AudioLeadIn: 0
PreviewTime:30156
Countdown: 0
SampleSet: Soft
StackLeniency: 0.4
Mode: 0
LetterboxInBreaks: 0
WidescreenStoryboard: 1

[Editor]
DistanceSpacing: 1
BeatDivisor: 4
GridSize: 8
TimelineZoom: 2

[Metadata]
Title:Cheap Cheap Endroll
TitleUnicode:Cheap Cheap Endroll
Artist:UNISON SQUARE GARDEN
ArtistUnicode:UNISON SQUARE GARDEN
Creator:Nevo
Version:Addy's Extra
Source:
Tags:dr.izzy male vocals japanese addy2607 lapp killian -nanoripe- rock jrock j-rock cherry blossoms xandit bokeru KaedeharaKazuha nanoripe unison-s-g unisonsg
BeatmapID:2764663
BeatmapSetID:613629

[Difficulty]
HPDrainRate:6
CircleSize:3.8
OverallDifficulty:9
ApproachRate:9.2
SliderMultiplier:1.6
SliderTickRate:1

[Events]
//Background and Video events
0,0,"8f8f956f19fb4d4b6396fcde3ea1c7d2.jpg",0,0
//Break Periods
//Storyboard Layer 0 (Background)
//Storyboard Layer 1 (Fail)
//Storyboard Layer 2 (Pass)
//Storyboard Layer 3 (Foreground)
//Storyboard Layer 4 (Overlay)
//Storyboard Sound Samples

[TimingPoints]
85,283.018867924528,4,2,1,85,1,0
9424,-100,4,2,1,85,0,0
9990,-100,4,2,1,75,0,0
10273,-100,4,2,1,75,0,0
12820,-100,4,2,3,75,0,0
12838,-100,4,2,1,75,0,0
13103,-100,4,2,3,75,0,0
13121,-100,4,2,1,75,0,0
13386,-100,4,2,3,75,0,0
13404,-100,4,2,1,75,0,0
13669,-100,4,2,3,75,0,0
13687,-100,4,2,1,75,0,0
13952,-100,4,2,3,75,0,0
13970,-100,4,2,1,75,0,0
14235,-100,4,2,3,75,0,0
14253,-100,4,2,1,75,0,0
14518,-100,4,2,3,75,0,0
14536,-100,4,2,1,75,0,0
14801,-100,4,2,3,75,0,0
14819,-100,4,2,1,75,0,0
15084,-100,4,2,3,75,0,0
15102,-100,4,2,1,75,0,0
15368,-100,4,2,3,75,0,0
15386,-100,4,2,1,75,0,0
15651,-100,4,2,3,75,0,0
15669,-100,4,2,1,75,0,0
15934,-100,4,2,3,75,0,0
15952,-100,4,2,1,75,0,0
17349,-100,4,2,3,75,0,0
17367,-100,4,2,1,75,0,0
17632,-100,4,2,3,75,0,0
17650,-100,4,2,1,75,0,0
17915,-100,4,2,3,75,0,0
17933,-100,4,2,1,75,0,0
18198,-100,4,2,3,75,0,0
18216,-100,4,2,1,75,0,0
18481,-100,4,2,3,75,0,0
18499,-100,4,2,1,75,0,0
18764,-100,4,2,3,75,0,0
18782,-100,4,2,1,75,0,0
19047,-100,4,2,3,75,0,0
19065,-100,4,2,1,75,0,0
19330,-100,4,2,3,75,0,0
19348,-100,4,2,1,75,0,0
19613,-100,4,2,3,75,0,0
19631,-100,4,2,1,75,0,0
19896,-100,4,2,3,75,0,0
19914,-100,4,2,1,75,0,0
20179,-100,4,2,3,75,0,0
20197,-100,4,2,1,75,0,0
20462,-100,4,2,3,75,0,0
20480,-100,4,2,1,75,0,0
21877,-100,4,2,3,75,0,0
21895,-100,4,2,1,75,0,0
22160,-100,4,2,3,75,0,0
22178,-100,4,2,1,75,0,0
22443,-100,4,2,3,75,0,0
22461,-100,4,2,1,75,0,0
22726,-100,4,2,3,75,0,0
22744,-100,4,2,1,75,0,0
23009,-100,4,2,3,75,0,0
23027,-100,4,2,1,75,0,0
23292,-100,4,2,3,75,0,0
23310,-100,4,2,1,75,0,0
23575,-100,4,2,3,75,0,0
23593,-100,4,2,1,75,0,0
23858,-100,4,2,3,75,0,0
23876,-100,4,2,1,75,0,0
24141,-100,4,2,3,75,0,0
24159,-100,4,2,1,75,0,0
24424,-100,4,2,3,75,0,0
24442,-100,4,2,1,75,0,0
24707,-100,4,2,3,75,0,0
24725,-100,4,2,1,75,0,0
24990,-100,4,2,3,75,0,0
25008,-100,4,2,1,75,0,0
26405,-100,4,2,3,75,0,0
26423,-100,4,2,1,75,0,0
26688,-100,4,2,3,75,0,0
26706,-100,4,2,1,75,0,0
26971,-100,4,2,3,75,0,0
26989,-100,4,2,1,75,0,0
27254,-100,4,2,3,75,0,0
27272,-100,4,2,1,75,0,0
27537,-100,4,2,3,75,0,0
27555,-100,4,2,1,75,0,0
27820,-100,4,2,3,75,0,0
27838,-100,4,2,1,75,0,0
28103,-100,4,2,3,75,0,0
28121,-100,4,2,1,75,0,0
28386,-100,4,2,3,75,0,0
28404,-100,4,2,1,75,0,0
30651,-86.9565217391304,4,2,1,85,0,1
31217,-86.9565217391304,4,2,3,85,0,1
31235,-86.9565217391304,4,2,1,85,0,1
31500,-86.9565217391304,4,2,3,85,0,1
31518,-86.9565217391304,4,2,1,85,0,1
31783,-86.9565217391304,4,2,3,85,0,1
31801,-86.9565217391304,4,2,1,85,0,1
32066,-86.9565217391304,4,2,3,85,0,1
32084,-86.9565217391304,4,2,1,85,0,1
32349,-86.9565217391304,4,2,3,85,0,1
32367,-86.9565217391304,4,2,1,85,0,1
32632,-86.9565217391304,4,2,3,85,0,1
32650,-86.9565217391304,4,2,1,85,0,1
32915,-86.9565217391304,4,2,3,85,0,1
32933,-86.9565217391304,4,2,1,85,0,1
33198,-86.9565217391304,4,2,3,85,0,1
33216,-86.9565217391304,4,2,1,85,0,1
33481,-86.9565217391304,4,2,3,85,0,1
33499,-86.9565217391304,4,2,1,85,0,1
33764,-86.9565217391304,4,2,3,85,0,1
33782,-86.9565217391304,4,2,1,85,0,1
34047,-86.9565217391304,4,2,3,85,0,1
34065,-86.9565217391304,4,2,1,85,0,1
34330,-86.9565217391304,4,2,3,85,0,1
34348,-86.9565217391304,4,2,1,85,0,1
34613,-86.9565217391304,4,2,3,85,0,1
34631,-86.9565217391304,4,2,1,85,0,1
34896,-86.9565217391304,4,2,3,85,0,1
34914,-86.9565217391304,4,2,1,85,0,1
35462,-86.9565217391304,4,2,3,85,0,1
35480,-86.9565217391304,4,2,1,85,0,1
35745,-86.9565217391304,4,2,3,85,0,1
35763,-86.9565217391304,4,2,1,85,0,1
36028,-86.9565217391304,4,2,3,85,0,1
36046,-86.9565217391304,4,2,1,85,0,1
36311,-86.9565217391304,4,2,3,85,0,1
36329,-86.9565217391304,4,2,1,85,0,1
36594,-86.9565217391304,4,2,3,85,0,1
36612,-86.9565217391304,4,2,1,85,0,1
36877,-86.9565217391304,4,2,3,85,0,1
36895,-86.9565217391304,4,2,1,85,0,1
37160,-86.9565217391304,4,2,3,85,0,1
37178,-86.9565217391304,4,2,1,85,0,1
37726,-86.9565217391304,4,2,2,85,0,1
37744,-86.9565217391304,4,2,1,85,0,1
38009,-86.9565217391304,4,2,2,85,0,1
38027,-86.9565217391304,4,2,1,85,0,1
38292,-86.9565217391304,4,2,2,85,0,1
38310,-86.9565217391304,4,2,1,85,0,1
38858,-86.9565217391304,4,2,2,85,0,1
38876,-86.9565217391304,4,2,1,85,0,1
39141,-86.9565217391304,4,2,3,85,0,1
39159,-86.9565217391304,4,2,1,85,0,1
39990,-86.9565217391304,4,2,3,85,0,1
40008,-86.9565217391304,4,2,1,85,0,1
40273,-86.9565217391304,4,2,3,85,0,1
40291,-86.9565217391304,4,2,1,85,0,1
40556,-86.9565217391304,4,2,3,85,0,1
40574,-86.9565217391304,4,2,1,85,0,1
40839,-86.9565217391304,4,2,3,85,0,1
40857,-86.9565217391304,4,2,1,85,0,1
41122,-86.9565217391304,4,2,3,85,0,1
41140,-86.9565217391304,4,2,1,85,0,1
41405,-86.9565217391304,4,2,3,85,0,1
41423,-86.9565217391304,4,2,1,85,0,1
41688,-86.9565217391304,4,2,3,85,0,1
41706,-86.9565217391304,4,2,1,85,0,1
41971,-86.9565217391304,4,2,3,85,0,1
41989,-86.9565217391304,4,2,1,85,0,1
42254,-86.9565217391304,4,2,3,85,0,1
42272,-86.9565217391304,4,2,1,85,0,1
42537,-86.9565217391304,4,2,3,85,0,1
42555,-86.9565217391304,4,2,1,85,0,1
42820,-86.9565217391304,4,2,3,85,0,1
42838,-86.9565217391304,4,2,1,85,0,1
43103,-86.9565217391304,4,2,3,85,0,1
43121,-86.9565217391304,4,2,1,85,0,1
43386,-86.9565217391304,4,2,3,85,0,1
43404,-86.9565217391304,4,2,1,85,0,1
43669,-86.9565217391304,4,2,3,85,0,1
43687,-86.9565217391304,4,2,1,85,0,1
43952,-86.9565217391304,4,2,3,85,0,1
43970,-86.9565217391304,4,2,1,85,0,1
44518,-86.9565217391304,4,2,3,85,0,1
44536,-86.9565217391304,4,2,1,85,0,1
44801,-86.9565217391304,4,2,3,85,0,1
44819,-86.9565217391304,4,2,1,85,0,1
45084,-86.9565217391304,4,2,3,85,0,1
45102,-86.9565217391304,4,2,1,85,0,1
45368,-86.9565217391304,4,2,3,85,0,1
45386,-86.9565217391304,4,2,1,85,0,1
45651,-86.9565217391304,4,2,3,85,0,1
45669,-86.9565217391304,4,2,1,85,0,1
46500,-86.9565217391304,4,2,1,85,0,0
48339,-86.9565217391304,4,2,1,65,0,0
48764,-125,4,2,1,75,0,0
51028,-100,4,2,1,75,0,0
51594,-100,4,2,3,75,0,0
51612,-100,4,2,1,75,0,0
51877,-100,4,2,3,75,0,0
51895,-100,4,2,1,75,0,0
52160,-100,4,2,3,75,0,0
52178,-100,4,2,1,75,0,0
52443,-100,4,2,3,75,0,0
52461,-100,4,2,1,75,0,0
52726,-100,4,2,3,75,0,0
52744,-100,4,2,1,75,0,0
53009,-100,4,2,3,75,0,0
53027,-100,4,2,1,75,0,0
53292,-100,4,2,3,75,0,0
53310,-100,4,2,1,75,0,0
53575,-100,4,2,3,75,0,0
53593,-100,4,2,1,75,0,0
53858,-100,4,2,3,75,0,0
53876,-100,4,2,1,75,0,0
54141,-100,4,2,3,75,0,0
54159,-100,4,2,1,75,0,0
54424,-100,4,2,3,75,0,0
54442,-100,4,2,1,75,0,0
55839,-100,4,2,3,75,0,0
55857,-100,4,2,1,75,0,0
56122,-100,4,2,3,75,0,0
56140,-100,4,2,1,75,0,0
56405,-100,4,2,3,75,0,0
56423,-100,4,2,1,75,0,0
56688,-100,4,2,3,75,0,0
56706,-100,4,2,1,75,0,0
56971,-100,4,2,3,75,0,0
56989,-100,4,2,1,75,0,0
57254,-100,4,2,3,75,0,0
57272,-100,4,2,1,75,0,0
57537,-100,4,2,3,75,0,0
57555,-100,4,2,1,75,0,0
57820,-100,4,2,3,75,0,0
57838,-100,4,2,1,75,0,0
58103,-100,4,2,3,75,0,0
58121,-100,4,2,1,75,0,0
58386,-100,4,2,3,75,0,0
58404,-100,4,2,1,75,0,0
58811,-500,4,2,1,75,0,0
61217,-125,4,2,1,75,0,0
62278,-125,4,2,1,75,0,0
62349,-100,4,2,1,75,0,0
62632,-100,4,2,3,75,0,0
62650,-100,4,2,1,75,0,0
62915,-100,4,2,3,75,0,0
62933,-100,4,2,1,75,0,0
63198,-100,4,2,3,75,0,0
63216,-100,4,2,1,75,0,0
63481,-100,4,2,3,75,0,0
63499,-100,4,2,1,75,0,0
63764,-100,4,2,3,75,0,0
63782,-100,4,2,1,75,0,0
64047,-100,4,2,3,75,0,0
64065,-100,4,2,1,75,0,0
64330,-100,4,2,3,75,0,0
64348,-100,4,2,1,75,0,0
64613,-100,4,2,3,75,0,0
64631,-100,4,2,1,75,0,0
64896,-100,4,2,3,75,0,0
64914,-100,4,2,1,75,0,0
65179,-100,4,2,3,75,0,0
65197,-100,4,2,1,75,0,0
65462,-100,4,2,3,75,0,0
65480,-100,4,2,1,75,0,0
65745,-100,4,2,3,75,0,0
65763,-100,4,2,1,75,0,0
67160,-100,4,2,2,75,0,0
67178,-100,4,2,1,75,0,0
67443,-100,4,2,2,75,0,0
67461,-100,4,2,1,75,0,0
67726,-100,4,2,2,75,0,0
67744,-100,4,2,1,75,0,0
68009,-100,4,2,2,75,0,0
68027,-100,4,2,1,75,0,0
68292,-100,4,2,2,75,0,0
68310,-100,4,2,1,75,0,0
68575,-100,4,2,2,75,0,0
68593,-100,4,2,1,75,0,0
68858,-100,4,2,2,75,0,0
68876,-100,4,2,1,75,0,0
69141,-100,4,2,2,75,0,0
69159,-100,4,2,1,75,0,0
71405,-86.9565217391304,4,2,1,85,0,1
71971,-86.9565217391304,4,2,3,85,0,1
71989,-86.9565217391304,4,2,1,85,0,1
72254,-86.9565217391304,4,2,3,85,0,1
72272,-86.9565217391304,4,2,1,85,0,1
72537,-86.9565217391304,4,2,3,85,0,1
72555,-86.9565217391304,4,2,1,85,0,1
72820,-86.9565217391304,4,2,3,85,0,1
72838,-86.9565217391304,4,2,1,85,0,1
73103,-86.9565217391304,4,2,3,85,0,1
73121,-86.9565217391304,4,2,1,85,0,1
73386,-86.9565217391304,4,2,3,85,0,1
73404,-86.9565217391304,4,2,1,85,0,1
73669,-86.9565217391304,4,2,3,85,0,1
73687,-86.9565217391304,4,2,1,85,0,1
73952,-86.9565217391304,4,2,3,85,0,1
73970,-86.9565217391304,4,2,1,85,0,1
74235,-86.9565217391304,4,2,3,85,0,1
74253,-86.9565217391304,4,2,1,85,0,1
74518,-86.9565217391304,4,2,3,85,0,1
74536,-86.9565217391304,4,2,1,85,0,1
74801,-86.9565217391304,4,2,3,85,0,1
74819,-86.9565217391304,4,2,1,85,0,1
75084,-86.9565217391304,4,2,3,85,0,1
75102,-86.9565217391304,4,2,1,85,0,1
75367,-86.9565217391304,4,2,3,85,0,1
75385,-86.9565217391304,4,2,1,85,0,1
75650,-86.9565217391304,4,2,3,85,0,1
75668,-86.9565217391304,4,2,1,85,0,1
76216,-86.9565217391304,4,2,3,85,0,1
76234,-86.9565217391304,4,2,1,85,0,1
76499,-86.9565217391304,4,2,3,85,0,1
76517,-86.9565217391304,4,2,1,85,0,1
76782,-86.9565217391304,4,2,3,85,0,1
76800,-86.9565217391304,4,2,1,85,0,1
77065,-86.9565217391304,4,2,3,85,0,1
77083,-86.9565217391304,4,2,1,85,0,1
77348,-86.9565217391304,4,2,3,85,0,1
77366,-86.9565217391304,4,2,1,85,0,1
77631,-86.9565217391304,4,2,3,85,0,1
77649,-86.9565217391304,4,2,1,85,0,1
77914,-86.9565217391304,4,2,3,85,0,1
77932,-86.9565217391304,4,2,1,85,0,1
78480,-86.9565217391304,4,2,2,85,0,1
78498,-86.9565217391304,4,2,1,85,0,1
78763,-86.9565217391304,4,2,2,85,0,1
78781,-86.9565217391304,4,2,1,85,0,1
79046,-86.9565217391304,4,2,2,85,0,1
79064,-86.9565217391304,4,2,1,85,0,1
79612,-86.9565217391304,4,2,2,85,0,1
79630,-86.9565217391304,4,2,1,85,0,1
79895,-86.9565217391304,4,2,3,85,0,1
79913,-86.9565217391304,4,2,1,85,0,1
80744,-86.9565217391304,4,2,3,85,0,1
80762,-86.9565217391304,4,2,1,85,0,1
81027,-86.9565217391304,4,2,3,85,0,1
81045,-86.9565217391304,4,2,1,85,0,1
81310,-86.9565217391304,4,2,3,85,0,1
81328,-86.9565217391304,4,2,1,85,0,1
81593,-86.9565217391304,4,2,3,85,0,1
81611,-86.9565217391304,4,2,1,85,0,1
81876,-86.9565217391304,4,2,3,85,0,1
81894,-86.9565217391304,4,2,1,85,0,1
82159,-86.9565217391304,4,2,3,85,0,1
82177,-86.9565217391304,4,2,1,85,0,1
82442,-86.9565217391304,4,2,3,85,0,1
82460,-86.9565217391304,4,2,1,85,0,1
82725,-86.9565217391304,4,2,3,85,0,1
82743,-86.9565217391304,4,2,1,85,0,1
83008,-86.9565217391304,4,2,3,85,0,1
83026,-86.9565217391304,4,2,1,85,0,1
83291,-86.9565217391304,4,2,3,85,0,1
83309,-86.9565217391304,4,2,1,85,0,1
83574,-86.9565217391304,4,2,3,85,0,1
83592,-86.9565217391304,4,2,1,85,0,1
83857,-86.9565217391304,4,2,3,85,0,1
83875,-86.9565217391304,4,2,1,85,0,1
84140,-86.9565217391304,4,2,3,85,0,1
84158,-86.9565217391304,4,2,1,85,0,1
84423,-86.9565217391304,4,2,3,85,0,1
84441,-86.9565217391304,4,2,1,85,0,1
84706,-86.9565217391304,4,2,3,85,0,1
84724,-86.9565217391304,4,2,1,85,0,1
85272,-86.9565217391304,4,2,3,85,0,1
85290,-86.9565217391304,4,2,1,85,0,1
85555,-86.9565217391304,4,2,3,85,0,1
85573,-86.9565217391304,4,2,1,85,0,1
85838,-86.9565217391304,4,2,3,85,0,1
85856,-86.9565217391304,4,2,1,85,0,1
86122,-86.9565217391304,4,2,3,85,0,1
86140,-86.9565217391304,4,2,1,85,0,1
86405,-86.9565217391304,4,2,3,85,0,1
86423,-86.9565217391304,4,2,1,85,0,1
86688,-86.9565217391304,4,2,3,85,0,1
86706,-86.9565217391304,4,2,1,85,0,1
86971,-86.9565217391304,4,2,3,85,0,1
86989,-86.9565217391304,4,2,1,85,0,1
87254,-86.9565217391304,4,2,3,85,0,1
87272,-86.9565217391304,4,2,1,85,0,1
87820,-86.9565217391304,4,2,3,85,0,1
87838,-86.9565217391304,4,2,1,85,0,1
89518,-86.9565217391304,4,2,1,85,0,0
89801,-86.9565217391304,4,2,2,85,0,0
89819,-86.9565217391304,4,2,1,85,0,0
90084,-86.9565217391304,4,2,2,85,0,0
90102,-86.9565217391304,4,2,1,85,0,0
90368,-86.9565217391304,4,2,2,85,0,0
90386,-86.9565217391304,4,2,1,85,0,0
90651,-86.9565217391304,4,2,2,85,0,0
90669,-86.9565217391304,4,2,1,85,0,0
90934,-86.9565217391304,4,2,2,85,0,0
90952,-86.9565217391304,4,2,1,85,0,0
91217,-86.9565217391304,4,2,2,85,0,0
91235,-86.9565217391304,4,2,1,85,0,0
91500,-86.9565217391304,4,2,2,85,0,0
91518,-86.9565217391304,4,2,1,85,0,0
91783,-86.9565217391304,4,2,2,85,0,0
91801,-86.9565217391304,4,2,1,85,0,0
92066,-86.9565217391304,4,2,2,85,0,0
92084,-86.9565217391304,4,2,1,85,0,0
92349,-86.9565217391304,4,2,2,85,0,0
92367,-86.9565217391304,4,2,1,85,0,0
92632,-86.9565217391304,4,2,2,85,0,0
92650,-86.9565217391304,4,2,1,85,0,0
92915,-86.9565217391304,4,2,2,85,0,0
92933,-86.9565217391304,4,2,1,85,0,0
94330,-86.9565217391304,4,2,2,85,0,0
94348,-86.9565217391304,4,2,1,85,0,0
94613,-86.9565217391304,4,2,2,85,0,0
94631,-86.9565217391304,4,2,1,85,0,0
94896,-86.9565217391304,4,2,2,85,0,0
94914,-86.9565217391304,4,2,1,85,0,0
95179,-86.9565217391304,4,2,2,85,0,0
95197,-86.9565217391304,4,2,1,85,0,0
95462,-86.9565217391304,4,2,2,85,0,0
95480,-86.9565217391304,4,2,1,85,0,0
95745,-86.9565217391304,4,2,2,85,0,0
95763,-86.9565217391304,4,2,1,85,0,0
96028,-86.9565217391304,4,2,2,85,0,0
96046,-86.9565217391304,4,2,1,85,0,0
96311,-86.9565217391304,4,2,2,85,0,0
96329,-86.9565217391304,4,2,1,85,0,0
96594,-86.9565217391304,4,2,2,85,0,0
96612,-86.9565217391304,4,2,1,85,0,0
96877,-86.9565217391304,4,2,2,85,0,0
96895,-86.9565217391304,4,2,1,85,0,0
97160,-86.9565217391304,4,2,2,85,0,0
97178,-86.9565217391304,4,2,1,85,0,0
97443,-86.9565217391304,4,2,2,85,0,0
97461,-86.9565217391304,4,2,1,85,0,0
98858,-86.9565217391304,4,2,2,85,0,0
98876,-86.9565217391304,4,2,1,85,0,0
99141,-86.9565217391304,4,2,2,85,0,0
99159,-86.9565217391304,4,2,1,85,0,0
99424,-86.9565217391304,4,2,2,85,0,0
99442,-86.9565217391304,4,2,1,85,0,0
99707,-86.9565217391304,4,2,2,85,0,0
99725,-86.9565217391304,4,2,1,85,0,0
99990,-86.9565217391304,4,2,2,85,0,0
100008,-86.9565217391304,4,2,1,85,0,0
100273,-86.9565217391304,4,2,2,85,0,0
100291,-86.9565217391304,4,2,1,85,0,0
100556,-86.9565217391304,4,2,2,85,0,0
100574,-86.9565217391304,4,2,1,85,0,0
100839,-86.9565217391304,4,2,2,85,0,0
100857,-86.9565217391304,4,2,1,85,0,0
101122,-86.9565217391304,4,2,2,85,0,0
101140,-86.9565217391304,4,2,1,85,0,0
101405,-86.9565217391304,4,2,2,85,0,0
101423,-86.9565217391304,4,2,1,85,0,0
101688,-86.9565217391304,4,2,2,85,0,0
101706,-86.9565217391304,4,2,1,85,0,0
101971,-86.9565217391304,4,2,2,85,0,0
101989,-86.9565217391304,4,2,1,85,0,0
103386,-86.9565217391304,4,2,2,85,0,0
103404,-86.9565217391304,4,2,1,85,0,0
103669,-86.9565217391304,4,2,2,85,0,0
103687,-86.9565217391304,4,2,1,85,0,0
103952,-86.9565217391304,4,2,2,85,0,0
103970,-86.9565217391304,4,2,1,85,0,0
104235,-86.9565217391304,4,2,2,85,0,0
104253,-86.9565217391304,4,2,1,85,0,0
104518,-86.9565217391304,4,2,2,85,0,0
104536,-86.9565217391304,4,2,1,85,0,0
104801,-86.9565217391304,4,2,2,85,0,0
104819,-86.9565217391304,4,2,1,85,0,0
105084,-86.9565217391304,4,2,2,85,0,0
105102,-86.9565217391304,4,2,1,85,0,0
107632,-86.9565217391304,4,2,1,85,0,1
108198,-86.9565217391304,4,2,3,85,0,1
108216,-86.9565217391304,4,2,1,85,0,1
108481,-86.9565217391304,4,2,3,85,0,1
108499,-86.9565217391304,4,2,1,85,0,1
108764,-86.9565217391304,4,2,3,85,0,1
108782,-86.9565217391304,4,2,1,85,0,1
109047,-86.9565217391304,4,2,3,85,0,1
109065,-86.9565217391304,4,2,1,85,0,1
109330,-86.9565217391304,4,2,3,85,0,1
109348,-86.9565217391304,4,2,1,85,0,1
109613,-86.9565217391304,4,2,3,85,0,1
109631,-86.9565217391304,4,2,1,85,0,1
109896,-86.9565217391304,4,2,3,85,0,1
109914,-86.9565217391304,4,2,1,85,0,1
110179,-86.9565217391304,4,2,3,85,0,1
110197,-86.9565217391304,4,2,1,85,0,1
110462,-86.9565217391304,4,2,3,85,0,1
110480,-86.9565217391304,4,2,1,85,0,1
110745,-86.9565217391304,4,2,3,85,0,1
110763,-86.9565217391304,4,2,1,85,0,1
111028,-86.9565217391304,4,2,3,85,0,1
111046,-86.9565217391304,4,2,1,85,0,1
111311,-86.9565217391304,4,2,3,85,0,1
111329,-86.9565217391304,4,2,1,85,0,1
111594,-86.9565217391304,4,2,3,85,0,1
111612,-86.9565217391304,4,2,1,85,0,1
111877,-86.9565217391304,4,2,3,85,0,1
111895,-86.9565217391304,4,2,1,85,0,1
112443,-86.9565217391304,4,2,3,85,0,1
112461,-86.9565217391304,4,2,1,85,0,1
112726,-86.9565217391304,4,2,3,85,0,1
112744,-86.9565217391304,4,2,1,85,0,1
113009,-86.9565217391304,4,2,3,85,0,1
113027,-86.9565217391304,4,2,1,85,0,1
113292,-86.9565217391304,4,2,3,85,0,1
113310,-86.9565217391304,4,2,1,85,0,1
113575,-86.9565217391304,4,2,3,85,0,1
113593,-86.9565217391304,4,2,1,85,0,1
113858,-86.9565217391304,4,2,3,85,0,1
113876,-86.9565217391304,4,2,1,85,0,1
114141,-86.9565217391304,4,2,3,85,0,1
114159,-86.9565217391304,4,2,1,85,0,1
114707,-86.9565217391304,4,2,2,85,0,1
114725,-86.9565217391304,4,2,1,85,0,1
114990,-86.9565217391304,4,2,2,85,0,1
115008,-86.9565217391304,4,2,1,85,0,1
115273,-86.9565217391304,4,2,2,85,0,1
115291,-86.9565217391304,4,2,1,85,0,1
115839,-86.9565217391304,4,2,2,85,0,1
115857,-86.9565217391304,4,2,1,85,0,1
116122,-86.9565217391304,4,2,3,85,0,1
116140,-86.9565217391304,4,2,1,85,0,1
116971,-86.9565217391304,4,2,3,85,0,1
116989,-86.9565217391304,4,2,1,85,0,1
117254,-86.9565217391304,4,2,3,85,0,1
117272,-86.9565217391304,4,2,1,85,0,1
117537,-86.9565217391304,4,2,3,85,0,1
117555,-86.9565217391304,4,2,1,85,0,1
117820,-86.9565217391304,4,2,3,85,0,1
117838,-86.9565217391304,4,2,1,85,0,1
118103,-86.9565217391304,4,2,3,85,0,1
118121,-86.9565217391304,4,2,1,85,0,1
118386,-86.9565217391304,4,2,3,85,0,1
118404,-86.9565217391304,4,2,1,85,0,1
118669,-86.9565217391304,4,2,3,85,0,1
118687,-86.9565217391304,4,2,1,85,0,1
118952,-86.9565217391304,4,2,3,85,0,1
118970,-86.9565217391304,4,2,1,85,0,1
119235,-86.9565217391304,4,2,3,85,0,1
119253,-86.9565217391304,4,2,1,85,0,1
119518,-86.9565217391304,4,2,3,85,0,1
119536,-86.9565217391304,4,2,1,85,0,1
119801,-86.9565217391304,4,2,3,85,0,1
119819,-86.9565217391304,4,2,1,85,0,1
120084,-86.9565217391304,4,2,3,85,0,1
120102,-86.9565217391304,4,2,1,85,0,1
120367,-86.9565217391304,4,2,3,85,0,1
120385,-86.9565217391304,4,2,1,85,0,1
120650,-86.9565217391304,4,2,3,85,0,1
120668,-86.9565217391304,4,2,1,85,0,1
120933,-86.9565217391304,4,2,3,85,0,1
120951,-86.9565217391304,4,2,1,85,0,1
121499,-86.9565217391304,4,2,3,85,0,1
121517,-86.9565217391304,4,2,1,85,0,1
121782,-86.9565217391304,4,2,3,85,0,1
121800,-86.9565217391304,4,2,1,85,0,1
122065,-86.9565217391304,4,2,3,85,0,1
122083,-86.9565217391304,4,2,1,85,0,1
122349,-86.9565217391304,4,2,3,85,0,1
122367,-86.9565217391304,4,2,1,85,0,1
122632,-86.9565217391304,4,2,3,85,0,1
122650,-86.9565217391304,4,2,1,85,0,1
123481,-86.9565217391304,4,2,1,85,0,0
125320,-86.9565217391304,4,2,1,65,0,0
125745,-86.9565217391304,4,2,1,75,0,0

[Colours]
Combo1 : 164,164,164
Combo2 : 217,13,44
Combo3 : 165,217,9
Combo4 : 125,83,236

[HitObjects]
357,328,10273,5,6,1:2:0:0:
254,69,10698,5,6,1:2:0:0:
145,332,11122,5,6,1:2:0:0:
253,96,11547,5,6,1:2:0:0:
357,328,11971,5,6,1:2:0:0:
363,312,12254,5,8,0:3:0:0:
369,296,12537,6,0,L|277:303,2,80,6|2|8,1:2|0:0|0:0,0:0:0:0:
427,207,12962,2,0,L|519:214,1,80,2|0,0:0|1:2,0:0:0:0:
320,132,13245,1,2,1:2:0:0:
369,296,13386,1,8,0:0:0:0:
403,88,13528,6,0,P|351:43|258:66,1,160,2|2,0:0|0:0,0:0:0:0:
227,237,13952,1,10,0:0:0:0:
320,132,14094,1,0,0:0:0:0:
168,15,14235,2,0,L|181:112,1,80,2|0,1:2|1:2,0:0:0:0:
17,191,14518,1,10,0:0:0:0:
42,73,14660,1,2,0:0:0:0:
227,237,14801,6,0,L|137:229,1,80,2|0,1:2|0:0,0:0:0:0:
8,354,15084,2,0,L|98:346,1,80,10|0,0:0|0:0,0:0:0:0:
246,331,15368,1,2,1:2:0:0:
132,143,15509,1,2,1:2:0:0:
162,374,15651,1,8,0:0:0:0:
299,178,15792,6,0,P|262:232|332:236,1,160,2|0,0:0|1:2,0:0:0:0:
510,118,16217,5,12,0:0:0:0:
482,239,16358,1,0,1:2:0:0:
271,57,16500,5,12,0:0:0:0:
299,178,16641,1,0,1:2:0:0:
444,17,16783,5,12,0:0:0:0:
416,138,16924,1,0,0:0:0:0:
205,6,17066,6,0,P|187:62|197:93,2,80,6|2|8,1:2|0:0|0:0,0:0:0:0:
157,155,17490,2,0,B|93:149|93:149|69:175|69:175|-3:170,1,160,2|2,0:0|1:2,0:0:0:0:
75,66,17915,1,8,0:0:0:0:
127,258,18056,6,0,L|30:252,1,80,2|0,0:0|1:2,0:0:0:0:
220,333,18339,1,2,0:0:0:0:
157,155,18481,1,10,0:0:0:0:
77,357,18622,1,0,0:0:0:0:
237,226,18764,2,0,P|281:207|334:223,1,80,2|0,1:2|1:2,0:0:0:0:
338,355,19047,2,0,P|299:325|286:272,1,80,10|2,0:0|0:0,0:0:0:0:
157,155,19330,6,0,L|60:149,1,80,2|0,1:2|0:0,0:0:0:0:
243,71,19613,2,0,L|340:65,1,80,10|0,0:0|0:0,0:0:0:0:
237,226,19896,1,2,1:2:0:0:
155,39,20037,1,2,1:2:0:0:
224,240,20179,1,8,0:0:0:0:
387,33,20320,6,0,B|347:70|347:70|374:191,1,160,2|0,0:0|1:2,0:0:0:0:
480,343,20745,5,12,0:0:0:0:
504,197,20886,1,0,1:2:0:0:
332,384,21028,5,12,0:0:0:0:
308,238,21169,1,0,1:2:0:0:
446,122,21311,5,12,0:0:0:0:
422,268,21452,1,0,0:0:0:0:
272,41,21594,6,0,B|186:27|207:106|119:83,1,160,6|8,1:2|0:0,0:0:0:0:
0,57,22018,2,0,L|8:151,1,80,2|0,0:0|1:2,0:0:0:0:
208,192,22301,2,0,L|200:98,1,80,2|8,1:2|0:0,0:0:0:0:
0,296,22584,6,0,B|63:291|63:291|94:316|94:316|158:309,1,160,2|2,0:0|0:0,0:0:0:0:
208,192,23009,1,8,0:0:0:0:
283,358,23151,2,0,P|270:305|281:272,1,80,2|0,0:0|1:2,0:0:0:0:
426,271,23434,2,0,P|386:308|352:315,1,80,2|8,1:2|0:0,0:0:0:0:
208,192,23717,1,2,0:0:0:0:
375,94,23858,6,0,B|327:132|327:132|353:240,1,160,2|10,1:2|0:0,0:0:0:0:
477,161,24283,1,0,0:0:0:0:
321,18,24424,2,0,B|256:15|256:15|227:39|227:39|159:35,1,160,2|10,1:2|0:0,0:0:0:0:
7,1,24849,6,0,P|62:40|66:147,1,160,2|2,0:0|1:2,0:0:0:0:
44,354,25273,5,14,0:0:0:0:
3,196,25415,1,0,1:2:0:0:
207,377,25556,5,14,0:0:0:0:
248,219,25698,1,0,1:2:0:0:
115,296,25839,5,14,0:0:0:0:
74,138,25981,1,0,0:0:0:0:
269,309,26122,6,0,B|356:296|330:375|423:355,1,160,6|8,1:2|0:0,0:0:0:0:
512,317,26547,1,2,0:0:0:0:
383,172,26688,2,0,L|376:268,1,80,2|2,1:2|1:2,0:0:0:0:
508,210,26971,2,0,L|513:130,1,80,10|0,0:0|0:2,0:0:0:0:
423,30,27254,6,0,B|354:22|354:22|330:41|330:41|264:34,1,160,2|8,1:2|0:0,0:0:0:0:
200,116,27679,1,2,0:0:0:0:
67,30,27820,2,0,P|122:18|152:33,1,80,2|2,1:2|1:2,0:0:0:0:
148,194,28103,2,0,P|110:152|108:118,1,80,10|0,0:0|0:0,0:0:0:0:
306,127,28386,6,0,B|271:165|271:165|286:283,1,160,2|14,1:2|0:0,0:0:0:0:
241,356,28811,1,0,0:0:0:0:
446,348,28952,2,0,L|367:350,1,80,2|0,1:2|1:2,0:0:0:0:
474,259,29235,2,0,L|380:261,1,80,14|2,0:0|0:0,0:0:0:0:
241,356,29518,5,10,1:2:0:0:
139,155,29660,1,8,0:0:0:0:
28,361,29801,1,10,1:2:0:0:
295,259,29943,1,10,0:0:0:0:
40,117,30084,5,8,1:2:0:0:
134,354,30226,1,10,0:0:0:0:
239,91,30368,5,10,1:2:0:0:
140,342,30509,1,10,0:0:0:0:
0,29,30651,6,0,B|80:23|80:23|109:60|109:60|193:55,1,184.000003509522,6|14,1:2|0:0,0:0:0:0:
251,191,31075,1,2,0:0:0:0:
354,0,31217,1,2,1:2:0:0:
449,197,31359,1,0,1:2:0:0:
239,91,31500,1,10,0:0:0:0:
502,25,31641,6,0,L|498:133,1,92.0000017547608,2|0,0:0|1:2,0:0:0:0:
336,251,31924,2,0,L|340:143,1,92.0000017547608,2|8,0:0|0:0,0:0:0:0:
499,305,32207,2,0,B|401:289|422:383|308:350,1,184.000003509522,2|0,0:0|1:2,0:0:0:0:
251,176,32632,1,8,0:0:0:0:
204,383,32773,1,0,0:0:0:0:
34,285,32915,6,0,B|76:246|76:246|207:265,1,184.000003509522,2|10,1:2|0:0,0:0:0:0:
99,369,33339,1,2,0:0:0:0:
2,158,33481,2,0,L|1:49,1,92.0000017547608,2|0,1:2|1:2,0:0:0:0:
101,219,33764,1,10,0:0:0:0:
182,29,33905,6,0,P|240:13|279:35,1,92.0000017547608,2|0,0:0|1:2,0:0:0:0:
274,159,34188,2,0,P|216:175|177:153,1,92.0000017547608,2|8,0:0|0:0,0:0:0:0:
386,9,34471,2,0,P|351:86|397:188,1,184.000003509522,2|0,0:0|1:2,0:0:0:0:
474,49,34896,2,0,P|436:87|449:125,1,92.0000017547608,10|2,0:0|0:0,0:0:0:0:
495,271,35179,6,0,B|398:260|425:348|321:327,1,184.000003509522,6|10,1:2|0:0,0:0:0:0:
180,276,35603,2,0,P|241:301|168:337,1,184.000003509522,2|2,0:0|1:2,0:0:0:0:
4,178,36028,1,10,0:0:0:0:
73,371,36169,1,0,0:0:0:0:
242,188,36311,6,0,B|291:194|312:240|312:240|328:189|381:178,1,184.000003509522,2|10,1:2|0:0,0:0:0:0:
496,57,36735,2,0,B|461:62|445:93|445:93|486:144|468:217,1,184.000003509522,2|0,0:0|1:2,0:0:0:0:
396,6,37160,2,0,P|349:-8|302:12,1,92.0000017547608,10|0,0:0|0:0,0:0:0:0:
225,207,37443,6,0,L|221:103,1,92.0000017547608,6|0,1:2|0:0,0:0:0:0:
30,13,37726,2,0,L|34:117,1,92.0000017547608,10|0,0:0|0:0,0:0:0:0:
266,1,38009,1,2,1:2:0:0:
142,195,38151,1,0,1:2:0:0:
15,0,38292,1,10,0:0:0:0:
0,279,38434,6,0,B|72:271|72:271|106:301|106:301|196:292,1,184.000003509522,6|2,1:2|1:2,0:0:0:0:
306,128,38858,2,0,L|310:232,1,92.0000017547608,8|2,0:0|0:0,0:0:0:0:
491,352,39141,5,2,1:2:0:0:
238,333,39283,1,8,0:0:0:0:
463,153,39424,5,10,0:0:0:0:
346,384,39566,1,8,0:0:0:0:
194,87,39707,6,0,B|101:75|116:162|19:137,1,184.000003509522,6|10,1:2|0:0,0:0:0:0:
98,13,40132,1,2,0:0:0:0:
201,226,40273,1,2,1:2:0:0:
87,0,40415,1,0,1:2:0:0:
0,257,40556,1,10,0:0:0:0:
227,15,40698,6,0,P|276:2|322:18,1,92.0000017547608,2|0,0:0|1:2,0:0:0:0:
317,181,40981,2,0,P|281:145|272:97,1,92.0000017547608,2|8,0:0|0:0,0:0:0:0:
475,101,41264,2,0,P|396:106|457:46,1,184.000003509522,2|0,0:0|1:2,0:0:0:0:
512,236,41688,1,8,0:0:0:0:
427,40,41830,1,0,0:0:0:0:
326,267,41971,6,0,B|254:263|254:263|229:291|229:291|140:286,1,184.000003509522,2|10,1:2|0:0,0:0:0:0:
70,364,42396,1,2,0:0:0:0:
12,156,42537,2,0,L|8:266,1,92.0000017547608,2|0,1:2|1:2,0:0:0:0:
70,364,42820,1,10,0:0:0:0:
106,111,42962,6,0,P|148:97|196:114,1,92.0000017547608,2|0,0:0|1:2,0:0:0:0:
193,278,43245,2,0,P|159:248|150:198,1,92.0000017547608,2|8,0:0|0:0,0:0:0:0:
235,12,43528,2,0,B|274:54|274:54|408:37,1,184.000003509522,2|0,0:0|1:2,0:0:0:0:
507,221,43952,1,10,0:0:0:0:
413,14,44094,1,2,0:0:0:0:
306,182,44235,6,0,B|379:173|379:173|415:206|415:206|501:198,1,184.000003509522,6|10,1:2|0:0,0:0:0:0:
351,293,44660,2,0,P|336:350|411:313,1,184.000003509522,2|2,0:0|1:2,0:0:0:0:
293,158,45084,1,8,0:0:0:0:
219,362,45226,1,2,0:0:0:0:
53,202,45368,6,0,B|90:204|105:233|105:233|79:368,1,184.000003509522,2|10,1:2|0:0,0:0:0:0:
19,117,45792,2,0,B|122:85|99:178|201:142,1,184.000003509522,2|2,1:2|1:2,0:0:0:0:
270,26,46217,1,10,0:0:0:0:
192,240,46358,1,2,1:2:0:0:
116,7,46500,5,10,0:0:0:0:
364,99,46641,1,2,1:2:0:0:
372,120,46924,5,10,0:3:0:0:
94,13,47065,1,10,0:3:0:0:
286,278,47349,5,10,0:0:0:0:
382,13,47490,1,2,1:2:0:0:
401,1,47773,5,10,0:0:0:0:
293,300,47915,1,10,0:0:0:0:
240,114,48056,1,10,0:0:0:0:
142,354,48764,5,6,1:2:0:0:
391,191,49188,5,6,1:2:0:0:
135,70,49613,5,6,1:2:0:0:
372,195,50037,5,6,1:2:0:0:
126,364,50320,5,8,0:0:0:0:
126,364,50391,1,8,0:0:0:0:
126,364,50462,2,0,L|120:284,1,64,10|8,1:2|0:0,0:0:0:0:
30,276,50745,2,0,L|36:356,1,64,8|8,1:2|0:0,0:0:0:0:
149,182,51028,5,6,1:2:0:0:
287,345,51169,2,0,L|207:351,1,80,2|12,0:0|0:0,0:0:0:0:
234,247,51452,2,0,L|313:240,1,80,2|0,0:0|1:2,0:0:0:0:
482,160,51735,1,2,1:2:0:0:
429,346,51877,1,8,0:0:0:0:
347,128,52018,6,0,P|398:175|486:156,1,160,2|2,0:0|0:0,0:0:0:0:
431,57,52443,1,10,0:0:0:0:
392,264,52584,1,0,0:0:0:0:
242,106,52726,2,0,L|153:104,1,80,2|0,1:2|1:2,0:0:0:0:
15,9,53009,1,10,0:0:0:0:
65,175,53151,1,2,0:0:0:0:
213,19,53292,6,0,P|259:13|295:33,1,80,2|0,1:2|0:0,0:0:0:0:
273,174,53575,2,0,P|244:137|244:95,1,80,10|0,0:0|0:0,0:0:0:0:
465,31,53858,1,2,1:2:0:0:
324,108,54000,1,2,1:2:0:0:
466,9,54141,1,8,0:0:0:0:
496,236,54283,6,0,B|413:215|426:303|342:271,1,160,2|0,0:0|1:2,0:0:0:0:
273,174,54707,5,12,0:0:0:0:
253,360,54849,1,0,1:2:0:0:
33,189,54990,5,12,0:0:0:0:
53,375,55132,1,0,1:2:0:0:
207,125,55273,5,12,0:0:0:0:
188,312,55415,1,0,0:0:0:0:
18,71,55556,5,6,1:2:0:0:
185,204,55698,2,0,P|239:203|267:177,1,80,2|8,0:0|0:0,0:0:0:0:
231,54,55981,2,0,P|204:101|212:138,1,80,2|0,0:0|1:2,0:0:0:0:
339,166,56264,2,0,P|311:119|275:107,1,80,2|8,1:2|0:0,0:0:0:0:
93,125,56547,6,0,B|45:156|45:156|70:272,1,160,2|2,0:0|0:0,0:0:0:0:
172,355,56971,1,10,0:0:0:0:
258,189,57113,1,0,0:0:0:0:
418,363,57254,2,0,L|330:360,1,80,2|0,1:2|1:2,0:0:0:0:
215,272,57537,2,0,L|303:275,1,80,10|2,0:0|0:0,0:0:0:0:
494,218,57820,6,0,P|507:256|489:298,1,80,2|2,1:2|1:2,0:0:0:0:
423,169,58103,2,0,P|449:138|494:133,1,80,10|0,0:0|0:0,0:0:0:0:
388,282,58386,1,2,1:2:0:0:
304,95,58528,1,2,1:2:0:0:
376,297,58669,1,8,0:0:0:0:
488,30,58811,6,0,B|444:43|391:26|391:26|358:71|358:71|309:47|256:66,1,256,6|8,1:2|0:0,0:0:0:0:
166,13,61146,1,8,0:0:0:0:
166,13,61217,5,8,0:0:0:0:
96,203,61358,1,8,0:0:0:0:
3,15,61500,1,8,0:3:0:0:
212,126,61641,1,10,0:3:0:0:
0,283,61783,1,6,0:3:0:0:
102,74,61924,1,4,0:3:0:0:
187,274,62066,2,0,P|234:256|279:281,1,96,2|0,1:2|0:0,0:0:0:0:
293,299,62349,6,0,L|299:206,1,80,6|0,1:2|0:0,0:0:0:0:
306,112,62632,1,8,0:0:0:0:
374,345,62773,2,0,L|380:252,1,80,2|0,0:0|1:2,0:0:0:0:
507,192,63056,2,0,L|501:285,1,80,2|8,1:2|0:0,0:0:0:0:
464,60,63339,6,0,B|432:102|432:102|313:94,1,160,2|2,0:0|0:0,0:0:0:0:
261,8,63764,1,8,0:0:0:0:
183,166,63905,2,0,P|141:178|100:161,1,80,2|0,0:0|1:2,0:0:0:0:
106,34,64188,2,0,P|147:21|188:38,1,80,2|8,1:2|0:0,0:0:0:0:
24,103,64471,1,2,0:0:0:0:
167,269,64613,6,0,B|106:266|106:266|78:293|78:293|-3:289,1,160,2|10,1:2|0:0,0:0:0:0:
108,167,65037,1,0,0:0:0:0:
195,359,65179,2,0,B|134:356|134:356|106:383|106:383|25:379,1,160,2|10,1:2|0:0,0:0:0:0:
303,186,65603,6,0,B|261:219|261:219|282:331,1,160,2|2,0:0|1:2,0:0:0:0:
502,360,66028,5,14,0:0:0:0:
280,323,66169,1,0,1:2:0:0:
460,262,66311,5,14,0:0:0:0:
238,225,66452,1,0,1:2:0:0:
502,139,66594,5,14,0:0:0:0:
384,383,66735,1,0,0:0:0:0:
243,115,66877,6,0,B|178:109|178:109|153:138|153:138|84:132,1,160,6|8,1:2|0:0,0:0:0:0:
17,27,67301,1,2,0:0:0:0:
7,203,67443,2,0,L|2:301,1,80,2|2,1:2|1:2,0:0:0:0:
103,323,67726,2,0,L|108:225,1,80,10|0,0:0|0:2,0:0:0:0:
117,28,68009,6,0,L|287:43,1,160,2|8,1:2|0:0,0:0:0:0:
335,132,68434,1,2,0:0:0:0:
484,6,68575,2,0,L|475:104,1,80,2|2,1:2|1:2,0:0:0:0:
351,145,68858,2,0,L|360:47,1,80,10|0,0:0|0:0,0:0:0:0:
483,203,69141,6,0,B|402:193|423:274|315:241,1,160,2|14,1:2|0:0,0:0:0:0:
268,181,69566,1,0,0:0:0:0:
252,362,69707,2,0,L|257:270,1,80,2|0,1:2|1:2,0:0:0:0:
161,339,69990,2,0,L|166:247,1,80,14|2,0:0|0:0,0:0:0:0:
15,378,70273,5,10,1:2:0:0:
184,237,70415,1,8,0:0:0:0:
8,117,70556,1,10,1:2:0:0:
77,300,70698,1,10,0:0:0:0:
226,79,70839,5,8,1:2:0:0:
0,218,70981,1,10,0:0:0:0:
302,254,71122,5,10,1:2:0:0:
99,120,71264,1,10,0:0:0:0:
349,2,71405,6,0,B|298:43|298:43|323:161,1,184.000003509522,6|14,1:2|0:0,0:0:0:0:
432,299,71830,1,2,0:0:0:0:
494,96,71971,1,2,1:2:0:0:
512,373,72113,1,0,1:2:0:0:
430,160,72254,1,10,0:0:0:0:
342,356,72396,6,0,L|244:351,1,92.0000017547608,2|0,0:0|1:2,0:0:0:0:
228,180,72679,2,0,L|326:185,1,92.0000017547608,2|8,0:0|0:0,0:0:0:0:
120,378,72962,2,0,B|113:309|113:309|138:281|138:281|130:194,1,184.000003509522,2|0,0:0|1:2,0:0:0:0:
0,74,73386,1,8,0:0:0:0:
55,253,73528,1,0,0:0:0:0:
139,30,73669,6,0,B|240:10|209:103|321:66,1,184.000003509522,2|10,1:2|0:0,0:0:0:0:
407,0,74094,1,2,0:0:0:0:
512,139,74235,2,0,L|505:253,1,92.0000017547608,2|0,1:2|1:2,0:0:0:0:
492,364,74518,1,10,0:0:0:0:
395,185,74660,6,0,P|345:166|297:184,1,92.0000017547608,2|0,0:0|1:2,0:0:0:0:
296,322,74943,2,0,P|337:288|345:237,1,92.0000017547608,2|8,0:0|0:0,0:0:0:0:
259,80,75226,2,0,B|231:124|231:124|91:117,1,184.000003509522,2|0,0:0|1:2,0:0:0:0:
179,30,75651,2,0,L|81:26,1,92.0000017547608,10|2,0:0|0:0,0:0:0:0:
0,184,75934,6,0,B|12:252|12:252|-6:284|-6:284|8:363,1,184.000003509522,6|10,1:2|0:0,0:0:0:0:
155,282,76358,2,0,P|86:312|158:340,1,184.000003509522,2|2,0:0|1:2,0:0:0:0:
305,187,76783,1,10,0:0:0:0:
243,365,76924,1,0,0:0:0:0:
451,224,77066,6,0,B|358:218|377:318|261:273,1,184.000003509522,2|10,1:2|0:0,0:0:0:0:
134,130,77490,2,0,P|187:174|179:297,1,184.000003509522,2|0,0:0|1:2,0:0:0:0:
14,241,77915,2,0,L|7:135,1,92.0000017547608,10|0,0:0|0:0,0:0:0:0:
127,18,78198,6,0,P|176:4|223:32,1,92.0000017547608,6|0,1:2|0:0,0:0:0:0:
369,156,78481,2,0,P|320:170|273:142,1,92.0000017547608,10|0,0:0|0:0,0:0:0:0:
412,25,78764,1,2,1:2:0:0:
509,225,78905,1,0,1:2:0:0:
399,12,79047,1,10,0:0:0:0:
328,266,79188,6,0,B|297:306|297:306|154:302,1,184.000003509522,6|2,1:2|1:2,0:0:0:0:
0,369,79613,2,0,P|55:348|69:313,1,92.0000017547608,8|2,0:0|0:0,0:0:0:0:
43,157,79896,5,2,1:2:0:0:
161,383,80037,1,8,0:0:0:0:
203,100,80179,5,10,0:0:0:0:
68,321,80320,1,8,0:0:0:0:
0,33,80462,6,0,P|74:83|159:30,1,184.000003509522,6|10,1:2|0:0,0:0:0:0:
1,234,80886,1,2,0:0:0:0:
80,0,81028,1,2,1:2:0:0:
239,214,81169,1,0,1:2:0:0:
37,114,81311,1,10,0:0:0:0:
267,11,81452,6,0,L|371:7,1,92.0000017547608,2|0,0:0|1:2,0:0:0:0:
399,163,81735,2,0,L|295:167,1,92.0000017547608,2|8,0:0|0:0,0:0:0:0:
478,25,82018,2,0,B|528:61|528:61|511:193,1,184.000003509522,2|0,0:0|1:2,0:0:0:0:
301,249,82443,1,8,0:0:0:0:
403,73,82584,1,0,0:0:0:0:
512,344,82726,6,0,B|485:301|485:301|348:312,1,184.000003509522,2|10,1:2|0:0,0:0:0:0:
270,380,83151,1,2,0:0:0:0:
201,185,83292,2,0,L|209:301,1,92.0000017547608,2|0,1:2|1:2,0:0:0:0:
270,380,83575,1,10,0:0:0:0:
119,220,83717,6,0,P|68:205|27:230,1,92.0000017547608,2|0,0:0|1:2,0:0:0:0:
35,361,84000,2,0,P|73:324|72:276,1,92.0000017547608,2|8,0:0|0:0,0:0:0:0:
3,69,84283,2,0,B|103:50|64:135|180:108,1,184.000003509522,2|0,0:0|1:2,0:0:0:0:
311,4,84707,1,10,0:0:0:0:
223,207,84849,1,2,0:0:0:0:
334,23,84990,6,0,B|406:18|406:18|442:51|442:51|511:44,1,184.000003509522,6|10,1:2|0:0,0:0:0:0:
357,110,85415,2,0,P|345:170|422:129,1,184.000003509522,2|2,0:0|1:2,0:0:0:0:
223,207,85839,1,10,0:0:0:0:
426,142,85981,1,0,0:0:0:0:
354,348,86122,5,2,1:2:0:0:
253,113,86264,1,0,1:2:0:0:
490,230,86405,1,10,0:0:0:0:
255,315,86547,2,0,B|158:299|187:394|58:360,1,184.000003509522,2|2,0:0|1:2,0:0:0:0:
118,184,86971,1,10,0:0:0:0:
200,369,87113,1,0,0:0:0:0:
237,113,87254,5,2,1:2:0:0:
93,270,87396,2,0,L|81:165,1,92.0000017547608,2|12,1:2|0:0,0:0:0:0:
259,97,87679,5,2,0:0:0:0:
10,34,87821,2,0,L|-2:139,1,92.0000017547608,2|0,1:2|1:2,0:0:0:0:
206,251,88103,5,14,0:0:0:0:
296,14,88245,1,2,0:0:0:0:
411,244,88386,5,8,1:2:0:0:
259,97,88528,1,10,0:0:0:0:
258,349,88669,5,10,1:2:0:0:
378,140,88810,1,10,0:0:0:0:
123,205,88952,5,8,1:2:0:0:
390,342,89094,1,10,0:0:0:0:
246,75,89235,5,10,1:2:0:0:
118,341,89377,1,8,0:0:0:0:
17,41,89518,6,0,P|70:18|143:55,1,138.000002632141,6|0,1:2|0:0,0:0:0:0:
136,72,89801,2,0,P|76:40|13:63,1,138.000002632141,10|0,0:0|0:0,0:0:0:0:
7,193,90084,2,0,P|67:224|130:202,1,138.000002632141,2|0,1:2|0:0,0:0:0:0:
133,179,90368,2,0,P|70:202|11:171,1,138.000002632141,10|0,0:0|0:0,0:0:0:0:
233,26,90651,6,0,L|240:170,1,138.000002632141,2|0,1:2|0:0,0:0:0:0:
261,175,90934,2,0,L|254:31,1,138.000002632141,10|0,0:0|0:0,0:0:0:0:
390,12,91217,2,0,L|397:150,1,138.000002632141,2|0,1:2|0:0,0:0:0:0:
375,138,91500,2,0,L|369:1,1,138.000002632141,10|0,0:0|0:0,0:0:0:0:
500,237,91783,6,0,B|447:229|447:229|416:250|416:250|351:238,1,138.000002632141,2|0,1:2|0:0,0:0:0:0:
233,344,92066,2,0,B|286:336|286:336|317:357|317:357|382:345,1,138.000002632141,10|0,0:0|0:0,0:0:0:0:
235,185,92349,1,2,1:2:0:0:
148,378,92490,1,0,1:2:0:0:
0,135,92632,1,10,0:0:0:0:
0,135,92702,1,0,0:0:0:0:
0,135,92773,1,2,3:2:0:0:
39,312,92915,6,0,L|143:300,1,92.0000017547608,2|0,1:2|1:2,0:0:0:0:
326,195,93198,2,0,L|222:183,1,92.0000017547608,14|2,0:0|1:2,0:0:0:0:
108,40,93481,5,12,0:0:0:0:
202,263,93623,1,2,1:2:0:0:
120,22,93764,5,14,0:0:0:0:
17,227,93905,1,0,3:2:0:0:
271,56,94047,5,6,1:2:0:0:
308,29,94117,1,0,3:2:0:0:
353,23,94188,1,2,0:0:0:0:
396,37,94259,1,0,3:2:0:0:
428,69,94330,1,8,0:0:0:0:
425,114,94400,1,0,3:2:0:0:
423,160,94471,1,0,3:2:0:0:
420,206,94542,1,0,3:2:0:0:
418,252,94613,6,0,L|485:252,1,46.0000008773804,2|0,1:2|3:2,0:0:0:0:
293,351,94754,2,0,L|226:350,1,46.0000008773804,2|0,1:2|3:2,0:0:0:0:
428,266,94896,2,0,L|495:266,1,46.0000008773804,8|0,0:0|3:2,0:0:0:0:
308,338,95037,2,0,L|241:337,1,46.0000008773804,2|0,0:0|3:2,0:0:0:0:
80,369,95179,5,2,1:2:0:0:
44,339,95249,1,0,3:2:0:0:
26,298,95320,1,0,1:2:0:0:
29,252,95391,1,0,3:2:0:0:
53,213,95462,1,10,0:0:0:0:
88,183,95533,1,0,3:2:0:0:
106,142,95604,1,2,0:0:0:0:
103,96,95675,1,0,3:2:0:0:
79,57,95745,6,0,L|16:50,1,46.0000008773804,2|0,1:2|3:2,0:0:0:0:
186,137,95886,2,0,L|248:130,1,46.0000008773804,0|0,1:2|3:2,0:0:0:0:
74,39,96028,2,0,L|11:32,1,46.0000008773804,10|0,0:0|0:0,0:0:0:0:
195,152,96169,2,0,L|257:145,1,46.0000008773804
393,13,96311,6,0,P|371:56|382:110,1,92.0000017547608,0|0,1:2|0:0,0:0:0:0:
508,189,96523,1,0,0:0:0:0:
508,189,96594,2,0,P|465:167|411:178,1,92.0000017547608,10|2,0:0|0:0,0:0:0:0:
323,326,96877,2,0,L|320:235,1,92.0000017547608,0|0,1:2|1:2,0:0:0:0:
451,263,97160,2,0,L|455:355,1,92.0000017547608,10|0,0:0|3:2,0:0:0:0:
230,356,97443,6,0,L|129:352,1,92.0000017547608,2|2,1:2|1:2,0:0:0:0:
0,186,97726,5,14,0:0:0:0:
29,350,97868,1,2,1:2:0:0:
256,111,98009,5,14,0:0:0:0:
227,275,98151,1,0,1:2:0:0:
69,56,98292,5,12,0:0:0:0:
98,220,98434,1,0,0:0:0:0:
302,8,98575,6,0,B|377:3|377:3|409:28|409:28|493:21,1,184.000003509522,4|8,1:2|0:0,0:0:0:0:
367,112,99000,1,0,0:0:0:0:
512,273,99141,2,0,L|507:164,1,92.0000017547608,0|0,1:2|1:2,0:0:0:0:
367,112,99424,2,0,L|372:221,1,92.0000017547608,10|0,0:0|0:0,0:0:0:0:
476,22,99707,6,0,B|409:28|409:28|377:3|377:3|302:8,1,184.000003509522,0|10,1:2|0:0,0:0:0:0:
248,167,100132,1,0,0:0:0:0:
58,1,100273,2,0,L|63:104,1,92.0000017547608,0|0,1:2|1:2,0:0:0:0:
248,167,100556,2,0,L|243:64,1,92.0000017547608,8|0,0:0|0:0,0:0:0:0:
13,185,100839,6,0,P|61:166|110:189,1,92.0000017547608,2|0,1:2|3:2,0:0:0:0:
107,379,101122,2,0,P|67:346|62:291,1,92.0000017547608,10|0,0:0|3:2,0:0:0:0:
221,193,101405,2,0,P|212:243|167:275,1,92.0000017547608,2|0,1:2|1:2,0:0:0:0:
0,163,101688,2,0,P|48:144|97:167,1,92.0000017547608,10|0,0:0|3:2,0:0:0:0:
212,356,101971,6,0,L|312:349,1,92.0000017547608,2|0,1:2|1:2,0:0:0:0:
499,195,102254,5,14,0:0:0:0:
480,365,102395,1,0,1:2:0:0:
281,145,102537,5,14,0:0:0:0:
300,315,102678,1,0,1:2:0:0:
474,104,102820,5,14,0:0:0:0:
455,274,102961,1,0,0:0:0:0:
357,31,103103,5,6,1:2:0:0:
320,59,103173,1,0,3:2:0:0:
276,70,103244,1,0,3:2:0:0:
231,64,103315,1,0,3:2:0:0:
192,40,103386,1,8,0:0:0:0:
155,11,103457,1,0,3:2:0:0:
111,0,103528,1,0,3:2:0:0:
66,6,103599,1,0,3:2:0:0:
27,30,103669,5,2,1:2:0:0:
28,75,103739,1,0,3:2:0:0:
30,121,103810,1,0,1:2:0:0:
32,167,103881,1,0,3:2:0:0:
37,213,103952,2,0,L|40:279,3,46.0000008773804,10|0|0|0,0:0|3:2|3:2|3:2,0:0:0:0:
48,356,104235,5,2,1:2:0:0:
93,350,104305,1,0,3:2:0:0:
139,345,104376,1,0,1:2:0:0:
185,340,104447,1,2,0:0:0:0:
225,362,104518,1,8,0:0:0:0:
270,357,104588,1,0,3:2:0:0:
316,352,104659,1,2,0:0:0:0:
362,347,104730,1,0,3:2:0:0:
406,358,104801,6,0,L|398:253,1,92.0000017547608,2|0,1:2|1:2,0:0:0:0:
506,145,105084,2,0,L|514:250,1,92.0000017547608,10|0,0:0|3:2,0:0:0:0:
298,101,105368,5,6,1:2:0:0:
410,166,105509,1,8,0:0:0:0:
283,86,105651,5,8,0:0:0:0:
306,266,105792,1,10,0:0:0:0:
273,69,105934,5,4,1:2:0:0:
193,298,106075,1,10,0:0:0:0:
271,50,106217,5,10,1:2:0:0:
66,243,106358,1,8,0:0:0:0:
190,3,106500,5,6,1:2:0:0:
236,214,106641,1,8,0:0:0:0:
50,51,106783,5,8,0:0:0:0:
8,300,106924,1,8,0:0:0:0:
180,105,107066,5,8,0:0:0:0:
243,343,107207,1,10,0:0:0:0:
422,63,107349,5,10,0:0:0:0:
375,300,107490,1,10,0:0:0:0:
214,22,107632,6,0,P|143:24|88:118,1,184.000003509522,6|14,1:2|0:0,0:0:0:0:
236,214,108056,1,2,0:0:0:0:
26,320,108198,1,2,1:2:0:0:
163,154,108339,1,0,1:2:0:0:
233,360,108481,1,10,0:0:0:0:
369,190,108622,6,0,P|412:176|462:194,1,92.0000017547608,2|0,0:0|1:2,0:0:0:0:
456,344,108905,2,0,P|422:313|412:261,1,92.0000017547608,2|8,0:0|0:0,0:0:0:0:
504,53,109188,2,0,B|471:93|471:93|330:87,1,184.000003509522,2|0,0:0|1:2,0:0:0:0:
250,188,109613,1,8,0:0:0:0:
181,16,109754,1,0,0:0:0:0:
2,181,109896,6,0,B|69:177|69:177|107:219|107:219|197:213,1,184.000003509522,2|10,1:2|0:0,0:0:0:0:
107,75,110320,1,2,0:0:0:0:
21,269,110462,2,0,L|29:371,1,92.0000017547608,2|0,1:2|1:2,0:0:0:0:
102,168,110745,1,10,0:0:0:0:
182,349,110886,6,0,P|225:364|272:340,1,92.0000017547608,2|0,0:0|1:2,0:0:0:0:
265,226,111169,2,0,P|222:211|175:235,1,92.0000017547608,2|8,0:0|0:0,0:0:0:0:
412,369,111452,2,0,P|368:330|360:210,1,184.000003509522,2|0,0:0|1:2,0:0:0:0:
466,307,111877,2,0,P|426:268|434:232,1,92.0000017547608,10|2,0:0|0:0,0:0:0:0:
512,97,112160,6,0,B|464:99|444:155|444:155|426:101|354:99,1,184.000003509522,6|10,1:2|0:0,0:0:0:0:
279,168,112584,2,0,P|230:168|288:107,1,184.000003509522,2|2,0:0|1:2,0:0:0:0:
226,261,113009,1,10,0:0:0:0:
119,132,113151,1,0,0:0:0:0:
18,323,113292,6,0,B|84:314|84:314|117:348|117:348|200:338,1,184.000003509522,2|10,1:2|0:0,0:0:0:0:
35,217,113717,2,0,L|20:23,1,184.000003509522,2|0,0:0|1:2,0:0:0:0:
146,221,114141,1,10,0:0:0:0:
242,19,114283,1,0,0:0:0:0:
396,233,114424,6,0,P|352:260|304:250,1,92.0000017547608,6|0,1:2|0:0,0:0:0:0:
194,97,114707,2,0,P|239:121|254:168,1,92.0000017547608,10|0,0:0|0:0,0:0:0:0:
189,352,114990,2,0,P|187:300|220:263,1,92.0000017547608,2|0,1:2|1:2,0:0:0:0:
375,352,115273,1,10,0:0:0:0:
494,234,115415,6,0,B|499:186|459:152|459:152|496:121|490:66,1,184.000003509522,6|2,1:2|1:2,0:0:0:0:
319,23,115839,2,0,L|425:22,1,92.0000017547608,8|2,0:0|0:0,0:0:0:0:
352,244,116122,1,2,1:2:0:0:
206,63,116264,1,8,0:0:0:0:
120,297,116405,1,10,0:0:0:0:
343,149,116547,1,8,0:0:0:0:
73,51,116688,6,0,B|27:89|27:89|50:215,1,184.000003509522,6|10,1:2|0:0,0:0:0:0:
218,349,117113,1,2,0:0:0:0:
139,168,117254,1,2,1:2:0:0:
28,355,117396,1,0,1:2:0:0:
125,146,117537,1,10,0:0:0:0:
227,371,117679,6,0,L|328:367,1,92.0000017547608,2|0,0:0|1:2,0:0:0:0:
355,223,117962,2,0,L|254:227,1,92.0000017547608,2|8,0:0|0:0,0:0:0:0:
469,367,118245,2,0,B|454:302|454:302|484:268|484:268|469:180,1,184.000003509522,2|0,0:0|1:2,0:0:0:0:
359,10,118669,1,8,0:0:0:0:
512,80,118811,1,0,0:0:0:0:
317,137,118952,6,0,L|113:145,1,184.000003509522,2|10,1:2|0:0,0:0:0:0:
46,44,119377,1,2,0:0:0:0:
27,251,119518,2,0,L|19:139,1,92.0000017547608,2|0,1:2|1:2,0:0:0:0:
46,44,119801,1,10,0:0:0:0:
218,184,119943,6,0,L|226:296,1,92.0000017547608,2|0,0:0|1:2,0:0:0:0:
117,353,120226,2,0,L|109:241,1,92.0000017547608,2|8,0:0|0:0,0:0:0:0:
176,40,120509,2,0,L|379:31,1,184.000003509522,2|0,0:0|1:2,0:0:0:0:
494,188,120934,1,10,0:0:0:0:
376,17,121075,1,2,0:0:0:0:
324,272,121217,6,0,P|398:249|477:336,1,184.000003509522,6|10,1:2|0:0,0:0:0:0:
250,349,121641,2,0,P|205:367|156:346,1,92.0000017547608,2|0,0:0|1:2,0:0:0:0:
158,193,121924,2,0,P|196:222|202:275,1,92.0000017547608,2|8,1:2|0:0,0:0:0:0:
47,366,122207,1,2,0:0:0:0:
0,125,122349,6,0,B|53:126|72:174|72:174|85:117|156:107,1,184.000003509522,2|10,1:2|0:0,0:0:0:0:
276,10,122773,2,0,P|235:63|286:157,1,184.000003509522,2|2,1:2|1:2,0:0:0:0:
479,65,123198,1,10,0:0:0:0:
316,80,123339,1,2,1:2:0:0:
480,250,123481,5,10,0:0:0:0:
398,13,123622,1,2,1:2:0:0:
381,3,123905,5,10,0:3:0:0:
472,267,124047,1,2,0:3:0:0:
205,153,124330,5,10,0:0:0:0:
483,136,124471,1,2,1:2:0:0:
497,148,124754,5,10,0:0:0:0:
193,165,124896,1,10,0:0:0:0:
352,249,125037,1,10,0:0:0:0:
113,348,125745,5,6,1:2:0:0:
246,82,126169,5,6,1:2:0:0:
374,353,126594,5,6,1:2:0:0:
246,103,127018,5,6,1:2:0:0:
244,373,127443,6,0,L|244:315,1,46.0000008773804,6|0,1:2|0:0,0:0:0:0:
