osu file format v14

[General]
AudioFilename: audio.mp3
AudioLeadIn: 0
PreviewTime: 63788
Countdown: 0
SampleSet: Soft
StackLeniency: 0.7
Mode: 0
LetterboxInBreaks: 0
WidescreenStoryboard: 1

[Editor]
DistanceSpacing: 0.4
BeatDivisor: 4
GridSize: 32
TimelineZoom: 2.1

[Metadata]
Title:Chaos ga Kiwamaru (TV Size)
TitleUnicode:カオスが極まる (TV Size)
Artist:UNISON SQUARE GARDEN
ArtistUnicode:UNISON SQUARE GARDEN
Creator:Sajinn
Version:spoken's Insane
Source:ブルーロック
Tags:blue lock football anime rock jrock japanese rock j-rock soccer opening op basensorex kujinn reform pepekcz spokenaway male vocals vocalist
BeatmapID:3831528
BeatmapSetID:1863294

[Difficulty]
HPDrainRate:5
CircleSize:3.8
OverallDifficulty:8
ApproachRate:9
SliderMultiplier:1.8
SliderTickRate:1

[Events]
//Background and Video events
0,0,"1165712.jpg",0,0
//Break Periods
2,54834,60804
//Storyboard Layer 0 (Background)
//Storyboard Layer 1 (Fail)
//Storyboard Layer 2 (Pass)
//Storyboard Layer 3 (Foreground)
//Storyboard Layer 4 (Overlay)
//Storyboard Sound Samples

[TimingPoints]
481,307.692307692308,4,2,1,70,1,0
481,-90.9090909090909,4,2,1,70,0,0
634,-111.111111111111,4,2,1,70,0,0
788,-142.857142857143,4,2,1,70,0,0
942,-86.9565217391304,4,2,1,70,0,0
1404,-90.9090909090909,4,2,1,70,0,0
4634,-83.3333333333333,4,2,1,70,0,0
5250,-86.9565217391304,4,2,1,70,0,0
5557,-100,4,2,1,70,0,0
12019,-76.9230769230769,4,2,1,70,0,0
12327,-90.9090909090909,4,2,1,70,0,0
12634,-111.111111111111,4,2,1,70,0,0
12942,-111.111111111111,4,2,1,60,0,0
15096,-100,4,2,1,60,0,0
15404,-125,4,2,1,60,0,0
17711,-100,4,2,1,70,0,0
20019,-86.9565217391304,4,2,1,60,0,0
20327,-100,4,2,1,60,0,0
22327,-200,4,2,1,60,0,0
22634,-99.9999999999999,4,2,1,70,0,0
24327,-76.9230769230769,4,2,1,70,0,0
24634,-90.9090909090909,4,2,1,70,0,0
24942,-83.3333333333333,4,2,1,70,0,0
25250,-111.111111111111,4,2,1,60,0,0
27557,-95.2380952380952,4,2,1,60,0,0
27865,-111.111111111111,4,2,1,60,0,0
31250,-90.9090909090908,4,2,1,60,0,0
31557,-111.111111111111,4,2,1,60,0,0
32481,-90.9090909090908,4,2,1,60,0,0
32788,-142.857142857143,4,2,1,60,0,0
33096,-90.9090909090909,4,2,1,60,0,0
33404,-142.857142857143,4,2,1,60,0,0
33711,-111.111111111111,4,2,1,60,0,0
35557,-125,4,2,1,60,0,0
44327,-125,4,2,1,70,0,0
44634,-99.9999999999999,4,2,1,70,0,0
47096,-90.9090909090909,4,2,1,70,0,0
47711,-83.3333333333333,4,2,1,70,0,0
48327,-41.6666666666667,4,2,1,70,0,0
49557,-83.3333333333333,4,2,1,70,0,0
49865,-83.3333333333333,4,2,1,80,0,0
54634,-83.3333333333333,4,2,1,60,0,0
61404,-99.9999999999999,4,2,1,70,0,0
62788,-111.111111111111,4,2,1,70,0,0
63865,-99.9999999999999,4,2,1,90,0,0
64327,-76.9230769230769,4,2,1,90,0,1
64634,-83.3333333333333,4,2,1,90,0,1
69250,-76.9230769230769,4,2,1,90,0,1
69557,-83.3333333333333,4,2,1,90,0,1
74173,-76.9230769230769,4,2,1,90,0,1
74481,-83.3333333333333,4,2,1,90,0,1
83250,-76.9230769230769,4,2,1,90,0,1
84173,-125,4,2,1,60,0,0
87250,-125,4,2,1,70,0,0

[Colours]
Combo1 : 223,169,235
Combo2 : 138,247,111
Combo3 : 244,165,94
Combo4 : 140,228,244

[HitObjects]
109,96,481,6,0,L|118:42,1,49.5000015106202,10|0,0:0|0:0,0:0:0:0:
171,189,634,2,0,L|180:144,1,40.4999987640381,10|0,0:0|0:0,0:0:0:0:
230,274,788,2,0,L|239:236,1,31.4999990386963,10|0,0:0|0:0,0:0:0:0:
222,295,942,6,0,P|144:271|49:363,1,207.000003948212,6|8,1:2|3:0,0:0:0:0:
62,200,1404,2,0,P|12:170|16:123,1,99.0000030212403,8|2,3:0|1:2,0:0:0:0:
32,41,1711,2,0,P|43:22|68:-6,3,49.5000015106202,2|0|2|0,1:2|1:0|1:2|1:0,0:0:0:0:
155,30,2019,2,0,P|166:49|191:77,3,49.5000015106202,8|8|2|0,3:0|3:0|1:2|1:0,0:0:0:0:
287,25,2327,5,14,0:2:0:0:
250,130,2481,1,10,0:0:0:0:
213,234,2634,1,10,0:0:0:0:
386,180,2788,1,8,0:0:0:0:
405,273,2942,6,0,P|359:262|305:232,1,99.0000030212403,6|8,1:2|0:0,0:0:0:0:
301,232,3173,1,8,0:0:0:0:
301,232,3250,1,8,0:0:0:0:
442,105,3404,6,0,P|478:143|479:196,1,99.0000030212403,6|8,1:2|0:0,0:0:0:0:
478,211,3634,1,8,0:0:0:0:
478,211,3711,1,8,0:0:0:0:
437,380,3865,6,0,P|458:343|505:291,1,99.0000030212403,6|8,1:2|0:0,0:0:0:0:
512,292,4096,1,8,0:0:0:0:
512,292,4173,1,8,0:0:0:0:
386,180,4327,1,6,1:2:0:0:
231,309,4481,2,0,P|253:308|281:340,1,49.5000015106202,8|0,0:0|0:0,0:0:0:0:
329,384,4634,6,0,P|298:291|222:177,1,215.999993408203,6|8,1:2|0:0,0:0:0:0:
108,36,5096,6,0,P|99:28|113:35,1,53.9999983520508,8|0,3:0|0:0,0:0:0:0:
18,165,5250,2,0,B|55:120|32:64|32:64|62:120|132:121,1,207.000003948212,6|2,1:2|1:2,0:0:0:0:
155,250,5711,2,0,P|104:231|96:197,1,90,10|2,0:0|0:0,0:0:0:0:
286,70,6019,1,0,1:2:0:0:
207,87,6173,2,0,P|187:132|164:193,1,90,2|8,0:0|0:0,0:0:0:0:
367,232,6481,5,2,0:0:0:0:
367,232,6557,1,0,1:2:0:0:
367,232,6634,1,0,1:2:0:0:
218,302,6788,1,2,0:0:0:0:
272,222,6942,1,8,0:0:0:0:
341,383,7096,6,0,P|322:343|306:301,1,90,2|0,0:0|1:2,0:0:0:0:
203,154,7404,2,0,P|221:113|236:71,1,90,2|8,0:0|0:0,0:0:0:0:
510,95,7711,5,2,0:0:0:0:
510,95,7788,1,0,1:2:0:0:
510,95,7865,2,0,P|425:100|380:20,1,180,0|10,1:2|0:0,0:0:0:0:
344,150,8327,2,0,P|288:171|278:203,1,90,2|0,0:0|1:2,0:0:0:0:
489,214,8634,5,10,0:0:0:0:
439,148,8788,1,0,1:2:0:0:
364,237,8942,5,10,0:0:0:0:
414,303,9096,1,0,1:2:0:0:
271,361,9250,2,0,L|245:301,3,45,10|8|0|0,0:0|0:0|1:2|1:2,0:0:0:0:
153,299,9557,1,10,0:0:0:0:
153,299,9634,1,8,0:0:0:0:
153,299,9711,2,0,L|139:351,1,45,8|8,0:0|0:0,0:0:0:0:
57,287,9865,2,0,L|43:235,3,45,8|8|4|4,3:0|3:0|3:0|3:0,0:0:0:0:
178,190,10173,6,0,P|96:178|71:86,1,180,6|10,1:2|0:0,0:0:0:0:
220,16,10634,2,0,P|160:38|159:78,1,90,2|10,1:2|0:0,0:0:0:0:
161,78,10865,1,8,0:0:0:0:
161,78,10942,1,10,0:0:0:0:
391,145,11096,5,10,0:0:0:0:
286,198,11250,1,2,1:2:0:0:
296,80,11404,1,10,0:0:0:0:
387,265,11557,1,4,3:0:0:0:
387,265,11634,1,8,0:0:0:0:
387,265,11711,1,10,0:0:0:0:
387,265,11788,1,10,0:0:0:0:
387,265,11865,1,2,0:0:0:0:
300,279,12019,6,0,B|258:272|228:321|228:321|243:277|210:230,1,175.499991966248,6|0,1:2|0:0,0:0:0:0:
147,326,12327,2,0,P|227:340|285:407,1,148.50000453186,6|0,1:2|0:0,0:0:0:0:
372,240,12634,2,0,P|364:179|282:213,1,161.999995056153,6|0,1:2|1:2,0:0:0:0:
34,108,13096,5,10,0:0:0:0:
97,50,13250,2,0,P|110:27|91:48,1,80.9999975280763,2|8,0:0|0:0,0:0:0:0:
198,202,13557,1,2,0:0:0:0:
140,139,13711,2,0,P|117:126|138:145,1,80.9999975280763,10|2,0:0|0:0,0:0:0:0:
128,360,14019,5,10,0:0:0:0:
170,286,14173,1,0,1:2:0:0:
42,212,14327,5,8,0:0:0:0:
0,286,14481,1,2,1:0:0:0:
85,285,14634,5,2,0:0:0:0:
85,285,14788,1,2,0:0:0:0:
474,44,15096,6,0,P|388:33|331:118,1,180,6|2,1:2|1:2,0:0:0:0:
462,174,15557,2,0,P|432:133|416:101,1,72,10|0,0:0|0:0,0:0:0:0:
353,190,15865,1,2,1:2:0:0:
353,190,16019,1,0,1:2:0:0:
451,271,16173,1,10,0:0:0:0:
185,253,16481,5,2,1:2:0:0:
185,253,16634,2,0,P|198:271|182:253,1,72,2|8,1:2|0:0,0:0:0:0:
188,359,16942,2,0,P|247:273|288:231,1,144,2|2,0:0|1:2,0:0:0:0:
224,125,17404,1,10,0:0:0:0:
27,50,17711,5,6,1:2:0:0:
27,50,17865,1,10,0:0:0:0:
133,178,18019,2,0,P|129:128|96:98,1,90,2|8,1:2|0:0,0:0:0:0:
20,141,18250,1,8,0:0:0:0:
20,141,18327,2,0,P|24:191|57:221,1,90,10|10,0:0|0:0,0:0:0:0:
142,324,18634,1,2,1:2:0:0:
72,371,18788,2,0,P|27:335|45:281,1,90,10|8,0:0|0:0,0:0:0:0:
191,250,19096,6,0,P|212:259|242:278,3,45,10|8|8|8,0:0|0:0|0:0|0:0,0:0:0:0:
320,328,19404,1,10,0:0:0:0:
343,315,19481,1,8,0:0:0:0:
364,300,19558,2,0,P|359:271|347:245,1,45,8|8,0:0|3:0,0:0:0:0:
266,175,19711,2,0,P|275:157|296:133,3,45,8|8|8|8,3:0|3:0|3:0|3:0,0:0:0:0:
371,113,20019,6,0,P|254:87|154:46,1,207.000003948212,6|2,1:2|1:2,0:0:0:0:
395,27,20481,2,0,P|440:39|456:81,1,90,10|2,0:0|0:0,0:0:0:0:
404,214,20788,1,2,1:2:0:0:
404,214,20942,1,0,1:2:0:0:
497,168,21096,1,10,0:0:0:0:
299,376,21404,5,2,1:2:0:0:
299,376,21557,2,0,P|322:332|370:330,1,90,2|8,1:2|0:0,0:0:0:0:
475,346,21865,2,0,P|400:310|307:238,1,180,2|2,0:0|1:2,0:0:0:0:
191,96,22327,6,0,P|167:73|154:36,1,67.5,10|2,0:0|0:0,0:0:0:0:
233,29,22634,5,6,1:2:0:0:
117,142,22788,2,0,P|90:191|79:236,1,90,10|10,0:0|0:0,0:0:0:0:
159,360,23096,1,10,0:0:0:0:
159,360,23173,1,8,0:0:0:0:
159,360,23250,1,10,0:0:0:0:
322,252,23404,5,10,0:0:0:0:
242,311,23557,1,2,1:2:0:0:
158,257,23711,1,10,0:0:0:0:
258,144,23865,1,2,1:2:0:0:
258,144,23942,1,8,0:0:0:0:
258,144,24019,2,0,L|240:194,2,45,8|8|10,0:0|0:0|0:0,0:0:0:0:
404,292,24327,6,0,B|363:274|338:217|352:149|424:161|389:207,1,175.499991966248,6|0,1:2|0:0,0:0:0:0:
488,279,24634,2,0,P|424:313|365:373,1,148.50000453186,6|0,1:2|0:0,0:0:0:0:
490,187,24942,6,0,P|406:167|381:45,1,215.999993408203,6|2,1:2|0:0,0:0:0:0:
178,15,25404,2,0,P|219:54|258:66,1,80.9999975280763,8|2,0:0|0:0,0:0:0:0:
318,191,25711,1,0,1:0:0:0:
318,191,25865,1,2,0:0:0:0:
277,264,26019,2,0,P|239:227|245:189,1,80.9999975280763,10|2,0:0|0:0,0:0:0:0:
100,336,26327,6,0,P|40:350|7:382,1,80.9999975280763,2|2,1:2|0:0,0:0:0:0:
182,293,26634,1,10,0:0:0:0:
61,140,26788,1,2,0:0:0:0:
61,140,26865,1,2,0:0:0:0:
61,140,26942,2,0,P|90:198|118:272,1,121.499996292114,0|0,1:2|0:0,0:0:0:0:
174,145,27250,2,0,P|187:131|166:144,1,80.9999975280763,10|0,0:0|0:0,0:0:0:0:
409,277,27557,6,0,L|215:210,1,188.999994232178,2|10,1:2|0:0,0:0:0:0:
215,368,28019,2,0,P|256:342|262:312,1,80.9999975280763,2|2,0:0|1:2,0:0:0:0:
372,176,28327,5,2,0:0:0:0:
328,98,28481,1,10,0:0:0:0:
284,20,28634,1,2,0:0:0:0:
477,43,28788,6,0,P|421:90|412:102,1,80.9999975280763,2|2,1:2|0:0,0:0:0:0:
313,243,29096,1,10,0:0:0:0:
144,236,29250,1,2,0:0:0:0:
144,236,29327,1,2,0:0:0:0:
144,236,29404,2,0,P|184:192|259:201,1,121.499996292114,0|0,1:2|0:0,0:0:0:0:
238,275,29711,2,0,P|220:311|208:358,1,80.9999975280763,10|0,0:0|0:0,0:0:0:0:
388,314,30019,6,0,P|419:274|412:235,1,80.9999975280763,2|2,1:2|0:0,0:0:0:0:
329,87,30327,1,10,0:0:0:0:
436,61,30481,1,2,0:0:0:0:
436,61,30557,1,2,0:0:0:0:
436,61,30634,2,0,P|411:120|406:150,1,80.9999975280763,2|2,1:2|0:0,0:0:0:0:
242,191,30942,2,0,P|186:163|184:138,1,80.9999975280763,10|2,0:0|0:0,0:0:0:0:
14,43,31250,6,0,B|64:38|96:90|96:90|80:33|128:-9,1,198.000006042481,0|10,1:2|0:0,0:0:0:0:
33,131,31711,1,2,0:0:0:0:
33,131,31788,1,2,0:0:0:0:
33,131,31865,2,0,P|-4:153|30:127,1,121.499996292114,0|0,1:2|0:0,0:0:0:0:
169,61,32173,2,0,L|261:86,1,80.9999975280763,10|0,0:0|0:0,0:0:0:0:
499,227,32481,6,0,P|455:177|409:91,1,148.50000453186,2|0,1:2|0:0,0:0:0:0:
357,46,32788,2,0,P|343:33|362:43,1,62.9999980773926,10|0,0:0|0:0,0:0:0:0:
395,266,33096,6,0,P|333:240|254:183,1,148.50000453186,2|0,1:2|0:0,0:0:0:0:
188,166,33404,2,0,P|170:160|192:161,1,62.9999980773926,10|0,0:0|0:0,0:0:0:0:
15,364,33711,6,0,P|53:317|150:320,1,161.999995056153,2|8,1:2|3:0,0:0:0:0:
226,347,34122,1,8,3:0:0:0:
236,352,34224,2,0,L|293:330,1,53.9999983520508,8|4,3:0|3:0,0:0:0:0:
371,314,34429,1,4,3:0:0:0:
381,309,34531,2,0,L|438:331,1,53.9999983520508,4|4,3:0|3:0,0:0:0:0:
307,243,34788,1,6,1:2:0:0:
457,36,35557,6,0,P|433:102|413:192,1,144,8|2,0:0|0:0,0:0:0:0:
467,240,36019,1,4,3:0:0:0:
475,252,36173,1,2,0:0:0:0:
233,357,36481,6,0,P|198:331|156:306,1,72,0|2,1:0|0:0,0:0:0:0:
201,238,36788,1,8,0:0:0:0:
23,351,37250,6,0,P|43:292|139:260,1,144,6|2,1:2|0:0,0:0:0:0:
133,57,38019,2,0,P|142:43|129:58,1,72,8|0,0:0|0:0,0:0:0:0:
32,26,38327,5,2,0:0:0:0:
32,26,38481,2,0,P|87:80|127:163,1,144,4|2,3:0|0:0,0:0:0:0:
177,206,38942,2,0,P|205:228|243:226,1,72,0|2,1:0|0:0,0:0:0:0:
265,150,39250,2,0,P|236:127|198:129,1,72,8|2,0:0|0:0,0:0:0:0:
485,358,39711,6,0,P|435:308|344:335,1,144,6|2,1:2|0:0,0:0:0:0:
489,17,40481,6,0,P|453:70|419:152,1,144,8|2,0:0|0:0,0:0:0:0:
458,219,40942,1,4,3:0:0:0:
458,219,41096,2,0,P|479:253|529:275,1,72,2|2,0:0|0:0,0:0:0:0:
408,151,41404,1,0,1:0:0:0:
185,305,41711,6,0,P|261:283|339:241,1,144,8|0,0:0|0:0,0:0:0:0:
322,117,42173,2,0,P|263:126|233:203,1,144,6|2,1:2|0:0,0:0:0:0:
115,124,42942,6,0,P|100:89|85:43,1,72,8|0,0:0|0:0,0:0:0:0:
9,91,43250,2,0,P|24:126|39:172,1,72,2|0,1:2|0:0,0:0:0:0:
22,12,43557,1,10,0:0:0:0:
195,163,43865,1,10,0:0:0:0:
49,318,44173,6,0,L|36:264,3,36,8|8|10|8,0:0|0:0|0:0|0:0,0:0:0:0:
168,373,44481,1,8,0:0:0:0:
168,373,44557,1,8,0:0:0:0:
168,373,44634,6,0,P|235:324|337:371,1,180,6|10,1:2|0:0,0:0:0:0:
383,296,45019,1,8,0:0:0:0:
383,296,45096,2,0,L|401:247,3,45,8|8|8|8,0:0|0:0|0:0|0:0,0:0:0:0:
343,185,45404,2,0,L|325:136,3,45,8|8|8|8,0:0|0:0|0:0|0:0,0:0:0:0:
391,73,45711,2,0,L|409:24,3,45,8|8|8|8,0:0|0:0|0:0|0:0,0:0:0:0:
290,57,46019,5,10,0:0:0:0:
261,51,46095,1,8,0:0:0:0:
233,45,46172,1,8,0:0:0:0:
205,40,46249,1,8,0:0:0:0:
177,34,46327,2,0,L|116:52,1,45,10|8,0:0|0:0,0:0:0:0:
45,139,46481,2,0,L|96:152,3,45,10|8|8|8,0:0|0:0|0:0|0:0,0:0:0:0:
143,260,46788,2,0,L|194:247,3,45,10|8|8|8,0:0|0:0|0:0|0:0,0:0:0:0:
3,227,47096,6,0,P|37:292|59:363,1,148.50000453186,6|0,1:2|0:0,0:0:0:0:
114,256,47404,1,8,3:0:0:0:
114,256,47557,1,8,0:0:0:0:
284,354,47711,6,0,B|330:284|388:285|433:355|359:320,1,161.999995056153,6|0,1:2|0:0,0:0:0:0:
470,354,48019,1,8,3:0:0:0:
470,354,48173,1,8,3:0:0:0:
304,184,48327,6,0,B|262:174|259:134|259:134|280:136|286:155,1,107.999996704102,6|0,1:2|0:0,0:0:0:0:
460,75,48634,2,0,B|502:65|504:25|504:25|484:27|478:46,1,107.999996704102,6|0,1:2|0:0,0:0:0:0:
463,227,48942,2,0,B|474:268|513:269|513:269|511:249|492:243,1,107.999996704102,6|0,1:2|0:0,0:0:0:0:
333,41,49250,2,0,B|321:0|282:-1|282:-1|284:18|303:24,1,107.999996704102,6|0,1:2|0:0,0:0:0:0:
387,145,49557,6,0,P|345:233|314:352,1,215.999993408203,6|2,1:2|1:2,0:0:0:0:
285,369,49942,1,0,1:0:0:0:
285,369,50019,1,10,0:0:0:0:
172,178,50173,2,0,P|227:181|256:235,1,107.999996704102,2|8,1:2|0:0,0:0:0:0:
178,328,50481,2,0,P|169:358|161:384,2,53.9999983520508,2|0|10,1:2|1:0|0:0,0:0:0:0:
61,268,50788,2,0,P|52:238|44:212,2,53.9999983520508,2|0|8,1:2|1:0|0:0,0:0:0:0:
4,378,51096,5,2,1:2:0:0:
4,378,51173,1,0,1:0:0:0:
4,378,51250,2,0,P|43:326|83:286,1,107.999996704102,10|2,0:0|1:2,0:0:0:0:
139,246,51481,1,0,1:0:0:0:
139,246,51557,1,8,0:0:0:0:
47,100,51711,1,0,1:2:0:0:
47,100,51788,1,0,1:0:0:0:
47,100,51865,2,0,P|8:54|29:9,1,107.999996704102,10|8,0:0|3:0,0:0:0:0:
203,112,52173,6,0,P|229:96|261:84,2,53.9999983520508,8|8|2,3:0|3:0|1:2,0:0:0:0:
0,208,52481,2,0,P|54:182|115:172,1,107.999996704102,10|2,0:0|1:2,0:0:0:0:
204,201,52711,5,0,1:2:0:0:
204,201,52788,2,0,B|233:260|341:290|372:252|326:180|298:247,1,215.999993408203,14|2,0:0|1:2,0:0:0:0:
442,64,53250,1,2,1:2:0:0:
330,42,53404,2,0,P|361:103|381:159,1,107.999996704102,14|2,0:0|1:2,0:0:0:0:
452,199,53634,1,0,1:2:0:0:
452,199,53711,2,0,P|470:222|453:193,1,107.999996704102,14|0,0:0|0:0,0:0:0:0:
349,327,54019,5,8,0:0:0:0:
367,320,54095,1,8,0:0:0:0:
385,314,54172,1,8,0:0:0:0:
403,308,54249,1,8,0:0:0:0:
413,304,54327,2,0,L|483:318,1,53.9999983520508,8|8,0:0|0:0,0:0:0:0:
376,219,54481,1,6,1:2:0:0:
485,81,54634,5,0,3:0:0:0:
162,106,61404,5,8,0:0:0:0:
162,106,61480,1,8,0:0:0:0:
162,106,61557,2,0,L|150:63,3,45,8|8|4|4,3:0|3:0|3:0|3:0,0:0:0:0:
273,162,61865,2,0,P|258:208|245:268,1,90,4|0,1:2|0:0,0:0:0:0:
474,70,62788,5,2,1:2:0:0:
474,70,62865,1,0,1:2:0:0:
474,70,62942,1,10,0:2:0:0:
475,171,63096,2,0,P|432:91|382:18,1,161.999995056153,6|0,1:2|0:0,0:0:0:0:
140,125,63865,6,0,P|122:142|104:195,1,45,10|8,0:0|0:0,0:0:0:0:
179,204,64019,2,0,P|196:186|214:133,1,45,10|8,0:0|0:0,0:0:0:0:
15,210,64173,5,10,0:0:0:0:
15,210,64250,1,8,0:0:0:0:
15,210,64327,2,0,P|91:199|181:312,1,233.999989288331,6|2,1:2|1:2,0:0:0:0:
355,370,64788,2,0,P|398:329|387:287,1,107.999996704102,10|0,0:0|0:0,0:0:0:0:
279,237,65096,5,0,1:0:0:0:
279,237,65250,1,2,0:0:0:0:
450,172,65404,1,10,0:0:0:0:
278,145,65557,5,2,0:0:0:0:
278,145,65634,1,0,1:2:0:0:
278,145,65711,2,0,B|335:144|363:197|363:197|351:134|394:97,1,215.999993408203,0|10,1:0|0:0,0:0:0:0:
217,62,66173,2,0,P|158:46|113:14,1,107.999996704102,2|0,0:0|1:0,0:0:0:0:
29,110,66481,5,2,0:0:0:0:
152,184,66634,1,10,0:0:0:0:
35,307,66788,1,2,0:0:0:0:
35,307,66865,1,0,1:2:0:0:
35,307,66942,2,0,P|22:248|64:204,1,107.999996704102,0|2,1:0|0:0,0:0:0:0:
239,303,67250,6,0,P|176:285|122:277,1,107.999996704102,10|2,0:0|0:0,0:0:0:0:
288,159,67557,1,2,1:2:0:0:
288,159,67711,1,2,0:0:0:0:
150,77,67865,1,10,0:0:0:0:
150,77,67942,1,8,0:0:0:0:
150,77,68019,2,0,P|169:130|183:191,1,107.999996704102,2|0,0:0|1:2,0:0:0:0:
350,358,68327,5,10,0:0:0:0:
449,346,68481,1,10,0:0:0:0:
482,253,68634,1,8,0:0:0:0:
295,175,68788,5,10,0:0:0:0:
295,175,68865,1,8,0:0:0:0:
295,175,68942,2,0,L|313:242,1,53.9999983520508,10|8,0:0|0:0,0:0:0:0:
493,101,69096,1,10,0:0:0:0:
493,101,69173,1,8,0:0:0:0:
493,101,69250,6,0,P|413:121|321:6,1,233.999989288331,6|2,1:2|1:2,0:0:0:0:
178,137,69711,2,0,P|114:146|96:211,1,107.999996704102,10|0,0:0|0:0,0:0:0:0:
295,175,70019,5,0,1:2:0:0:
295,175,70173,1,2,0:0:0:0:
225,31,70327,1,10,0:0:0:0:
400,126,70481,1,2,0:0:0:0:
400,126,70557,1,0,1:2:0:0:
400,126,70634,6,0,P|305:77|189:39,1,215.999993408203,0|10,1:2|0:0,0:0:0:0:
41,118,71096,2,0,P|17:56|-5:10,1,107.999996704102,2|0,0:0|1:2,0:0:0:0:
183,175,71404,1,2,0:0:0:0:
52,269,71557,1,10,0:0:0:0:
207,354,71711,5,2,0:0:0:0:
207,354,71788,1,0,1:2:0:0:
207,354,71865,2,0,L|426:303,2,215.999993408203,0|10|8,1:2|0:0|0:0,0:0:0:0:
159,210,72634,1,2,1:2:0:0:
159,210,72711,1,0,1:0:0:0:
159,210,72788,1,2,1:2:0:0:
21,381,72942,6,0,B|27:275|131:256|188:290|140:330|96:295,1,215.999993408203,6|8,1:2|3:0,0:0:0:0:
44,177,73404,2,0,P|30:152|24:123,3,53.9999983520508,4|0|0|0,3:0|1:0|1:0|0:0,0:0:0:0:
81,28,73711,5,10,2:0:0:0:
185,84,73865,1,0,1:0:0:0:
289,140,74019,1,10,2:0:0:0:
90,291,74173,6,0,P|168:224|308:278,1,233.999989288331,6|2,1:2|0:0,0:0:0:0:
486,356,74634,2,0,P|417:339|409:302,1,107.999996704102,10|0,0:0|0:0,0:0:0:0:
450,113,74942,2,0,P|410:160|383:215,1,107.999996704102,0|2,1:2|0:0,0:0:0:0:
308,360,75250,1,10,0:0:0:0:
127,253,75404,5,2,0:0:0:0:
127,253,75481,1,0,1:2:0:0:
127,253,75557,2,0,P|171:208|225:213,1,107.999996704102,0|2,1:2|0:0,0:0:0:0:
322,64,75865,1,10,0:0:0:0:
181,9,76019,6,0,P|234:80|300:202,1,215.999993408203,2|2,0:0|0:0,0:0:0:0:
322,64,76481,1,10,0:0:0:0:
141,93,76634,2,0,P|85:66|83:18,1,107.999996704102,2|0,0:0|1:2,0:0:0:0:
26,208,76942,5,2,0:0:0:0:
76,296,77096,2,0,P|121:336|181:325,1,107.999996704102,10|2,0:0|0:0,0:0:0:0:
205,239,77327,1,0,1:0:0:0:
205,239,77404,2,0,P|167:201|115:201,1,107.999996704102,2|2,1:2|0:0,0:0:0:0:
377,197,77711,5,10,0:0:0:0:
292,280,77865,1,14,0:0:0:0:
374,365,78019,1,0,0:0:0:0:
374,365,78173,1,2,1:2:0:0:
276,173,78327,6,0,P|253:118|226:74,1,107.999996704102,8|10,0:0|0:0,0:0:0:0:
291,19,78557,1,8,0:0:0:0:
291,19,78634,2,0,L|346:31,1,53.9999983520508,8|8,0:0|0:0,0:0:0:0:
425,122,78788,1,10,0:0:0:0:
425,122,78865,1,8,0:0:0:0:
425,122,78942,2,0,L|480:134,1,53.9999983520508,8|8,0:0|0:0,0:0:0:0:
301,173,79096,1,6,1:2:0:0:
470,372,79404,6,0,P|481:348|498:324,2,53.9999983520508,0|0|8,1:2|1:2|0:0,0:0:0:0:
385,205,79711,1,2,1:2:0:0:
385,205,79788,1,0,1:2:0:0:
385,205,79865,2,0,P|404:250|463:252,1,107.999996704102,10|2,0:0|1:2,0:0:0:0:
482,242,80096,1,0,1:2:0:0:
482,242,80173,1,10,0:0:0:0:
299,322,80327,6,0,L|320:392,2,53.9999983520508,2|0|8,1:2|1:2|0:0,0:0:0:0:
190,229,80634,2,0,L|211:159,2,53.9999983520508,2|0|8,1:2|1:2|0:0,0:0:0:0:
65,365,80942,1,2,1:2:0:0:
65,365,81019,1,0,1:2:0:0:
65,365,81096,2,0,P|26:321|48:277,1,107.999996704102,10|0,0:0|1:2,0:0:0:0:
71,258,81327,1,0,1:2:0:0:
71,258,81404,1,8,0:0:0:0:
230,85,81557,6,0,L|3:24,1,215.999993408203,6|2,1:2|1:2,0:0:0:0:
121,150,82019,1,10,0:0:0:0:
243,75,82173,1,2,1:2:0:0:
270,257,82327,2,0,P|220:203|233:156,1,107.999996704102,10|0,0:0|0:0,0:0:0:0:
353,29,82634,1,2,1:2:0:0:
353,29,82788,1,0,1:2:0:0:
316,180,82942,6,0,P|386:140|487:181,1,161.999995056153,10|0,0:0|0:0,0:0:0:0:
490,250,83250,2,0,B|448:256|428:307|428:307|441:252|384:204,1,175.499991966248,14|0,0:0|0:0,0:0:0:0:
340,290,83557,1,10,0:0:0:0:
340,290,83634,1,8,0:0:0:0:
340,290,83711,2,0,P|321:313|309:339,2,58.4999973220826,10|8|10,0:0|0:0|0:0,0:0:0:0:
205,257,84019,1,2,1:2:0:0:
76,366,84173,5,0,3:0:0:0:
255,190,84788,5,0,3:0:0:0:
36,33,85096,6,0,P|72:66|77:90,1,72,0|0,1:2|0:0,0:0:0:0:
79,174,85404,2,0,P|127:91|166:37,1,144
364,207,86019,5,0,3:0:0:0:
364,207,86173,2,0,P|344:168|329:127,1,72,0|0,0:0|1:2,0:0:0:0:
483,13,86634,6,0,P|454:79|434:172,1,144,0|0,1:2|0:0,0:0:0:0:
301,270,87250,5,8,0:0:0:0:
301,270,87327,1,8,0:0:0:0:
301,270,87404,2,0,L|287:216,1,36,8|8,3:0|3:0,0:0:0:0:
399,319,87557,2,0,L|385:373,1,36,4|4,3:0|3:0,0:0:0:0:
388,226,87711,1,0,1:0:0:0:
271,372,87865,5,2,0:0:0:0:
257,366,88019,1,2,0:0:0:0:
243,360,88173,1,2,0:0:0:0:
229,354,88327,1,2,0:0:0:0:
120,226,88481,6,0,L|102:177,2,36,0|0|2,1:0|1:0|1:2,0:0:0:0:
100,357,88788,1,0,1:0:0:0:
236,236,88942,1,6,1:2:0:0:
