osu file format v14

[General]
AudioFilename: audio.mp3
AudioLeadIn: 0
PreviewTime: 63788
Countdown: 0
SampleSet: Soft
StackLeniency: 0.7
Mode: 0
LetterboxInBreaks: 0
WidescreenStoryboard: 0

[Editor]
DistanceSpacing: 0.4
BeatDivisor: 4
GridSize: 32
TimelineZoom: 2

[Metadata]
Title:Chaos ga Kiwamaru (TV Size)
TitleUnicode:カオスが極まる (TV Size)
Artist:UNISON SQUARE GARDEN
ArtistUnicode:UNISON SQUARE GARDEN
Creator:Sajinn
Version:Reform's Expert
Source:ブルーロック
Tags:blue lock football anime rock jrock japanese rock j-rock soccer opening op basensorex kujinn reform pepekcz spokenaway male vocals vocalist
BeatmapID:3831527
BeatmapSetID:1863294

[Difficulty]
HPDrainRate:5
CircleSize:4
OverallDifficulty:8.5
ApproachRate:9.2
SliderMultiplier:1.72
SliderTickRate:1

[Events]
//Background and Video events
0,0,"1165712.jpg",0,0
//Break Periods
//Storyboard Layer 0 (Background)
//Storyboard Layer 1 (Fail)
//Storyboard Layer 2 (Pass)
//Storyboard Layer 3 (Foreground)
//Storyboard Layer 4 (Overlay)
//Storyboard Sound Samples

[TimingPoints]
481,307.692307692308,4,2,1,70,1,0
481,-121.951219512195,4,2,1,70,0,0
2942,-108.695652173913,4,2,1,70,0,0
5250,-98.0392156862745,4,2,1,70,0,0
12634,-121.951219512195,4,2,1,70,0,0
12942,-121.951219512195,4,2,1,60,0,0
14634,-192.307692307692,4,2,1,60,0,0
15096,-121.951219512195,4,2,1,60,0,0
17711,-108.695652173913,4,2,1,70,0,0
20019,-121.951219512195,4,2,1,60,0,0
22634,-108.695652173913,4,2,1,70,0,0
25250,-108.695652173913,4,2,1,60,0,0
34788,-138.888888888889,4,2,1,60,0,0
44327,-138.888888888889,4,2,1,70,0,0
44634,-108.695652173913,4,2,1,70,0,0
49865,-108.695652173913,4,2,1,80,0,0
54634,-161.290322580645,4,2,1,60,0,0
61404,-108.695652173913,4,2,1,70,0,0
63865,-108.695652173913,4,2,1,90,0,0
64327,-98.0392156862745,4,2,1,90,0,1
84173,-121.951219512195,4,2,1,60,0,0
87250,-121.951219512195,4,2,1,70,0,0

[Colours]
Combo1 : 223,169,235
Combo2 : 138,247,111
Combo3 : 244,165,94
Combo4 : 140,228,244

[HitObjects]
23,295,481,5,10,0:0:0:0:
117,243,634,1,10,0:0:0:0:
54,162,788,5,10,0:0:0:0:
230,263,942,1,6,1:2:0:0:
499,374,1250,5,8,3:0:0:0:
454,301,1404,2,0,P|464:255|478:208,1,70.5200010760498,8|2,3:0|1:2,0:0:0:0:
429,171,1634,1,0,1:0:0:0:
436,167,1711,2,0,L|422:114,3,35.2600005380249,2|0|2|0,1:2|1:0|1:2|1:0,0:0:0:0:
387,73,2019,2,0,L|401:20,3,35.2600005380249,8|8|2|0,3:0|3:0|1:2|1:0,0:0:0:0:
302,10,2327,5,14,0:2:0:0:
333,114,2481,1,10,0:0:0:0:
436,167,2634,5,10,0:0:0:0:
404,265,2788,1,8,0:0:0:0:
198,362,2942,6,0,P|158:359|132:320,1,79.1199973439942,6|8,1:2|0:0,0:0:0:0:
138,323,3173,1,8,0:0:0:0:
141,317,3250,1,8,0:0:0:0:
16,235,3404,6,0,P|64:221|106:212,1,79.1199973439942,6|8,1:2|0:0,0:0:0:0:
99,219,3634,1,8,0:0:0:0:
105,224,3711,1,8,0:0:0:0:
179,36,3865,6,0,P|139:39|113:78,1,79.1199973439942,6|8,1:2|0:0,0:0:0:0:
119,75,4096,1,8,0:0:0:0:
122,81,4173,1,8,0:0:0:0:
305,216,4327,6,0,P|318:165|331:127,1,79.1199973439942,6|8,1:2|0:0,0:0:0:0:
333,24,4634,2,0,P|343:78|376:185,1,158.239994687988,6|8,1:2|0:0,0:0:0:0:
438,16,5096,1,8,3:0:0:0:
498,187,5250,6,0,P|446:180|398:278,1,175.440001070801,6|2,1:2|1:2,0:0:0:0:
397,275,5711,1,10,0:0:0:0:
263,382,5865,2,0,P|288:344|342:344,1,87.7200005354004,2|0,0:0|1:2,0:0:0:0:
504,383,6173,2,0,P|493:336|477:277,1,87.7200005354004,2|8,0:0|0:0,0:0:0:0:
299,180,6481,6,0,P|330:214|381:210,1,87.7200005354004,2|0,0:0|1:2,0:0:0:0:
491,133,6788,2,0,P|438:119|391:96,1,87.7200005354004,2|8,0:0|0:0,0:0:0:0:
239,47,7096,1,2,0:0:0:0:
306,172,7250,1,0,1:2:0:0:
404,10,7404,2,0,P|361:12|327:50,1,87.7200005354004,2|8,0:0|0:0,0:0:0:0:
114,246,7711,5,2,1:2:0:0:
114,246,7788,1,0,1:2:0:0:
114,246,7865,2,0,P|102:182|76:110,1,131.580000803101,0|0,1:2|0:0,0:0:0:0:
64,107,8173,1,10,0:0:0:0:
240,10,8327,2,0,P|221:54|205:113,1,87.7200005354004,2|0,0:0|1:2,0:0:0:0:
129,49,8634,5,10,0:0:0:0:
289,132,8788,1,0,1:2:0:0:
73,213,8942,2,0,P|124:188|174:177,1,87.7200005354004,10|0,0:0|1:2,0:0:0:0:
295,279,9250,2,0,P|321:292|348:297,2,43.8600002677002,10|8|0,0:0|0:0|1:2,0:0:0:0:
219,113,9557,5,10,0:0:0:0:
219,113,9634,1,8,0:0:0:0:
219,113,9711,2,0,P|225:137|231:181,1,43.8600002677002,8|8,0:0|0:0,0:0:0:0:
188,358,9865,2,0,P|191:336|197:315,3,43.8600002677002,8|8|4|4,3:0|3:0|3:0|3:0,0:0:0:0:
339,208,10173,6,0,B|293:178|239:227|281:224|225:270|175:230,1,175.440001070801,6|10,1:2|0:0,0:0:0:0:
181,234,10634,1,2,1:2:0:0:
35,327,10788,1,10,0:0:0:0:
48,316,10865,1,8,0:0:0:0:
62,310,10942,1,10,0:0:0:0:
215,364,11096,1,10,0:0:0:0:
169,155,11250,2,0,P|122:184|114:231,1,87.7200005354004,2|10,1:2|0:0,0:0:0:0:
69,18,11557,5,4,3:0:0:0:
69,18,11634,1,4,3:0:0:0:
69,18,11711,2,0,P|77:48|83:83,1,43.8600002677002,10|2,0:0|0:0,0:0:0:0:
25,126,11865,1,2,0:0:0:0:
194,225,12019,5,6,1:2:0:0:
46,363,12327,5,6,1:2:0:0:
446,315,12634,6,0,P|395:310|329:377,1,141.0400021521,6|0,1:2|1:2,0:0:0:0:
331,366,13096,2,0,P|319:314|302:278,1,70.5200010760498,10|2,0:0|0:0,0:0:0:0:
282,232,13404,1,8,0:0:0:0:
282,232,13711,1,10,0:0:0:0:
479,127,14019,5,10,0:0:0:0:
422,56,14173,1,0,1:2:0:0:
491,18,14327,5,8,0:0:0:0:
409,156,14481,1,2,1:0:0:0:
272,38,14634,5,2,0:0:0:0:
272,38,14788,2,0,P|238:33|194:7,1,67.0799995905762,2|0,0:0|0:0,0:0:0:0:
141,0,15096,6,0,P|98:24|118:111,1,141.0400021521,6|2,1:2|1:2,0:0:0:0:
108,104,15557,1,10,0:0:0:0:
38,271,15865,5,2,1:2:0:0:
38,271,16019,1,0,1:2:0:0:
141,218,16173,2,0,P|127:263|119:303,1,70.5200010760498,10|2,0:0|0:0,0:0:0:0:
61,176,16481,5,2,1:2:0:0:
117,356,16634,2,0,P|155:352|181:316,1,70.5200010760498,2|8,1:2|0:0,0:0:0:0:
287,373,16942,2,0,P|273:328|265:288,1,70.5200010760498,2|0,0:0|1:2,0:0:0:0:
324,245,17250,1,2,1:2:0:0:
324,245,17404,1,10,0:0:0:0:
267,187,17557,1,8,0:0:0:0:
475,121,17711,6,0,P|431:110|396:89,1,79.1199973439942,6|10,1:2|0:0,0:0:0:0:
346,34,18019,1,2,1:2:0:0:
154,97,18173,5,8,0:0:0:0:
154,97,18250,1,8,0:0:0:0:
154,97,18327,2,0,P|200:104|224:143,1,79.1199973439942,10|10,0:0|0:0,0:0:0:0:
324,245,18634,2,0,P|332:210|350:170,1,79.1199973439942,2|0,1:2|0:0,0:0:0:0:
501,42,18942,5,8,0:0:0:0:
492,36,19019,1,8,0:0:0:0:
483,31,19096,2,0,P|454:40|433:46,1,39.5599986719971,10|8,0:0|0:0,0:0:0:0:
375,99,19250,2,0,P|346:90|325:84,3,39.5599986719971,8|8|10|8,0:0|0:0|0:0|0:0,0:0:0:0:
275,28,19557,2,0,P|256:33|237:39,3,39.5599986719971,8|8|8|8,0:0|3:0|3:0|3:0,0:0:0:0:
123,157,19865,5,8,3:0:0:0:
123,157,19942,1,8,3:0:0:0:
123,157,20019,2,0,P|79:157|50:69,1,141.0400021521,6|2,1:2|1:2,0:0:0:0:
98,26,20481,1,10,0:0:0:0:
208,123,20634,5,2,0:0:0:0:
208,123,20711,1,2,0:0:0:0:
208,123,20788,2,0,P|198:164|190:212,1,70.5200010760498,2|0,1:2|1:2,0:0:0:0:
124,235,21096,1,10,0:0:0:0:
201,313,21250,2,0,P|226:322|247:332,2,35.2600005380249,2|2|2,0:0|0:0|1:2,0:0:0:0:
67,370,21557,6,0,P|105:355|151:350,1,70.5200010760498,2|8,1:2|0:0,0:0:0:0:
259,254,21865,2,0,P|293:247|326:234,1,70.5200010760498,2|0,0:0|1:2,0:0:0:0:
168,232,22173,1,2,1:2:0:0:
168,232,22327,2,0,P|182:277|195:331,1,70.5200010760498,10|2,0:0|0:0,0:0:0:0:
410,354,22634,5,6,1:2:0:0:
346,302,22788,1,10,0:0:0:0:
451,281,22942,5,10,0:0:0:0:
268,368,23096,1,10,0:0:0:0:
261,364,23173,1,8,0:0:0:0:
254,360,23250,2,0,P|266:313|273:266,1,79.1199973439942,10|10,0:0|0:0,0:0:0:0:
373,199,23557,2,0,P|363:164|360:115,1,79.1199973439942,2|10,1:2|0:0,0:0:0:0:
433,23,23865,5,2,1:2:0:0:
441,25,23942,1,8,0:0:0:0:
449,27,24019,1,8,0:0:0:0:
457,29,24096,1,8,0:0:0:0:
465,31,24173,1,10,0:0:0:0:
512,132,24327,2,0,P|478:135|442:94,1,79.1199973439942,6|0,1:2|0:0,0:0:0:0:
299,0,24634,2,0,P|296:39|285:77,1,79.1199973439942,6|0,1:2|0:0,0:0:0:0:
26,116,24942,6,0,P|74:106|163:184,1,158.239994687988,6|2,1:2|0:0,0:0:0:0:
157,165,25404,1,8,0:0:0:0:
89,276,25557,2,0,P|47:288|9:313,1,79.1199973439942,2|0,0:0|1:0,0:0:0:0:
181,330,25865,1,2,0:0:0:0:
57,199,26019,1,10,0:0:0:0:
63,194,26173,1,2,0:0:0:0:
233,170,26327,6,0,P|221:215|210:274,2,79.1199973439942,2|2|10,1:2|0:0|0:0,0:0:0:0:
359,33,26788,2,0,P|333:65|280:66,1,79.1199973439942,2|0,0:0|1:2,0:0:0:0:
297,71,27096,1,0,0:0:0:0:
159,109,27250,2,0,P|111:91|60:79,1,79.1199973439942,10|0,0:0|0:0,0:0:0:0:
224,250,27557,6,0,P|272:268|323:280,1,79.1199973439942,2|2,1:2|0:0,0:0:0:0:
374,245,27865,1,10,0:0:0:0:
504,340,28019,2,0,P|438:326|374:407,1,158.239994687988,2|2,0:0|0:0,0:0:0:0:
368,238,28481,2,0,P|383:192|395:140,1,79.1199973439942,10|2,0:0|0:0,0:0:0:0:
353,101,28788,5,2,1:2:0:0:
427,283,28942,1,2,0:0:0:0:
350,91,29096,1,10,0:0:0:0:
473,206,29250,6,0,P|495:216|512:219,2,39.5599986719971,2|2|0,0:0|0:0|1:2,0:0:0:0:
295,241,29557,1,0,0:0:0:0:
350,91,29711,2,0,P|359:129|372:166,1,79.1199973439942,10|0,0:0|0:0,0:0:0:0:
405,10,30019,5,2,1:2:0:0:
262,104,30173,1,2,0:0:0:0:
147,41,30327,5,10,0:0:0:0:
151,34,30481,1,2,0:0:0:0:
48,29,30634,5,2,1:2:0:0:
132,186,30788,1,2,0:0:0:0:
22,115,30942,1,10,0:0:0:0:
192,129,31096,6,0,P|172:202|146:312,1,158.239994687988,2|2,0:0|0:0,0:0:0:0:
152,282,31557,1,10,0:0:0:0:
12,295,31711,2,0,B|56:279|79:321|76:334|73:323|67:346|97:382|145:361,1,158.239994687988,2|0,0:0|0:0,0:0:0:0:
284,372,32173,2,0,P|253:368|224:314,1,79.1199973439942,10|0,0:0|0:0,0:0:0:0:
342,259,32481,6,0,P|415:277|471:314,1,118.679996015991,2|0,1:2|0:0,0:0:0:0:
460,287,32788,2,0,P|445:276|388:290,1,79.1199973439942,10|0,0:0|0:0,0:0:0:0:
245,217,33096,6,0,P|264:156|283:111,1,79.1199973439942,2|0,1:2|0:0,0:0:0:0:
103,11,33404,2,0,P|109:28|165:47,1,79.1199973439942,10|0,0:0|0:0,0:0:0:0:
372,0,33711,6,0,P|391:61|410:106,1,79.1199973439942,2|0,1:2|0:0,0:0:0:0:
483,161,34019,6,0,P|477:183|464:225,2,52.7466648959962,8|8|8,3:0|3:0|3:0,0:0:0:0:
379,264,34327,2,0,P|385:286|398:328,2,52.7466648959962,4|4|4,3:0|3:0|3:0,0:0:0:0:
309,230,34634,1,4,3:0:0:0:
189,357,34788,6,0,P|150:323|76:346,1,123.840003023438,6|0,1:2|0:0,0:0:0:0:
84,337,35250,1,0,0:0:0:0:
1,255,35557,2,0,P|15:204|46:125,1,123.840003023438,8|2,0:0|0:0,0:0:0:0:
40,137,36019,1,4,3:0:0:0:
19,28,36173,6,0,P|48:53|85:49,1,61.9200015117188,2|2,0:0|0:0,0:0:0:0:
141,29,36481,1,0,1:0:0:0:
306,77,36788,6,0,P|256:71|211:143,1,123.840003023438,8|0,0:0|0:0,0:0:0:0:
153,179,37250,2,0,P|210:197|270:232,1,123.840003023438,6|2,1:2|0:0,0:0:0:0:
265,229,37711,1,0,0:0:0:0:
386,376,38019,6,0,P|441:385|469:312,1,123.840003023438,8|2,0:0|0:0,0:0:0:0:
474,333,38481,1,4,3:0:0:0:
421,269,38634,2,0,P|432:227|445:194,1,61.9200015117188,2|2,0:0|0:0,0:0:0:0:
472,148,38942,1,0,1:0:0:0:
282,18,39250,6,0,P|337:9|365:82,1,123.840003023438,8|0,0:0|0:0,0:0:0:0:
445,70,39711,2,0,P|371:92|318:136,1,123.840003023438,6|2,1:2|0:0,0:0:0:0:
333,119,40173,1,0,0:0:0:0:
141,207,40481,6,0,P|215:229|268:273,1,123.840003023438,8|2,0:0|0:0,0:0:0:0:
306,349,40942,1,4,3:0:0:0:
306,349,41096,2,0,P|318:308|334:274,1,61.9200015117188,2|2,0:0|0:0,0:0:0:0:
397,255,41404,1,0,1:0:0:0:
243,60,41711,5,8,0:0:0:0:
243,60,41865,2,0,P|255:101|271:135,1,61.9200015117188,2|0,0:0|0:0,0:0:0:0:
345,144,42173,6,0,P|291:139|246:204,1,123.840003023438,6|2,1:2|0:0,0:0:0:0:
205,274,42634,2,0,P|151:279|106:214,1,123.840003023438,0|8,0:0|0:0,0:0:0:0:
0,88,43250,6,0,P|37:85|69:73,1,61.9200015117188,2|0,1:2|0:0,0:0:0:0:
88,7,43557,2,0,P|94:61|120:145,1,123.840003023438,10|10,0:0|0:0,0:0:0:0:
176,184,44019,1,2,0:0:0:0:
50,291,44173,5,8,0:0:0:0:
142,361,44327,1,10,0:0:0:0:
142,361,44404,1,8,0:0:0:0:
142,361,44481,1,8,0:0:0:0:
254,312,44634,6,0,P|330:323|405:383,1,158.239994687988,6|10,1:2|0:0,0:0:0:0:
401,369,45019,1,8,0:0:0:0:
405,363,45096,2,0,P|398:333|393:310,3,39.5599986719971,8|8|8|8,0:0|0:0|0:0|0:0,0:0:0:0:
438,265,45404,2,0,P|431:235|426:212,3,39.5599986719971,8|8|8|8,0:0|0:0|0:0|0:0,0:0:0:0:
479,175,45711,2,0,P|472:145|467:122,3,39.5599986719971,8|8|8|8,0:0|0:0|0:0|0:0,0:0:0:0:
416,67,46019,5,10,0:0:0:0:
401,60,46096,1,8,0:0:0:0:
386,55,46173,2,0,P|361:63|327:71,1,39.5599986719971,8|8,0:0|0:0,0:0:0:0:
295,135,46327,2,0,P|270:127|236:119,1,39.5599986719971,10|8,0:0|0:0,0:0:0:0:
194,66,46481,2,0,L|207:10,3,39.5599986719971,10|8|8|8,0:0|0:0|0:0|0:0,0:0:0:0:
111,118,46788,2,0,L|119:156,3,39.5599986719971,10|8|8|8,0:0|0:0|0:0|0:0,0:0:0:0:
199,200,47096,6,0,P|184:260|168:357,1,158.239994687988,6|8,1:2|3:0,0:0:0:0:
46,245,47557,1,8,0:0:0:0:
222,310,47711,6,0,P|273:335|360:359,1,118.679996015991,6|0,1:2|0:0,0:0:0:0:
342,367,48019,1,8,3:0:0:0:
508,264,48173,1,8,3:0:0:0:
455,377,48327,6,0,P|422:351|426:296,1,79.1199973439942,6|0,1:2|0:0,0:0:0:0:
308,156,48634,2,0,P|301:204|286:256,1,79.1199973439942,6|0,1:2|0:0,0:0:0:0:
489,102,48942,6,0,P|448:92|409:67,1,79.1199973439942,6|0,1:2|0:0,0:0:0:0:
202,137,49250,2,0,P|167:117|129:108,1,79.1199973439942,6|0,1:2|0:0,0:0:0:0:
220,0,49557,6,0,P|273:0|295:99,1,158.239994687988,6|2,1:2|1:2,0:0:0:0:
302,87,49942,1,0,1:0:0:0:
302,87,50019,1,10,0:0:0:0:
203,213,50173,2,0,P|192:246|185:277,2,39.5599986719971,2|0|8,1:2|0:0|0:0,0:0:0:0:
137,77,50481,6,0,P|171:96|199:102,1,39.5599986719971,2|0,1:2|1:0,0:0:0:0:
297,216,50634,1,10,0:0:0:0:
51,238,50788,6,0,P|79:230|113:229,1,39.5599986719971,2|0,1:2|1:0,0:0:0:0:
220,176,50942,2,0,P|203:238|189:281,1,79.1199973439942,8|2,0:0|1:2,0:0:0:0:
198,252,51173,1,0,1:0:0:0:
198,252,51250,1,10,0:0:0:0:
349,345,51404,2,0,L|362:398,2,39.5599986719971,2|0|8,1:2|1:0|0:0,0:0:0:0:
443,271,51711,1,0,1:2:0:0:
332,180,51865,1,10,0:0:0:0:
332,180,51942,1,8,3:0:0:0:
332,180,52019,1,8,3:0:0:0:
332,180,52096,1,8,3:0:0:0:
332,180,52173,6,0,L|345:127,2,39.5599986719971,8|8|2,3:0|3:0|1:2,0:0:0:0:
231,110,52481,1,10,0:0:0:0:
129,216,52634,1,2,1:2:0:0:
129,216,52711,1,0,1:2:0:0:
129,216,52788,2,0,P|177:220|203:270,1,79.1199973439942,14|2,0:0|0:0,0:0:0:0:
299,331,53096,2,0,P|290:280|279:234,1,79.1199973439942,2|2,1:2|1:2,0:0:0:0:
480,193,53404,6,0,P|433:202|395:166,1,79.1199973439942,14|2,0:0|1:2,0:0:0:0:
398,186,53634,1,0,1:2:0:0:
391,182,53711,2,0,P|400:131|411:85,1,79.1199973439942,14|0,0:0|0:0,0:0:0:0:
197,34,54019,6,0,P|166:25|149:13,1,39.5599986719971,8|8,0:0|0:0,0:0:0:0:
20,98,54173,2,0,P|51:107|68:119,1,39.5599986719971,8|8,0:0|0:0,0:0:0:0:
156,229,54327,1,8,0:0:0:0:
156,229,54404,1,8,0:0:0:0:
156,229,54481,1,6,1:2:0:0:
156,229,54557,1,0,0:0:0:0:
156,229,54634,6,0,P|152:178|139:111,1,106.639995769287,0|0,3:0|0:0,0:0:0:0:
142,123,55096,1,0,0:0:0:0:
320,202,55250,2,0,P|324:255|333:307,1,106.639995769287,0|0,3:0|1:0,0:0:0:0:
79,356,55865,6,0,P|56:350|37:346,3,26.6599989423218,0|0|0|0,3:0|0:0|0:0|0:0,0:0:0:0:
102,370,56173,2,0,P|147:359|214:349,1,106.639995769287,0|0,0:0|3:0,0:0:0:0:
395,340,56634,2,0,P|371:371|303:367,1,106.639995769287,0|0,0:0|3:0,0:0:0:0:
251,271,57096,6,0,P|260:218|264:165,1,106.639995769287,0|0,1:0|0:0,0:0:0:0:
457,38,57711,6,0,P|461:91|470:143,1,106.639995769287,0|0,3:0|1:0,0:0:0:0:
470,143,58327,1,0,1:0:0:0:
400,220,58557,2,0,P|354:205|250:190,1,133.299994711609,0|0,1:0|3:0,0:0:0:0:
168,20,59250,6,0,P|162:58|157:89,1,53.3199978846436,0|0,1:0|0:0,0:0:0:0:
84,103,59557,2,0,P|124:109|141:175,1,106.639995769287,0|0,1:0|0:0,0:0:0:0:
267,290,60173,2,0,P|227:296|210:362,1,106.639995769287,0|0,3:0|1:0,0:0:0:0:
366,336,60788,6,0,P|412:342|487:370,1,106.639995769287
342,251,61404,1,8,0:0:0:0:
342,251,61481,1,8,0:0:0:0:
342,251,61557,2,0,P|347:224|359:189,1,39.5599986719971,8|8,3:0|3:0,0:0:0:0:
415,169,61711,1,4,3:0:0:0:
256,45,61865,5,4,1:2:0:0:
43,240,62788,5,2,1:2:0:0:
43,240,62865,1,0,1:2:0:0:
43,240,62942,1,10,0:2:0:0:
96,309,63096,1,6,1:2:0:0:
362,364,63865,6,0,P|339:357|311:353,3,39.5599986719971,10|8|10|8,0:0|0:0|0:0|0:0,0:0:0:0:
242,338,64173,1,10,0:0:0:0:
242,338,64250,1,8,0:0:0:0:
242,338,64327,6,0,P|303:349|344:253,1,175.440001070801,6|2,1:2|1:2,0:0:0:0:
254,180,64788,2,0,P|267:125|282:86,1,87.7200005354004,10|0,0:0|0:0,0:0:0:0:
130,0,65096,2,0,P|150:39|209:39,1,87.7200005354004,0|2,1:0|0:0,0:0:0:0:
347,14,65404,1,10,0:0:0:0:
351,183,65557,6,0,P|281:153|171:139,1,175.440001070801,2|2,0:0|0:0,0:0:0:0:
183,138,66019,1,10,0:0:0:0:
37,273,66173,2,0,P|55:237|108:224,1,87.7200005354004,2|0,0:0|1:0,0:0:0:0:
255,350,66481,1,2,0:0:0:0:
246,345,66634,1,10,0:0:0:0:
199,166,66788,6,0,P|176:231|142:349,1,175.440001070801,2|2,0:0|0:0,0:0:0:0:
94,136,67250,1,10,0:0:0:0:
238,280,67404,1,2,0:0:0:0:
352,102,67557,1,2,1:2:0:0:
199,166,67711,1,2,0:0:0:0:
21,24,67865,5,10,0:0:0:0:
23,15,68019,2,0,P|73:14|100:68,1,87.7200005354004,2|0,0:0|1:2,0:0:0:0:
120,229,68327,5,10,0:0:0:0:
182,49,68481,1,10,0:0:0:0:
116,240,68634,1,8,0:0:0:0:
302,246,68788,5,10,0:0:0:0:
305,238,68865,1,8,0:0:0:0:
308,231,68942,2,0,P|287:222|247:214,1,43.8600002677002,10|8,0:0|0:0,0:0:0:0:
58,118,69096,1,10,0:0:0:0:
58,118,69173,1,8,0:0:0:0:
58,118,69250,6,0,P|106:145|192:72,1,175.440001070801,6|2,1:2|1:2,0:0:0:0:
342,0,69711,2,0,P|300:9|285:68,1,87.7200005354004,10|0,0:0|0:0,0:0:0:0:
343,158,70019,2,0,P|399:179|437:207,1,87.7200005354004,0|2,1:2|0:0,0:0:0:0:
251,266,70327,1,10,0:0:0:0:
431,95,70481,6,0,P|435:161|457:288,1,175.440001070801,2|2,0:0|0:0,0:0:0:0:
342,365,70942,1,10,0:0:0:0:
178,311,71096,2,0,P|233:325|296:229,1,175.440001070801,2|2,0:0|0:0,0:0:0:0:
298,241,71557,1,10,0:0:0:0:
42,147,71711,6,0,P|107:152|215:208,1,175.440001070801,2|0,0:0|0:0,0:0:0:0:
103,321,72173,2,0,P|110:268|164:257,1,87.7200005354004,10|0,0:0|0:0,0:0:0:0:
284,99,72481,1,8,0:0:0:0:
275,94,72557,1,0,1:0:0:0:
265,89,72634,2,0,P|271:130|275:153,1,43.8600002677002,2|0,1:2|1:0,0:0:0:0:
404,261,72788,1,2,1:2:0:0:
240,369,72942,6,0,P|246:322|265:277,1,87.7200005354004,6|0,1:2|0:0,0:0:0:0:
358,159,73250,1,8,3:0:0:0:
135,166,73404,2,0,P|183:172|212:220,1,87.7200005354004,4|0,3:0|1:0,0:0:0:0:
332,334,73711,5,10,2:0:0:0:
300,220,73865,1,0,1:0:0:0:
268,106,74019,1,10,2:0:0:0:
507,30,74173,6,0,P|477:83|364:70,1,175.440001070801,6|2,1:2|0:0,0:0:0:0:
292,0,74634,2,0,P|252:18|209:28,1,87.7200005354004,10|0,0:0|0:0,0:0:0:0:
20,127,74942,2,0,P|62:137|102:155,1,87.7200005354004,0|2,1:2|0:0,0:0:0:0:
243,231,75250,1,10,0:0:0:0:
144,16,75404,6,0,P|105:20|76:74,1,87.7200005354004,2|0,0:0|1:2,0:0:0:0:
223,149,75711,1,2,0:0:0:0:
233,143,75865,1,10,0:0:0:0:
37,256,76019,2,0,P|52:202|69:154,1,87.7200005354004,2|0,0:0|1:2,0:0:0:0:
214,312,76327,1,2,0:0:0:0:
84,375,76481,1,10,0:0:0:0:
204,215,76634,6,0,B|253:193|299:252|255:242|304:300|361:269,1,175.440001070801,2|2,0:0|0:0,0:0:0:0:
498,372,77096,2,0,P|452:365|427:310,1,87.7200005354004,10|2,0:0|0:0,0:0:0:0:
452,155,77404,2,0,P|438:201|423:265,1,87.7200005354004,2|2,1:2|0:0,0:0:0:0:
351,92,77711,1,10,0:0:0:0:
508,261,77865,6,0,P|490:174|462:72,1,175.440001070801,14|2,0:0|1:2,0:0:0:0:
318,245,78327,1,8,0:0:0:0:
384,15,78481,5,10,0:0:0:0:
384,15,78557,1,8,0:0:0:0:
384,15,78634,2,0,P|378:40|367:90,1,43.8600002677002,8|8,0:0|0:0,0:0:0:0:
294,255,78788,2,0,P|289:233|283:212,1,43.8600002677002,10|8,0:0|0:0,0:0:0:0:
113,64,78942,5,8,0:0:0:0:
113,64,79019,1,8,0:0:0:0:
113,64,79096,2,0,B|162:40|204:83|204:83|222:139|291:117,1,175.440001070801,6|0,1:2|1:2,0:0:0:0:
335,166,79481,1,0,1:2:0:0:
339,160,79557,2,0,P|331:112|309:49,1,87.7200005354004,8|2,0:0|1:2,0:0:0:0:
325,68,79788,1,0,1:2:0:0:
330,57,79865,1,10,0:0:0:0:
436,236,80019,2,0,P|468:253|494:256,2,43.8600002677002,2|0|10,1:2|1:2|0:0,0:0:0:0:
261,335,80327,5,2,1:2:0:0:
261,335,80404,1,0,1:2:0:0:
261,335,80481,2,0,P|303:319|355:311,1,87.7200005354004,8|2,0:0|1:2,0:0:0:0:
353,317,80711,1,0,1:2:0:0:
361,324,80788,1,8,0:0:0:0:
190,231,80942,1,2,1:2:0:0:
190,231,81019,1,0,1:2:0:0:
190,231,81096,1,10,0:0:0:0:
388,103,81250,2,0,P|379:137|373:164,1,43.8600002677002,0|0,1:2|1:2,0:0:0:0:
454,332,81404,1,8,0:0:0:0:
240,167,81557,6,0,B|214:83|214:83|235:28|298:48,1,175.440001070801,6|2,1:2|1:2,0:0:0:0:
433,253,82019,2,0,P|398:261|337:209,1,87.7200005354004,10|2,0:0|1:2,0:0:0:0:
158,364,82327,1,10,0:0:0:0:
165,355,82481,1,0,0:0:0:0:
294,376,82634,2,0,P|278:324|254:275,1,87.7200005354004,2|0,1:2|1:2,0:0:0:0:
338,93,82942,5,10,0:0:0:0:
217,218,83096,1,2,1:2:0:0:
77,75,83250,2,0,P|59:115|47:157,1,87.7200005354004,14|0,0:0|0:0,0:0:0:0:
228,309,83557,5,10,0:0:0:0:
237,305,83634,1,8,0:0:0:0:
246,301,83711,1,10,0:0:0:0:
255,297,83788,1,8,0:0:0:0:
264,293,83865,1,10,0:0:0:0:
420,366,84019,1,2,1:2:0:0:
495,186,84173,6,0,P|434:186|387:266,1,141.0400021521,0|0,3:0|0:0,0:0:0:0:
387,245,84634,1,0,0:0:0:0:
293,184,84788,2,0,P|301:143|315:101,1,70.5200010760498,0|0,3:0|0:0,0:0:0:0:
164,28,85096,2,0,P|183:57|230:59,1,70.5200010760498,0|0,1:2|0:0,0:0:0:0:
408,9,85404,6,0,P|416:65|438:153,2,141.0400021521,0|0|0,0:0|0:0|3:0,0:0:0:0:
249,207,86327,2,0,P|265:165|273:125,1,70.5200010760498,0|0,1:2|0:0,0:0:0:0:
146,227,86634,6,0,P|201:224|246:309,1,141.0400021521,0|0,1:2|0:0,0:0:0:0:
248,288,87096,1,0,0:0:0:0:
87,108,87250,5,8,0:0:0:0:
75,117,87327,1,8,0:0:0:0:
61,119,87404,1,8,3:0:0:0:
46,120,87481,1,8,3:0:0:0:
31,117,87557,2,0,L|42:68,3,35.2600005380249,4|4|0|0,3:0|3:0|1:0|0:0,0:0:0:0:
0,12,87865,5,2,0:0:0:0:
139,93,88019,1,2,0:0:0:0:
213,167,88173,5,2,0:0:0:0:
352,86,88327,1,2,0:0:0:0:
430,156,88481,5,0,1:0:0:0:
430,156,88557,1,0,1:0:0:0:
430,156,88634,1,2,1:2:0:0:
265,50,88788,1,0,1:0:0:0:
323,182,88942,6,0,P|307:246|287:351,1,141.0400021521,6|2,1:2|0:0,0:0:0:0:
