osu file format v14

[General]
AudioFilename: audio.mp3
AudioLeadIn: 0
PreviewTime: 63788
Countdown: 0
SampleSet: Soft
StackLeniency: 0.7
Mode: 0
LetterboxInBreaks: 0
WidescreenStoryboard: 1

[Editor]
DistanceSpacing: 1.3
BeatDivisor: 4
GridSize: 32
TimelineZoom: 1.7

[Metadata]
Title:Chaos ga Kiwamaru (TV Size)
TitleUnicode:カオスが極まる (TV Size)
Artist:UNISON SQUARE GARDEN
ArtistUnicode:UNISON SQUARE GARDEN
Creator:Sajinn
Version:Pepekcz's Hard
Source:ブルーロック
Tags:blue lock football anime rock jrock japanese rock j-rock soccer opening op basensorex kujinn reform pepekcz spokenaway male vocals vocalist
BeatmapID:3831526
BeatmapSetID:1863294

[Difficulty]
HPDrainRate:4
CircleSize:3.8
OverallDifficulty:6.5
ApproachRate:8
SliderMultiplier:1.4
SliderTickRate:1

[Events]
//Background and Video events
0,0,"1165712.jpg",0,0
//Break Periods
//Storyboard Layer 0 (Background)
//Storyboard Layer 1 (Fail)
//Storyboard Layer 2 (Pass)
//Storyboard Layer 3 (Foreground)
//Storyboard Layer 4 (Overlay)
//Storyboard Sound Samples

[TimingPoints]
481,307.692307692308,4,2,1,70,1,0
5250,-100,4,2,1,70,0,0
12634,-111.111111111111,4,2,1,70,0,0
12942,-111.111111111111,4,2,1,60,0,0
15096,-125,4,2,1,60,0,0
17711,-111.111111111111,4,2,1,70,0,0
20019,-125,4,2,1,60,0,0
22634,-111.111111111111,4,2,1,70,0,0
24942,-111.111111111111,4,2,1,70,0,0
25250,-111.111111111111,4,2,1,60,0,0
34788,-125,4,2,1,60,0,0
44327,-125,4,2,1,70,0,0
44634,-111.111111111111,4,2,1,70,0,0
49557,-100,4,2,1,70,0,0
49865,-100,4,2,1,80,0,0
54481,-111.111111111111,4,2,1,80,0,0
54634,-111.111111111111,4,2,1,60,0,0
61404,-111.111111111111,4,2,1,70,0,0
61865,-125,4,2,1,70,0,0
63865,-111.111111111111,4,2,1,90,0,0
64327,-100,4,2,1,90,0,1
74096,-100,4,2,1,90,0,0
74173,-100,4,2,1,90,0,1
84019,-111.111111111111,4,2,1,90,0,0
84173,-111.111111111111,4,2,1,60,0,0
87250,-111.111111111111,4,2,1,70,0,0
87865,-99.9999999999999,4,2,1,70,0,0

[Colours]
Combo1 : 223,169,235
Combo2 : 138,247,111
Combo3 : 244,165,94
Combo4 : 140,228,244

[HitObjects]
470,374,481,6,0,P|441:360|426:321,1,70,10|10,0:0|0:0,0:0:0:0:
492,235,788,1,10,0:0:0:0:
492,235,942,2,0,P|486:183|466:87,1,140,6|8,1:2|3:0,0:0:0:0:
400,35,1404,1,8,3:0:0:0:
313,62,1557,5,2,1:2:0:0:
303,57,1634,1,0,1:0:0:0:
292,54,1711,2,0,P|269:54|241:62,3,35,2|0|2|0,1:2|1:0|1:2|1:0,0:0:0:0:
247,51,2019,2,0,P|227:62|206:83,3,35,8|8|2|0,3:0|3:0|1:2|1:0,0:0:0:0:
209,76,2327,1,14,0:2:0:0:
121,49,2481,1,10,0:0:0:0:
49,104,2634,2,0,P|62:148|69:185,1,70,10|8,0:0|0:0,0:0:0:0:
0,262,2942,6,0,P|13:306|20:343,1,70,6|8,1:2|0:0,0:0:0:0:
21,339,3173,1,8,0:0:0:0:
24,348,3250,1,8,0:0:0:0:
114,336,3404,2,0,P|101:292|94:255,1,70,6|8,1:2|0:0,0:0:0:0:
93,258,3635,1,8,0:0:0:0:
90,247,3712,1,8,0:0:0:0:
178,228,3865,6,0,P|191:272|198:309,1,70,6|8,1:2|0:0,0:0:0:0:
199,305,4096,1,8,0:0:0:0:
202,314,4173,1,8,0:0:0:0:
292,346,4327,1,6,1:2:0:0:
292,346,4481,1,8,0:0:0:0:
384,282,4634,2,0,P|365:245|382:145,1,140,6|8,1:2|0:0,0:0:0:0:
442,56,5096,5,8,3:0:0:0:
442,56,5250,2,0,P|392:60|283:95,1,140,6|2,1:2|1:2,0:0:0:0:
224,125,5711,1,10,0:0:0:0:
224,125,5865,2,0,P|238:186|242:217,1,70,2|0,0:0|1:2,0:0:0:0:
212,281,6173,2,0,P|165:292|135:300,1,70,2|8,0:0|0:0,0:0:0:0:
64,252,6481,6,0,P|94:312|72:377,2,140,2|2|2,0:0|0:0|0:0,0:0:0:0:
9,178,7250,1,0,1:2:0:0:
9,178,7404,2,0,P|-2:145|1:110,1,70,2|8,0:0|0:0,0:0:0:0:
70,51,7711,6,0,B|146:57|122:83|214:97,1,140,2|2,0:0|0:0,0:0:0:0:
284,56,8173,1,10,0:0:0:0:
284,56,8327,2,0,P|315:44|358:49,1,70,2|0,0:0|1:2,0:0:0:0:
432,5,8634,2,0,P|457:25|475:65,1,70,10|0,0:0|1:2,0:0:0:0:
398,143,8942,5,10,0:0:0:0:
464,204,9096,1,0,1:2:0:0:
461,214,9173,1,0,1:2:0:0:
458,224,9250,2,0,L|445:273,3,35,10|8|0|0,0:0|0:0|1:2|1:2,0:0:0:0:
440,264,9557,2,0,L|391:251,3,35,10|8|8|8,0:0|0:0|0:0|0:0,0:0:0:0:
396,260,9865,2,0,L|362:268,3,35,8|8|4|4,3:0|3:0|3:0|3:0,0:0:0:0:
341,262,10173,6,0,P|281:242|203:228,1,140,6|10,1:2|0:0,0:0:0:0:
128,276,10634,2,0,P|83:260|65:226,1,70,2|10,1:2|0:0,0:0:0:0:
66,233,10865,1,8,0:0:0:0:
66,222,10942,1,10,0:0:0:0:
108,143,11096,1,10,0:0:0:0:
108,143,11250,1,2,1:2:0:0:
60,65,11404,5,10,0:0:0:0:
60,65,11557,1,4,3:0:0:0:
135,13,11711,2,0,P|179:21|218:32,1,70,10|2,0:0|0:0,0:0:0:0:
267,92,12019,1,6,1:2:0:0:
432,14,12327,1,6,1:2:0:0:
501,161,12634,6,0,P|451:169|455:250,1,125.999996154785,6|0,1:2|1:2,0:0:0:0:
483,311,13096,1,10,0:0:0:0:
483,311,13250,2,0,P|447:320|407:338,1,62.9999980773926,2|8,0:0|0:0,0:0:0:0:
349,307,13557,1,2,0:0:0:0:
349,307,13711,2,0,P|319:295|289:288,1,62.9999980773926,10|2,0:0|0:0,0:0:0:0:
210,315,14019,6,0,P|218:350|224:387,2,62.9999980773926,10|0|8,0:0|1:2|0:0,0:0:0:0:
229,234,14481,1,2,1:0:0:0:
229,234,15096,6,0,P|276:213|271:152,1,112,6|2,1:2|1:2,0:0:0:0:
237,90,15557,1,10,0:0:0:0:
84,125,15865,2,0,P|51:116|19:110,2,56,2|0|10,1:2|1:2|0:0,0:0:0:0:
161,261,16481,6,0,P|188:266|215:274,1,56,2|2,1:2|1:2,0:0:0:0:
270,337,16788,1,8,0:0:0:0:
270,337,16942,2,0,P|332:322|393:317,1,112,2|2,0:0|1:2,0:0:0:0:
458,306,17404,1,10,0:0:0:0:
483,131,17711,6,0,P|485:99|473:70,1,62.9999980773926,6|10,1:2|0:0,0:0:0:0:
429,0,18019,2,0,P|397:-3|368:9,1,62.9999980773926,2|8,1:2|0:0,0:0:0:0:
361,15,18250,1,8,0:0:0:0:
347,21,18327,2,0,P|335:50|337:81,1,62.9999980773926,10|8,0:2|0:0,0:0:0:0:
258,104,18634,1,2,1:2:0:0:
190,58,18788,6,0,P|146:68|124:76,1,62.9999980773926,10|8,0:0|0:0,0:0:0:0:
120,78,19019,1,8,0:0:0:0:
111,82,19096,1,10,0:0:0:0:
50,137,19250,1,8,0:0:0:0:
48,146,19327,1,8,0:0:0:0:
45,155,19404,2,0,L|55:203,3,31.4999990386963,10|8|8|8,0:0|0:0|0:0|3:0,0:0:0:0:
50,195,19711,2,0,L|60:243,3,31.4999990386963,8|8|8|8,3:0|3:0|3:0|3:0,0:0:0:0:
53,242,20019,6,0,P|103:251|174:279,1,112,6|2,1:2|1:2,0:0:0:0:
234,298,20481,1,10,0:0:0:0:
328,173,20788,2,0,L|315:107,2,56,2|0|10,1:2|1:2|0:0,0:0:0:0:
474,230,21404,6,0,L|463:284,1,56,2|2,1:2|1:2,0:0:0:0:
480,365,21711,1,8,0:0:0:0:
480,365,21865,2,0,B|420:373|432:337|368:345,1,112,2|2,0:0|1:2,0:0:0:0:
295,362,22327,1,10,0:0:0:0:
129,303,22634,6,0,L|117:378,1,62.9999980773926,6|10,1:2|0:0,0:0:0:0:
37,356,22942,2,0,L|46:293,1,62.9999980773926,10|10,0:0|0:0,0:0:0:0:
49,284,23173,1,8,0:0:0:0:
51,274,23250,1,10,0:0:0:0:
97,207,23404,1,10,0:0:0:0:
97,207,23557,2,0,L|87:144,1,62.9999980773926,2|10,1:2|0:0,0:0:0:0:
20,95,23865,6,0,L|28:52,3,31.4999990386963,2|8|8|8,1:2|0:0|0:0|0:0,0:0:0:0:
28,54,24173,1,10,0:0:0:0:
100,14,24327,1,6,1:2:0:0:
235,105,24634,1,6,1:2:0:0:
384,38,24942,6,0,P|397:95|404:175,1,125.999996154785,6|2,1:2|0:0,0:0:0:0:
460,228,25404,1,8,0:0:0:0:
460,228,25557,2,0,P|454:258|447:302,1,62.9999980773926,2|0,0:0|1:0,0:0:0:0:
389,347,25865,1,2,0:0:0:0:
389,347,26019,2,0,P|359:341|315:334,1,62.9999980773926,10|2,0:0|0:0,0:0:0:0:
266,279,26327,6,0,P|271:247|277:217,2,62.9999980773926,2|2|10,1:2|0:0|0:0,0:0:0:0:
204,332,26788,2,0,B|137:338|149:366|77:374,1,125.999996154785,2|0,0:0|0:0,0:0:0:0:
19,324,27250,1,10,0:0:0:0:
28,160,27557,6,0,P|85:140|159:130,1,125.999996154785,2|10,1:2|0:0,0:0:0:0:
219,86,28019,1,2,0:0:0:0:
228,88,28096,1,2,0:0:0:0:
236,90,28173,2,0,P|273:99|305:111,1,62.9999980773926,2|2,1:2|0:0,0:0:0:0:
369,69,28481,2,0,P|403:112|411:131,1,62.9999980773926,10|2,0:0|0:0,0:0:0:0:
436,195,28788,6,0,P|469:200|502:208,2,62.9999980773926,2|2|10,1:2|0:0|0:0,0:0:0:0:
361,230,29250,2,0,P|299:216|225:206,1,125.999996154785,2|0,0:0|0:0,0:0:0:0:
156,192,29711,1,10,0:0:0:0:
26,291,30019,2,0,L|38:352,2,62.9999980773926,2|2|10,1:2|0:0|0:0,0:0:0:0:
84,232,30481,1,2,0:0:0:0:
84,232,30634,2,0,L|71:170,2,62.9999980773926,2|2|10,1:2|0:0|0:0,0:0:0:0:
147,284,31096,6,0,P|195:290|288:317,1,125.999996154785,2|2,0:0|0:0,0:0:0:0:
340,361,31557,1,10,0:0:0:0:
340,361,31711,2,0,P|396:357|416:281,1,125.999996154785,2|0,0:0|0:0,0:0:0:0:
389,222,32173,1,10,0:0:0:0:
463,75,32481,6,0,P|435:59|401:59,1,62.9999980773926,2|0,1:2|0:0,0:0:0:0:
336,13,32788,2,0,P|308:29|291:58,1,62.9999980773926,10|0,0:0|0:0,0:0:0:0:
290,137,33096,2,0,P|262:153|228:153,1,62.9999980773926,2|0,1:2|0:0,0:0:0:0:
163,199,33403,2,0,P|135:182|118:153,1,62.9999980773926,10|0,0:0|0:0,0:0:0:0:
129,74,33711,1,2,1:2:0:0:
2,177,34019,6,0,L|14:233,2,41.9999987182618,8|8|8,3:0|3:0|3:0,0:0:0:0:
49,110,34327,6,0,L|40:68,2,41.9999987182618,4|4|4,3:0|3:0|3:0,0:0:0:0:
119,156,34634,5,4,3:0:0:0:
119,156,34788,2,0,B|149:147|179:166|179:166|197:185|239:183,1,112,6|0,1:2|0:0,0:0:0:0:
293,146,35250,1,0,0:0:0:0:
438,203,35557,1,8,0:0:0:0:
364,341,35865,2,0,L|302:328,1,56,2|4,0:0|3:0,0:0:0:0:
236,353,36173,5,2,0:0:0:0:
236,353,36327,2,0,L|181:364,1,56,2|0,0:0|1:0,0:0:0:0:
52,273,36788,1,8,0:0:0:0:
52,273,36942,2,0,L|64:209,1,56,2|0,0:0|0:0,0:0:0:0:
135,187,37250,6,0,P|86:167|91:106,2,112,6|2|0,1:2|0:0|0:0,0:0:0:0:
193,134,38019,1,8,0:0:0:0:
339,191,38327,2,0,L|331:248,1,56,2|4,0:0|3:0,0:0:0:0:
257,237,38634,5,2,0:0:0:0:
257,237,38788,2,0,L|264:181,1,56,2|0,0:0|1:0,0:0:0:0:
325,36,39250,1,8,0:0:0:0:
325,36,39404,2,0,P|291:42|264:49,1,56,2|0,0:0|0:0,0:0:0:0:
202,87,39711,6,0,P|149:72|89:61,2,112,6|2|0,1:2|0:0|0:0,0:0:0:0:
251,148,40481,1,8,0:0:0:0:
153,270,40788,2,0,L|165:335,1,56,2|4,0:0|3:0,0:0:0:0:
236,365,41096,5,2,0:0:0:0:
236,365,41250,2,0,L|301:353,1,56,2|0,0:0|1:0,0:0:0:0:
446,330,41711,1,8,0:0:0:0:
446,330,41865,2,0,P|455:302|451:271,1,56,2|0,0:0|0:0,0:0:0:0:
380,242,42173,6,0,P|356:276|370:345,2,112,6|2|0,1:2|0:0|0:0,0:0:0:0:
445,198,42942,1,8,0:0:0:0:
340,80,43250,2,0,P|309:68|284:66,1,56,2|0,1:2|0:0,0:0:0:0:
217,102,43557,6,0,P|174:136|106:124,1,112,10|10,0:0|0:0,0:0:0:0:
47,99,44019,1,2,0:0:0:0:
7,166,44173,1,8,0:0:0:0:
9,174,44250,1,8,0:0:0:0:
11,182,44327,2,0,L|23:227,3,28,10|8|8|8,0:0|0:0|0:0|0:0,0:0:0:0:
23,227,44634,5,6,1:2:0:0:
120,358,44942,2,0,P|148:329|238:334,1,125.999996154785,10|8,0:0|0:0,0:0:0:0:
305,358,45404,2,0,L|317:314,3,31.4999990386963,8|8|8|8,0:0|0:0|0:0|0:0,0:0:0:0:
311,318,45711,2,0,L|299:246,1,62.9999980773926,8|8,0:0|0:0,0:0:0:0:
328,178,46019,6,0,P|274:169|270:94,1,125.999996154785,10|10,0:0|0:0,0:0:0:0:
321,49,46481,2,0,L|366:35,3,31.4999990386963,10|8|8|8,0:0|0:0|0:0|0:0,0:0:0:0:
360,41,46788,2,0,L|405:27,3,31.4999990386963,10|8|8|8,0:0|0:0|0:0|0:0,0:0:0:0:
409,29,47096,5,6,1:2:0:0:
488,172,47404,2,0,L|472:245,1,62.9999980773926,8|8,3:0|0:0,0:0:0:0:
488,314,47711,2,0,P|425:323|352:344,1,125.999996154785,6|8,1:2|3:0,0:0:0:0:
295,305,48173,5,8,3:0:0:0:
295,305,48327,1,6,1:2:0:0:
142,364,48634,1,6,1:2:0:0:
39,236,48942,2,0,P|43:203|53:167,1,62.9999980773926,6|0,1:2|0:0,0:0:0:0:
11,101,49250,2,0,P|6:68|-3:32,1,62.9999980773926,6|0,1:2|0:0,0:0:0:0:
100,14,49557,6,0,P|175:25|249:48,1,140,6|2,1:2|1:2,0:0:0:0:
246,47,49942,1,0,1:0:0:0:
255,51,50019,1,10,0:0:0:0:
344,32,50173,2,0,P|362:62|361:111,1,70,2|8,1:2|0:0,0:0:0:0:
321,177,50481,2,0,L|328:230,2,35,2|0|10,1:2|1:0|0:0,0:0:0:0:
230,190,50788,2,0,L|234:224,2,35,2|0|8,1:2|1:0|0:0,0:0:0:0:
139,173,51096,6,0,L|134:138,2,35,2|0|10,1:2|1:0|0:0,0:0:0:0:
48,185,51404,2,0,L|43:150,2,35,2|0|8,1:2|1:0|0:0,0:0:0:0:
26,273,51711,1,0,1:2:0:0:
28,283,51788,1,0,1:0:0:0:
30,293,51865,2,0,P|67:300|110:310,1,70,10|8,0:0|3:0,0:0:0:0:
180,349,52173,6,0,L|175:383,2,35,8|8|2,3:0|3:0|1:2,0:0:0:0:
252,292,52481,1,10,0:0:0:0:
327,342,52634,1,2,1:2:0:0:
337,345,52711,1,0,1:2:0:0:
346,348,52788,2,0,P|404:360|429:292,1,140,14|2,0:0|1:2,0:0:0:0:
385,215,53250,5,2,1:2:0:0:
385,215,53404,2,0,P|390:169|395:140,1,70,14|2,0:0|1:2,0:0:0:0:
397,135,53634,1,0,1:2:0:0:
400,124,53711,1,14,0:0:0:0:
242,32,54019,1,8,0:0:0:0:
232,35,54096,1,8,0:0:0:0:
222,38,54173,2,0,L|188:48,3,35,8|8|8|8,0:0|0:0|0:0|0:0,0:0:0:0:
171,56,54481,5,6,1:2:0:0:
90,42,54634,2,0,L|59:246,1,188.999994232178,0|0,3:0|0:0,0:0:0:0:
107,303,55250,1,0,3:0:0:0:
107,303,55404,1,0,0:0:0:0:
181,271,55557,2,0,L|253:255,1,62.9999980773926,0|0,1:0|0:0,0:0:0:0:
251,255,55788,5,0,0:0:0:0:
260,254,55865,2,0,L|301:262,3,31.4999990386963,0|0|0|0,3:0|0:0|0:0|0:0,0:0:0:0:
299,263,56173,1,0,0:0:0:0:
448,329,56481,2,0,B|461:298|461:298|455:268,1,62.9999980773926,0|0,3:0|0:0,0:0:0:0:
386,224,56788,2,0,B|373:193|373:193|379:163,1,62.9999980773926,0|0,1:0|3:0,0:0:0:0:
389,82,57096,6,0,B|450:66|450:66|456:67|456:67|511:54,2,125.999996154785,0|0|0,1:0|0:0|3:0,0:0:0:0:
227,53,58019,2,0,L|160:42,1,62.9999980773926,0|0,1:0|0:0,0:0:0:0:
93,83,58327,5,0,1:0:0:0:
93,83,58481,1,0,0:0:0:0:
28,132,58634,2,0,B|62:185|62:185|34:254,1,125.999996154785,0|0,0:0|3:0,0:0:0:0:
20,326,59096,1,0,0:0:0:0:
20,326,59250,2,0,L|87:315,1,62.9999980773926,0|0,1:0|0:0,0:0:0:0:
153,355,59557,6,0,B|171:260|171:260|176:257|176:257|193:167,1,188.999994232178,0|0,1:0|0:0,0:0:0:0:
141,106,60173,1,0,3:0:0:0:
141,106,60327,1,0,0:0:0:0:
205,55,60481,1,0,1:0:0:0:
360,105,60788,6,0,L|351:42,1,62.9999980773926
433,35,61096,2,0,L|441:97,1,62.9999980773926
481,169,61404,1,8,0:0:0:0:
478,178,61481,1,8,0:0:0:0:
475,187,61557,2,0,L|468:217,3,31.4999990386963,8|8|4|4,3:0|3:0|3:0|3:0,0:0:0:0:
464,234,61865,5,4,1:2:0:0:
41,345,62788,2,0,L|45:372,2,28,2|0|10,1:2|1:2|0:2,0:0:0:0:
93,269,63096,2,0,P|50:250|50:181,1,112,6|0,1:2|0:0,0:0:0:0:
234,35,63865,1,10,0:0:0:0:
243,37,63942,1,8,0:0:0:0:
252,39,64019,2,0,L|300:49,3,31.4999990386963,10|8|10|8,0:0|0:0|0:0|0:0,0:0:0:0:
299,57,64327,6,0,P|333:47|367:40,1,70,6|0,1:2|0:0,0:0:0:0:
426,124,64634,1,2,1:2:0:0:
426,124,64788,2,0,P|361:141|273:172,1,140,10|0,0:0|1:0,0:0:0:0:
201,124,65250,1,2,0:0:0:0:
113,164,65404,5,10,0:0:0:0:
113,164,65557,2,0,P|104:203|96:251,1,70,2|0,0:0|1:0,0:0:0:0:
41,313,65865,1,2,0:0:0:0:
126,371,66019,1,10,0:0:0:0:
126,371,66173,2,0,P|192:356|280:341,1,140,2|2,0:0|0:0,0:0:0:0:
361,373,66634,5,10,0:0:0:0:
361,373,66788,2,0,P|373:337|365:294,1,70,2|0,0:0|1:0,0:0:0:0:
321,219,67096,1,2,0:0:0:0:
379,140,67250,1,10,0:0:0:0:
379,140,67404,1,2,0:0:0:0:
324,59,67557,2,0,P|289:68|251:82,1,70,2|2,1:2|0:0,0:0:0:0:
168,47,67865,5,10,0:0:0:0:
168,47,68019,2,0,P|135:35|101:26,1,70,2|0,0:0|1:2,0:0:0:0:
22,86,68327,1,10,0:0:0:0:
22,86,68481,2,0,P|28:119|36:168,1,70,10|8,0:0|0:0,0:0:0:0:
12,250,68788,1,10,0:0:0:0:
13,260,68865,1,8,0:0:0:0:
15,270,68942,2,0,L|22:331,3,35,10|8|10|8,0:0|0:0|0:0|0:0,0:0:0:0:
22,325,69250,6,0,P|52:345|89:345,1,70,6|0,1:2|0:0,0:0:0:0:
163,286,69557,1,2,1:2:0:0:
163,286,69711,2,0,P|200:257|296:266,1,140,10|0,0:0|1:2,0:0:0:0:
361,328,70173,1,2,0:0:0:0:
446,278,70327,5,10,0:0:0:0:
446,278,70481,2,0,P|423:248|456:152,1,140,2|2,0:0|0:0,0:0:0:0:
474,65,70942,1,10,0:0:0:0:
474,65,71096,2,0,B|399:71|422:100|330:105,1,140,2|2,0:0|0:0,0:0:0:0:
254,57,71557,1,10,0:0:0:0:
167,103,71711,5,2,1:2:0:0:
168,113,71788,1,0,1:2:0:0:
170,123,71865,2,0,L|181:202,1,70,0|0,1:2|0:0,0:0:0:0:
272,225,72173,2,0,L|261:304,1,70,10|0,0:0|0:0,0:0:0:0:
189,361,72481,1,8,0:0:0:0:
179,357,72557,1,0,1:0:0:0:
168,354,72634,2,0,L|125:364,3,35,2|0|2|0,1:2|1:0|1:2|1:0,0:0:0:0:
114,370,72942,6,0,P|53:370|38:294,1,140,6|8,1:2|3:0,0:0:0:0:
95,227,73404,1,4,3:0:0:0:
93,216,73481,1,0,1:0:0:0:
91,205,73557,1,0,1:0:0:0:
27,130,73711,1,10,2:0:0:0:
27,130,73865,1,0,1:0:0:0:
108,74,74019,1,10,2:0:0:0:
205,132,74173,6,0,P|236:146|271:147,1,70,6|0,1:2|0:0,0:0:0:0:
357,97,74481,1,2,0:0:0:0:
357,97,74634,2,0,P|427:103|438:176,1,140,10|0,0:0|1:2,0:0:0:0:
402,251,75096,1,2,0:0:0:0:
449,342,75250,5,10,0:0:0:0:
449,342,75404,2,0,P|403:355|366:366,1,70,2|0,0:0|1:2,0:0:0:0:
294,316,75711,1,2,0:0:0:0:
205,358,75865,1,10,0:0:0:0:
205,358,76019,2,0,P|151:344|54:330,1,140,2|2,0:0|0:0,0:0:0:0:
35,242,76481,5,10,0:0:0:0:
35,242,76634,2,0,P|52:210|46:171,1,70,2|0,0:0|1:2,0:0:0:0:
11,86,76942,1,2,0:0:0:0:
94,35,77096,1,10,0:0:0:0:
94,35,77250,1,2,0:0:0:0:
175,89,77404,2,0,P|210:96|252:108,1,70,2|2,1:2|0:0,0:0:0:0:
350,63,77711,5,10,0:0:0:0:
350,63,77865,2,0,P|328:122|357:202,1,140,14|2,0:0|1:2,0:0:0:0:
422,259,78327,1,8,0:0:0:0:
368,341,78481,2,0,P|347:349|326:351,3,35,10|8|8|8,0:0|0:0|0:0|0:0,0:0:0:0:
324,346,78788,2,0,P|303:338|282:336,3,35,10|8|8|8,0:0|0:0|0:0|0:0,0:0:0:0:
270,343,79096,6,0,P|213:337|218:247,1,140,6|0,1:2|1:2,0:0:0:0:
205,256,79481,1,0,1:2:0:0:
212,248,79557,1,8,0:0:0:0:
302,211,79711,2,0,L|306:256,2,35,2|0|10,1:2|1:2|0:0,0:0:0:0:
400,203,80019,2,0,L|404:248,2,35,2|0|10,1:2|1:2|0:0,0:0:0:0:
482,148,80327,5,2,1:2:0:0:
481,137,80404,1,0,1:2:0:0:
479,126,80481,1,8,0:0:0:0:
402,65,80634,2,0,P|355:74|322:81,1,70,2|8,1:2|0:0,0:0:0:0:
243,120,80942,1,2,1:2:0:0:
232,117,81019,1,0,1:2:0:0:
221,114,81096,2,0,P|186:106|152:100,1,70,10|0,0:0|1:2,0:0:0:0:
70,44,81404,1,8,0:0:0:0:
5,136,81557,6,0,P|20:204|31:286,1,140,6|2,1:2|1:2,0:0:0:0:
87,359,82019,1,10,0:0:0:0:
87,359,82173,1,2,1:2:0:0:
161,295,82327,2,0,P|190:282|235:283,1,70,10|0,0:0|0:0,0:0:0:0:
306,339,82634,2,0,P|335:352|380:351,1,70,2|0,1:2|1:2,0:0:0:0:
451,292,82942,5,10,0:0:0:0:
451,292,83096,1,2,1:2:0:0:
408,203,83250,1,14,0:0:0:0:
491,26,83557,1,10,0:0:0:0:
480,29,83634,1,8,0:0:0:0:
469,31,83711,2,0,L|422:42,3,35,10|8|10|8,0:0|0:0|0:0|0:0,0:0:0:0:
417,46,84019,5,2,1:2:0:0:
348,92,84173,2,0,B|299:83|299:83|224:29|224:29|165:19,1,188.999994232178,0|0,3:0|0:0,0:0:0:0:
105,54,84788,1,0,3:0:0:0:
105,54,84942,1,0,0:0:0:0:
37,100,85096,2,0,L|49:174,1,62.9999980773926,0|0,1:2|0:0,0:0:0:0:
45,171,85327,5,0,0:0:0:0:
42,180,85404,2,0,L|54:254,1,62.9999980773926
111,298,85711,2,0,L|162:285,3,31.4999990386963
150,285,86019,2,0,B|213:297|213:297|216:301|216:301|281:313,1,125.999996154785,0|0,3:0|1:2,0:0:0:0:
420,236,86634,6,0,B|427:283|427:283|424:316|424:316|433:375,2,125.999996154785,0|0|8,1:2|0:0|0:0,0:0:0:0:
415,227,87327,1,8,0:0:0:0:
409,219,87404,2,0,L|418:172,3,31.4999990386963,8|8|4|4,3:0|3:0|3:0|3:0,0:0:0:0:
417,179,87711,1,0,1:0:0:0:
478,111,87865,6,0,P|447:90|409:87,1,70,2|2,0:0|0:0,0:0:0:0:
331,117,88173,1,2,0:0:0:0:
331,117,88327,1,2,0:0:0:0:
255,66,88481,2,0,L|263:18,2,35,0|0|2,1:0|1:0|1:2,0:0:0:0:
168,93,88788,1,0,1:0:0:0:
233,186,88942,5,6,1:2:0:0:
