osu file format v14

[General]
AudioFilename: audio.mp3
AudioLeadIn: 0
PreviewTime: 63788
Countdown: 0
SampleSet: Soft
StackLeniency: 0.7
Mode: 0
LetterboxInBreaks: 0
WidescreenStoryboard: 0

[Editor]
DistanceSpacing: 1.1
BeatDivisor: 4
GridSize: 32
TimelineZoom: 1

[Metadata]
Title:Chaos ga Kiwamaru (TV Size)
TitleUnicode:カオスが極まる (TV Size)
Artist:UNISON SQUARE GARDEN
ArtistUnicode:UNISON SQUARE GARDEN
Creator:Sajinn
Version:Egoist
Source:ブルーロック
Tags:blue lock football anime rock jrock japanese rock j-rock soccer opening op basensorex kujinn reform pepekcz spokenaway male vocals vocalist
BeatmapID:3831525
BeatmapSetID:1863294

[Difficulty]
HPDrainRate:5.2
CircleSize:4
OverallDifficulty:8.7
ApproachRate:9.3
SliderMultiplier:1.8
SliderTickRate:1

[Events]
//Background and Video events
0,0,"1165712.jpg",0,0
//Break Periods
2,54834,60850
2,84373,86696
//Storyboard Layer 0 (Background)
//Storyboard Layer 1 (Fail)
//Storyboard Layer 2 (Pass)
//Storyboard Layer 3 (Foreground)
//Storyboard Layer 4 (Overlay)
//Storyboard Sound Samples

[TimingPoints]
481,307.692307692308,4,2,1,70,1,0
942,-76.9230769230769,4,2,1,70,0,0
2942,-90.9090909090909,4,2,1,70,0,0
4327,-100,4,2,1,70,0,0
4634,-83.3333333333333,4,2,1,70,0,0
5250,-99.9999999999999,4,2,1,70,0,0
9096,-83.3333333333333,4,2,1,70,0,0
10173,-76.9230769230769,4,2,1,70,0,0
12634,-100,4,2,1,70,0,0
12942,-100,4,2,1,60,0,0
13250,-125,4,2,1,60,0,0
17711,-125,4,2,1,70,0,0
18019,-100,4,2,1,70,0,0
20019,-125,4,2,1,60,0,0
22634,-125,4,2,1,70,0,0
22942,-100,4,2,1,70,0,0
24327,-76.9230769230769,4,2,1,70,0,0
25250,-111.111111111111,4,2,1,60,0,0
34788,-142.857142857143,4,2,1,60,0,0
43557,-125,4,2,1,60,0,0
44327,-125,4,2,1,70,0,0
44634,-100,4,2,1,70,0,0
46634,-83.3333333333333,4,2,1,70,0,0
47019,-76.9230769230769,4,2,1,70,0,0
49557,-90.9090909090909,4,2,1,70,0,0
49865,-90.9090909090909,4,2,1,80,0,0
51711,-76.9230769230769,4,2,1,80,0,0
54634,-76.9230769230769,4,2,1,60,0,0
61404,-76.9230769230769,4,2,1,70,0,0
61865,-100,4,2,1,70,0,0
63865,-76.9230769230769,4,2,1,90,0,0
64634,-90.9090909090909,4,2,1,90,0,0
69250,-76.9230769230769,4,2,1,90,0,0
69711,-90.9090909090909,4,2,1,90,0,0
72942,-76.9230769230769,4,2,1,90,0,0
73404,-90.9090909090909,4,2,1,90,0,0
77865,-76.9230769230769,4,2,1,90,0,0
82327,-90.9090909090909,4,2,1,90,0,0
83711,-76.9230769230769,4,2,1,90,0,0
84173,-76.9230769230769,4,2,1,60,0,0
87250,-76.9230769230769,4,2,1,70,0,0

[Colours]
Combo1 : 223,169,235
Combo2 : 138,247,111
Combo3 : 244,165,94
Combo4 : 140,228,244

[HitObjects]
161,18,481,5,10,0:0:0:0:
17,110,634,1,10,0:0:0:0:
173,195,788,2,0,L|187:146,1,45,10|0,0:0|0:0,0:0:0:0:
172,127,942,6,0,B|90:155|90:155|98:272,1,175.499991966248,6|0,1:2|0:0,0:0:0:0:
73,267,1250,1,8,3:0:0:0:
267,140,1404,1,8,3:0:0:0:
234,374,1557,5,2,1:2:0:0:
249,380,1634,1,0,1:0:0:0:
272,371,1711,1,2,1:2:0:0:
291,347,1788,1,0,1:0:0:0:
286,306,1865,1,2,1:2:0:0:
241,282,1942,1,0,1:0:0:0:
185,299,2019,1,8,3:0:0:0:
150,344,2096,1,8,3:0:0:0:
104,365,2173,1,2,1:2:0:0:
50,356,2250,1,0,1:0:0:0:
50,356,2327,6,0,L|116:338,1,58.4999973220826,14|0,0:2|0:0,0:0:0:0:
169,190,2481,2,0,L|225:205,1,58.4999973220826,10|0,0:0|0:0,0:0:0:0:
368,375,2634,2,0,L|424:359,1,58.4999973220826,10|0,0:0|0:0,0:0:0:0:
477,197,2788,1,8,0:0:0:0:
504,298,2942,6,0,B|467:287|467:287|444:268|444:268|397:257,1,99.0000030212403,6|8,1:2|0:0,0:0:0:0:
386,255,3173,1,8,0:0:0:0:
370,260,3250,1,8,0:0:0:0:
508,119,3404,5,6,1:2:0:0:
337,21,3557,1,8,0:0:0:0:
337,21,3634,1,8,0:0:0:0:
337,21,3711,1,8,0:0:0:0:
252,169,3865,5,6,1:2:0:0:
435,50,4019,1,8,0:0:0:0:
435,50,4096,1,8,0:0:0:0:
435,50,4173,1,8,0:0:0:0:
204,58,4327,6,0,P|254:81|299:88,1,90,6|8,1:2|0:0,0:0:0:0:
370,242,4634,2,0,B|274:233|307:290|200:278,1,161.999995056153,6|0,1:2|0:0,0:0:0:0:
201,297,4942,5,8,0:0:0:0:
336,380,5096,2,0,P|351:347|349:314,1,53.9999983520508,8|0,3:0|0:0,0:0:0:0:
235,167,5250,6,0,B|168:177|168:177|138:213|138:213|67:224,1,180,6|2,1:2|1:2,0:0:0:0:
20,143,5711,1,10,0:0:0:0:
112,351,5865,2,0,P|72:337|27:328,1,90,2|0,0:0|1:2,0:0:0:0:
71,40,6173,2,0,P|105:85|103:136,1,90,2|8,0:0|0:0,0:0:0:0:
214,253,6481,2,0,L|198:305,2,45,2|0|0,1:2|1:0|1:2,0:0:0:0:
222,60,6788,2,0,P|262:74|307:83,1,90,2|8,0:0|0:0,0:0:0:0:
471,177,7096,5,2,0:0:0:0:
306,278,7250,1,0,1:2:0:0:
309,179,7404,5,2,0:0:0:0:
496,300,7557,1,8,0:0:0:0:
387,335,7711,6,0,B|392:301|392:301|408:277|408:277|414:227,1,90,2|0,0:0|1:2,0:0:0:0:
367,30,8019,1,2,1:2:0:0:
367,30,8096,1,0,1:2:0:0:
367,30,8173,1,10,0:0:0:0:
497,74,8327,2,0,P|456:88|411:97,1,90,2|0,0:0|1:2,0:0:0:0:
113,298,8634,5,10,0:0:0:0:
224,154,8788,1,0,1:2:0:0:
68,74,8942,5,10,0:0:0:0:
192,250,9096,1,0,1:2:0:0:
192,250,9173,1,0,1:2:0:0:
192,250,9250,2,0,P|223:262|260:262,1,53.9999983520508,10|8,0:0|0:0,0:0:0:0:
348,66,9404,5,0,1:2:0:0:
348,66,9481,1,0,1:2:0:0:
348,66,9558,2,0,P|317:78|280:78,1,53.9999983520508,10|8,0:0|0:0,0:0:0:0:
151,7,9711,5,8,0:0:0:0:
157,15,9788,1,8,0:0:0:0:
149,27,9865,1,8,3:0:0:0:
157,50,9942,1,8,3:0:0:0:
144,77,10019,1,4,3:0:0:0:
154,110,10096,1,4,3:0:0:0:
154,110,10173,6,0,B|214:124|214:124|243:163|243:163|321:186,1,175.499991966248,6|0,1:2|0:0,0:0:0:0:
316,165,10481,1,10,0:0:0:0:
111,293,10634,1,2,1:2:0:0:
309,384,10788,1,10,0:0:0:0:
309,384,10865,1,8,0:0:0:0:
309,384,10942,1,10,0:0:0:0:
272,290,11096,5,10,0:0:0:0:
108,383,11250,1,2,1:2:0:0:
192,218,11404,1,10,0:0:0:0:
202,346,11557,5,4,3:0:0:0:
31,217,11711,1,10,0:0:0:0:
28,236,11788,1,2,0:0:0:0:
24,258,11865,1,2,0:0:0:0:
61,10,12019,6,0,B|142:35|142:35|130:155,1,175.499991966248,6|0,1:2|0:0,0:0:0:0:
5,133,12327,2,0,B|113:119|76:184|189:174,1,175.499991966248,6|0,1:2|0:0,0:0:0:0:
186,215,12634,6,0,P|245:187|227:83,1,180,6|0,1:2|1:2,0:0:0:0:
407,72,13096,1,10,0:0:0:0:
359,0,13250,2,0,P|332:39|337:87,1,72,2|8,0:0|0:0,0:0:0:0:
431,240,13557,1,2,0:0:0:0:
505,134,13711,2,0,P|444:152|417:156,1,72,10|2,0:0|0:0,0:0:0:0:
308,323,14019,5,10,0:0:0:0:
236,290,14173,1,0,1:2:0:0:
201,190,14327,1,8,0:0:0:0:
287,139,14481,1,2,1:0:0:0:
313,220,14634,1,2,0:0:0:0:
156,111,14788,1,2,0:0:0:0:
156,111,15096,6,0,B|72:103|96:140|5:132,1,144,6|2,1:2|1:2,0:0:0:0:
28,15,15557,2,0,P|72:25|103:28,1,72,10|0,0:0|0:0,0:0:0:0:
101,221,15865,2,0,P|65:225|30:233,1,72,2|0,1:2|1:2,0:0:0:0:
19,221,16173,1,10,0:0:0:0:
195,314,16327,5,2,1:2:0:0:
195,314,16404,1,0,1:0:0:0:
195,314,16481,1,2,1:2:0:0:
122,384,16634,2,0,P|107:347|109:306,1,72,2|8,1:2|0:0,0:0:0:0:
226,202,16942,2,0,P|272:213|379:230,1,144,2|2,0:0|1:2,0:0:0:0:
386,215,17404,2,0,P|350:219|315:227,1,72,10|8,0:0|0:0,0:0:0:0:
233,6,17711,5,6,1:2:0:0:
394,106,17865,1,10,0:0:0:0:
283,125,18019,2,0,P|303:78|309:25,1,90,2|8,1:2|0:0,0:0:0:0:
321,31,18250,5,8,0:0:0:0:
331,25,18327,1,10,0:0:0:0:
147,118,18481,1,10,0:0:0:0:
309,236,18634,1,2,1:2:0:0:
219,367,18788,6,0,P|199:320|193:267,1,90,10|8,0:0|0:0,0:0:0:0:
60,224,19096,5,10,0:0:0:0:
60,224,19173,1,8,0:0:0:0:
60,224,19250,2,0,P|93:217|126:200,1,45,8|8,0:0|0:0,0:0:0:0:
239,113,19404,5,10,0:0:0:0:
239,113,19481,1,8,0:0:0:0:
239,113,19557,2,0,P|260:120|282:124,1,45,8|8,0:0|3:0,0:0:0:0:
415,296,19711,5,8,3:0:0:0:
422,283,19788,1,8,3:0:0:0:
408,255,19865,1,8,3:0:0:0:
433,216,19942,1,8,3:0:0:0:
433,216,20019,6,0,B|376:229|376:229|352:257|352:257|297:270,1,144,6|2,1:2|1:2,0:0:0:0:
235,207,20481,1,10,0:0:0:0:
358,65,20634,1,2,0:0:0:0:
358,65,20711,1,2,0:0:0:0:
358,65,20788,2,0,P|364:113|379:148,1,72,2|0,1:2|1:2,0:0:0:0:
236,16,21096,1,10,0:0:0:0:
175,71,21250,6,0,L|123:57,2,36,2|2|2,0:0|0:0|1:2,0:0:0:0:
95,233,21557,2,0,P|57:240|15:255,1,72,2|8,1:2|0:0,0:0:0:0:
5,117,21865,2,0,B|92:113|60:155|158:149,1,144,2|2,0:0|1:2,0:0:0:0:
309,264,22327,2,0,P|327:305|322:343,1,72,10|2,0:0|0:0,0:0:0:0:
161,364,22634,5,6,1:2:0:0:
284,184,22788,1,10,0:0:0:0:
180,232,22942,5,10,0:0:0:0:
235,318,23096,1,10,0:0:0:0:
235,318,23173,1,8,0:0:0:0:
235,318,23250,1,10,0:0:0:0:
376,192,23404,5,10,0:0:0:0:
204,101,23557,1,2,1:2:0:0:
365,6,23711,1,10,0:0:0:0:
329,78,23865,5,2,1:2:0:0:
325,87,23942,1,8,0:0:0:0:
322,94,24019,1,8,0:0:0:0:
319,103,24096,1,8,0:0:0:0:
315,111,24173,1,10,0:0:0:0:
179,22,24327,6,0,B|125:44|80:37|80:37|120:72|109:115,1,175.499991966248,6|0,1:2|0:0,0:0:0:0:
5,133,24634,2,0,B|113:119|76:184|189:174,1,175.499991966248,6|0,1:2|0:0,0:0:0:0:
186,192,24942,1,6,1:2:0:0:
473,337,25250,6,0,P|428:347|387:362,1,80.9999975280763,2|8,0:0|0:0,0:0:0:0:
295,265,25557,2,0,L|282:313,2,40.4999987640381,2|2|0,0:0|0:0|1:0,0:0:0:0:
371,357,25865,5,2,0:0:0:0:
418,273,26019,1,10,0:0:0:0:
374,209,26173,1,2,0:0:0:0:
475,127,26327,6,0,P|430:117|389:102,1,80.9999975280763,2|2,1:2|0:0,0:0:0:0:
229,83,26634,1,10,0:0:0:0:
284,0,26788,1,2,0:0:0:0:
284,0,26865,1,2,0:0:0:0:
284,0,26942,2,0,P|275:50|252:168,1,161.999995056153,0|10,1:2|0:0,0:0:0:0:
264,172,27404,1,0,0:0:0:0:
123,73,27557,5,2,1:2:0:0:
56,105,27711,1,2,0:0:0:0:
131,184,27865,1,10,0:0:0:0:
98,274,28019,1,2,0:0:0:0:
98,274,28096,1,2,0:0:0:0:
98,274,28173,1,2,1:2:0:0:
23,204,28327,5,2,0:0:0:0:
189,254,28481,2,0,P|228:262|266:275,1,80.9999975280763,10|2,0:0|0:0,0:0:0:0:
382,227,28788,6,0,P|407:185|397:144,1,80.9999975280763,2|2,1:2|0:0,0:0:0:0:
322,123,29096,1,10,0:0:0:0:
471,302,29250,1,2,0:0:0:0:
471,302,29327,1,2,0:0:0:0:
471,302,29404,2,0,P|431:310|307:357,1,161.999995056153,0|10,1:2|0:0,0:0:0:0:
316,366,29865,1,0,0:0:0:0:
196,147,30019,5,2,1:2:0:0:
262,182,30173,1,2,0:0:0:0:
167,243,30327,1,10,0:0:0:0:
111,184,30481,1,2,0:0:0:0:
111,184,30557,1,2,0:0:0:0:
111,184,30634,1,2,1:2:0:0:
180,137,30788,1,2,0:0:0:0:
81,289,30942,5,10,0:0:0:0:
145,351,31096,2,0,P|167:308|167:263,1,80.9999975280763,2|0,0:0|1:2,0:0:0:0:
40,117,31404,1,2,0:0:0:0:
122,33,31557,1,10,0:0:0:0:
10,33,31711,1,2,0:0:0:0:
10,33,31788,1,2,0:0:0:0:
10,33,31865,2,0,B|112:20|79:72|179:60,1,161.999995056153,0|10,1:2|0:0,0:0:0:0:
192,86,32327,1,0,0:0:0:0:
398,17,32481,6,0,P|335:6|306:-7,1,80.9999975280763,2|0,1:2|0:0,0:0:0:0:
425,217,32788,2,0,P|362:228|333:241,1,80.9999975280763,10|0,0:0|0:0,0:0:0:0:
455,98,33096,2,0,B|396:105|396:105|366:138|366:138|300:148,1,161.999995056153,2|10,1:2|0:0,0:0:0:0:
114,185,33557,1,0,1:0:0:0:
114,185,33634,1,0,1:0:0:0:
114,185,33711,2,0,P|91:227|89:268,1,80.9999975280763,2|0,1:2|0:0,0:0:0:0:
153,358,34019,5,8,3:0:0:0:
170,350,34122,2,0,P|183:314|184:286,1,53.9999983520508,8|8,3:0|3:0,0:0:0:0:
268,242,34327,5,4,3:0:0:0:
251,234,34430,2,0,P|238:198|237:170,1,53.9999983520508,4|4,3:0|3:0,0:0:0:0:
173,119,34634,1,4,3:0:0:0:
312,310,34788,6,0,B|434:294|386:366|501:352,1,188.999994232178,6|0,1:2|0:0,0:0:0:0:
498,324,35557,2,0,P|458:332|422:346,1,62.9999980773926,8|0,0:0|0:0,0:0:0:0:
396,159,35865,6,0,P|356:151|320:137,1,62.9999980773926,2|4,0:0|3:0,0:0:0:0:
269,190,36173,1,2,0:0:0:0:
183,121,36378,1,2,0:0:0:0:
183,121,36481,1,0,1:0:0:0:
85,210,36686,1,2,0:0:0:0:
85,210,36788,1,8,0:0:0:0:
24,113,36942,2,0,P|64:121|100:135,1,62.9999980773926,2|0,0:0|0:0,0:0:0:0:
58,308,37250,6,0,P|76:266|213:257,1,188.999994232178,6|0,1:2|0:0,0:0:0:0:
202,270,38019,2,0,P|190:230|188:200,1,62.9999980773926,8|0,0:0|0:0,0:0:0:0:
388,376,38327,6,0,P|400:336|402:306,1,62.9999980773926,2|4,0:0|3:0,0:0:0:0:
330,280,38634,1,2,0:0:0:0:
472,206,38788,1,2,0:0:0:0:
472,206,38865,1,2,0:0:0:0:
472,206,38942,1,0,1:0:0:0:
351,157,39096,2,0,P|394:146|426:135,1,62.9999980773926,2|8,0:0|0:0,0:0:0:0:
498,35,39404,2,0,P|467:27|437:18,1,62.9999980773926,2|0,0:0|0:0,0:0:0:0:
323,55,39711,6,0,B|201:39|249:111|134:97,1,188.999994232178,6|0,1:2|0:0,0:0:0:0:
129,122,40481,2,0,P|159:114|189:105,1,62.9999980773926,8|0,0:0|0:0,0:0:0:0:
38,314,40788,6,0,P|68:323|98:330,1,62.9999980773926,2|4,0:0|3:0,0:0:0:0:
147,266,41096,1,2,0:0:0:0:
244,353,41301,1,2,0:0:0:0:
244,353,41404,1,0,1:0:0:0:
346,282,41609,1,2,0:0:0:0:
346,282,41711,1,8,0:0:0:0:
463,327,41865,2,0,P|432:336|402:343,1,62.9999980773926,2|0,0:0|0:0,0:0:0:0:
270,241,42173,6,0,P|217:214|235:93,1,188.999994232178,6|0,1:2|0:0,0:0:0:0:
248,90,42942,2,0,P|217:99|187:106,1,62.9999980773926,8|0,0:0|0:0,0:0:0:0:
77,7,43250,6,0,P|107:15|137:22,1,62.9999980773926,2|0,1:2|0:0,0:0:0:0:
307,158,43557,2,0,B|384:162|363:115|442:119,1,144,10|10,0:0|0:0,0:0:0:0:
492,50,44019,2,0,L|484:16,2,36,2|0|8,1:2|1:0|0:0,0:0:0:0:
404,223,44327,5,10,0:0:0:0:
414,237,44404,1,8,0:0:0:0:
401,264,44481,1,8,0:0:0:0:
423,300,44557,1,8,0:0:0:0:
423,300,44634,6,0,B|318:284|348:346|248:336,1,180,6|10,1:2|0:0,0:0:0:0:
185,290,45019,1,8,0:0:0:0:
185,290,45096,2,0,L|197:239,3,45,8|8|8|8,0:0|0:0|0:0|0:0,0:0:0:0:
197,65,45404,5,8,0:0:0:0:
197,65,45481,1,8,0:0:0:0:
197,65,45557,2,0,P|161:80|131:85,1,45,8|8,0:0|0:0,0:0:0:0:
100,259,45711,5,8,0:0:0:0:
100,259,45788,1,8,0:0:0:0:
100,259,45864,2,0,P|79:249|58:242,1,45,8|8,0:0|0:0,0:0:0:0:
0,148,46019,5,10,0:0:0:0:
10,138,46096,1,8,0:0:0:0:
25,132,46173,1,8,0:0:0:0:
48,127,46250,1,8,0:0:0:0:
81,133,46327,1,10,0:0:0:0:
115,163,46404,1,8,0:0:0:0:
160,184,46481,1,10,0:0:0:0:
214,176,46557,1,8,0:0:0:0:
214,176,46634,6,0,B|233:178|233:178|244:187|244:187|265:194,1,53.9999983520508,8|8,0:0|0:0,0:0:0:0:
388,365,46788,2,0,P|426:354|453:337,1,53.9999983520508,10|8,0:0|0:0,0:0:0:0:
431,231,46942,5,8,0:0:0:0:
431,231,47019,1,8,0:0:0:0:
431,231,47096,2,0,B|365:241|365:241|338:274|338:274|271:287,1,175.499991966248,6|0,1:2|0:0,0:0:0:0:
264,306,47404,1,8,3:0:0:0:
386,75,47557,6,0,P|397:104|418:137,1,58.4999973220826,8|0,0:0|0:0,0:0:0:0:
379,149,47711,2,0,B|296:123|296:123|307:35,1,175.499991966248,6|0,1:2|0:0,0:0:0:0:
319,14,48019,5,8,3:0:0:0:
169,214,48173,1,8,3:0:0:0:
51,10,48327,6,0,B|153:0|123:57|219:51,1,175.499991966248,6|0,1:2|0:0,0:0:0:0:
214,30,48634,2,0,P|153:37|128:143,1,175.499991966248,6|0,1:2|0:0,0:0:0:0:
108,147,48942,5,6,1:2:0:0:
284,258,49096,1,0,0:0:0:0:
247,184,49250,5,6,1:2:0:0:
104,297,49404,1,0,0:0:0:0:
230,358,49557,6,0,B|189:319|200:260|200:260|171:307|110:298,1,198.000006042481,6|2,1:2|1:2,0:0:0:0:
69,372,49942,5,0,1:0:0:0:
63,381,50019,1,10,0:0:0:0:
17,260,50173,1,2,1:2:0:0:
259,90,50327,5,8,0:0:0:0:
240,172,50481,1,2,1:2:0:0:
240,172,50557,1,0,1:0:0:0:
240,172,50634,1,10,0:0:0:0:
144,46,50788,6,0,P|181:39|209:24,1,49.5000015106202,2|0,1:2|1:0,0:0:0:0:
333,144,50942,1,8,0:0:0:0:
171,241,51096,5,2,1:2:0:0:
159,217,51173,1,0,1:0:0:0:
147,192,51250,1,10,0:0:0:0:
293,369,51404,6,0,P|313:329|314:286,1,49.5000015106202,2|0,1:2|1:0,0:0:0:0:
465,154,51557,1,8,0:0:0:0:
498,358,51711,6,0,B|478:351|478:351|463:338|463:338|427:326,1,58.4999973220826,0|0,1:2|1:0,0:0:0:0:
386,232,51865,1,10,0:0:0:0:
353,239,51942,1,8,3:0:0:0:
316,230,52019,1,8,3:0:0:0:
274,246,52096,1,8,3:0:0:0:
274,246,52173,6,0,B|162:235|209:297|87:288,1,175.499991966248,8|0,3:0|0:0,0:0:0:0:
92,308,52481,1,10,0:0:0:0:
62,68,52634,5,2,1:2:0:0:
62,68,52711,1,0,1:2:0:0:
62,68,52788,2,0,B|145:94|145:94|129:203,1,175.499991966248,14|0,0:0|0:0,0:0:0:0:
113,195,53096,5,2,1:2:0:0:
269,27,53250,1,2,1:2:0:0:
356,201,53404,1,14,0:0:0:0:
231,160,53557,5,2,1:2:0:0:
231,160,53634,1,0,1:2:0:0:
231,160,53711,2,0,B|277:157|303:133|303:133|374:153|353:208,1,175.499991966248,14|0,0:0|0:0,0:0:0:0:
430,296,54019,5,8,0:0:0:0:
430,296,54096,1,8,0:0:0:0:
430,296,54173,2,0,L|357:282,1,58.4999973220826,8|8,0:0|0:0,0:0:0:0:
236,361,54327,2,0,L|178:372,1,58.4999973220826,8|8,0:0|0:0,0:0:0:0:
34,238,54481,1,6,1:2:0:0:
176,289,54634,5,0,3:0:0:0:
276,86,61404,6,0,P|312:78|337:64,1,58.4999973220826,8|8,0:0|0:0,0:0:0:0:
454,13,61557,1,8,3:0:0:0:
446,32,61634,1,8,3:0:0:0:
463,61,61711,1,4,3:0:0:0:
450,99,61788,1,4,3:0:0:0:
450,99,61865,6,0,B|352:81|352:81|393:165,1,180,4|2,1:2|0:0,0:0:0:0:
216,340,62788,5,2,1:2:0:0:
216,340,62865,1,0,1:2:0:0:
216,340,62942,1,10,0:2:0:0:
303,283,63096,2,0,B|194:262|233:327|117:309,1,180,6|0,1:2|0:0,0:0:0:0:
19,164,63865,5,10,0:0:0:0:
19,164,63942,1,8,0:0:0:0:
19,164,64019,2,0,P|51:177|87:182,1,58.4999973220826,10|8,0:0|0:0,0:0:0:0:
215,19,64173,2,0,P|183:32|147:37,1,58.4999973220826,10|8,0:0|0:0,0:0:0:0:
12,61,64327,6,0,B|78:72|78:72|109:107|109:107|177:121,1,175.499991966248,6|0,1:2|0:0,0:0:0:0:
169,144,64634,1,2,1:2:0:0:
303,277,64788,2,0,P|246:285|196:310,1,99.0000030212403,10|0,0:0|0:0,0:0:0:0:
171,379,65096,1,0,1:0:0:0:
286,190,65250,5,2,0:0:0:0:
408,362,65404,1,10,0:0:0:0:
512,187,65557,2,0,P|455:179|405:154,1,99.0000030212403,2|0,0:0|1:0,0:0:0:0:
297,20,65865,5,2,1:2:0:0:
297,20,65942,1,0,1:2:0:0:
297,20,66019,1,10,0:0:0:0:
428,47,66173,2,0,B|391:53|391:53|369:75|369:75|326:84,1,99.0000030212403,2|0,0:0|1:0,0:0:0:0:
178,160,66481,6,0,L|189:212,2,49.5000015106202,2|0|10,1:2|1:0|0:0,0:0:0:0:
302,369,66788,2,0,B|320:324|320:324|294:254,1,99.0000030212403,2|0,0:0|1:0,0:0:0:0:
104,114,67096,5,2,0:0:0:0:
218,292,67250,1,10,0:0:0:0:
258,128,67404,1,2,0:0:0:0:
73,308,67557,1,2,1:2:0:0:
19,185,67711,5,2,1:2:0:0:
19,185,67788,1,0,1:2:0:0:
19,185,67865,2,0,P|76:193|126:218,1,99.0000030212403,10|2,0:0|0:0,0:0:0:0:
122,224,68173,1,0,1:2:0:0:
304,11,68327,5,10,0:0:0:0:
405,193,68481,1,10,0:0:0:0:
496,9,68634,5,8,0:0:0:0:
496,9,68711,1,8,0:0:0:0:
496,9,68788,2,0,P|453:26|425:29,1,49.5000015106202,10|8,0:0|0:0,0:0:0:0:
342,120,68942,5,10,0:0:0:0:
301,115,69019,1,8,0:0:0:0:
265,119,69096,1,10,0:0:0:0:
225,115,69173,1,8,0:0:0:0:
225,115,69250,6,0,B|336:102|288:172|422:158,1,175.499991966248,6|0,1:2|0:0,0:0:0:0:
405,193,69557,1,2,1:2:0:0:
268,353,69711,2,0,P|240:300|250:247,1,99.0000030212403,10|0,0:0|0:0,0:0:0:0:
178,190,70019,1,0,1:2:0:0:
339,301,70173,5,2,0:0:0:0:
129,363,70327,1,10,0:0:0:0:
147,286,70481,2,0,P|203:276|244:261,1,99.0000030212403,2|0,0:0|1:2,0:0:0:0:
427,33,70788,5,2,1:2:0:0:
427,33,70865,1,0,1:2:0:0:
427,33,70942,1,10,0:0:0:0:
342,120,71096,2,0,B|324:72|324:72|342:15,1,99.0000030212403,2|0,0:0|1:2,0:0:0:0:
425,275,71404,5,2,0:0:0:0:
257,157,71557,1,10,0:0:0:0:
256,273,71711,1,2,0:0:0:0:
445,179,71865,6,0,B|375:194|375:194|341:237|341:237|268:255,1,198.000006042481,0|10,1:2|0:0,0:0:0:0:
96,371,72327,2,0,P|64:328|66:272,1,99.0000030212403,0|8,0:0|0:0,0:0:0:0:
168,88,72634,5,2,1:2:0:0:
168,88,72711,1,0,1:0:0:0:
168,88,72788,1,2,1:2:0:0:
13,151,72942,2,0,B|126:138|79:202|194:193,1,175.499991966248,6|0,1:2|0:0,0:0:0:0:
188,216,73250,1,8,3:0:0:0:
42,66,73404,2,0,L|54:18,2,49.5000015106202,4|0|0,3:0|1:0|1:0,0:0:0:0:
257,143,73711,5,10,2:0:0:0:
78,261,73865,1,0,1:0:0:0:
258,372,74019,1,10,2:0:0:0:
297,252,74173,6,0,P|239:239|158:338,1,198.000006042481,6|2,1:2|0:0,0:0:0:0:
395,362,74634,2,0,B|414:316|414:316|395:258,1,99.0000030212403,10|0,0:0|0:0,0:0:0:0:
171,35,74942,2,0,B|152:81|152:81|171:139,1,99.0000030212403,0|2,1:2|0:0,0:0:0:0:
306,239,75250,5,10,0:0:0:0:
428,114,75404,1,2,1:2:0:0:
428,114,75481,1,0,1:2:0:0:
428,114,75557,2,0,P|383:133|327:139,1,99.0000030212403,0|2,1:2|0:0,0:0:0:0:
152,273,75865,1,10,0:0:0:0:
241,326,76019,2,0,P|196:307|140:301,1,99.0000030212403,2|0,0:0|1:2,0:0:0:0:
35,78,76327,5,2,0:0:0:0:
192,200,76481,1,10,0:0:0:0:
2,280,76634,2,0,L|16:222,2,49.5000015106202,2|0|0,1:2|0:2|1:2,0:0:0:0:
96,148,76942,5,2,0:0:0:0:
178,281,77096,1,10,0:0:0:0:
274,109,77250,1,2,0:0:0:0:
381,303,77404,1,2,1:2:0:0:
213,200,77557,1,2,0:0:0:0:
373,98,77711,1,10,0:0:0:0:
350,210,77865,6,0,B|244:196|286:257|182:250,1,175.499991966248,14|0,0:0|0:0,0:0:0:0:
178,281,78173,1,2,1:2:0:0:
79,135,78327,1,8,0:0:0:0:
0,255,78481,5,10,0:0:0:0:
0,255,78557,1,8,0:0:0:0:
0,255,78634,2,0,P|46:247|87:221,1,58.4999973220826,8|8,0:0|0:0,0:0:0:0:
137,65,78788,5,10,0:0:0:0:
137,65,78864,1,8,0:0:0:0:
137,65,78941,2,0,P|164:74|193:77,1,58.4999973220826,8|8,0:0|0:0,0:0:0:0:
350,210,79096,5,6,1:2:0:0:
281,157,79403,5,0,1:2:0:0:
281,157,79480,1,0,1:2:0:0:
281,157,79557,1,8,0:0:0:0:
475,248,79711,6,0,B|454:254|454:254|440:268|440:268|409:277,1,58.4999973220826,2|0,1:2|1:2,0:0:0:0:
256,366,79865,1,10,0:0:0:0:
362,369,80019,5,2,1:2:0:0:
347,344,80096,1,0,1:2:0:0:
339,316,80173,1,10,0:0:0:0:
114,118,80327,5,2,1:2:0:0:
129,93,80404,1,0,1:2:0:0:
137,65,80481,1,8,0:0:0:0:
10,217,80634,6,0,P|57:199|81:183,1,58.4999973220826,2|0,1:2|1:2,0:0:0:0:
221,45,80788,1,8,0:0:0:0:
198,202,80942,5,2,1:2:0:0:
198,202,81019,1,0,1:2:0:0:
198,202,81096,1,10,0:0:0:0:
31,57,81250,5,0,1:2:0:0:
31,57,81327,1,0,1:2:0:0:
31,57,81404,1,8,0:0:0:0:
226,4,81557,6,0,P|287:22|288:152,1,175.499991966248,6|0,1:2|0:0,0:0:0:0:
283,136,81865,1,2,1:2:0:0:
437,9,82019,5,10,0:0:0:0:
487,212,82173,1,2,1:2:0:0:
508,81,82327,2,0,B|468:88|468:88|445:110|445:110|396:119,1,99.0000030212403,10|0,0:0|0:0,0:0:0:0:
330,338,82634,2,0,P|271:319|225:310,1,99.0000030212403,2|0,1:2|1:2,0:0:0:0:
151,361,82942,5,10,0:0:0:0:
323,244,83096,1,2,1:2:0:0:
154,158,83250,1,14,0:0:0:0:
199,237,83404,1,0,0:0:0:0:
287,87,83557,5,10,0:0:0:0:
287,87,83634,1,0,0:0:0:0:
287,87,83711,2,0,P|236:73|216:56,1,58.4999973220826,10|8,0:0|0:0,0:0:0:0:
54,263,83865,1,10,0:0:0:0:
239,159,84019,1,2,1:2:0:0:
54,66,84173,5,0,3:0:0:0:
305,295,87250,6,0,P|336:302|375:320,1,58.4999973220826,8|8,0:0|0:0,0:0:0:0:
462,369,87404,1,8,3:0:0:0:
470,354,87481,1,8,3:0:0:0:
452,332,87557,1,4,3:0:0:0:
465,301,87634,1,4,3:0:0:0:
449,268,87711,1,0,1:0:0:0:
500,182,87865,5,2,0:0:0:0:
381,309,88019,1,2,0:0:0:0:
257,212,88173,1,2,0:0:0:0:
182,283,88327,1,2,0:0:0:0:
68,182,88481,5,0,1:0:0:0:
68,182,88557,1,0,1:0:0:0:
68,182,88634,1,2,1:2:0:0:
190,295,88788,1,0,1:0:0:0:
264,96,88942,5,6,1:2:0:0:
