osu file format v14

[General]
AudioFilename: audio.mp3
AudioLeadIn: 0
PreviewTime: 63788
Countdown: 0
SampleSet: Soft
StackLeniency: 0.7
Mode: 0
LetterboxInBreaks: 0
WidescreenStoryboard: 1

[Editor]
DistanceSpacing: 1
BeatDivisor: 4
GridSize: 16
TimelineZoom: 1.5

[Metadata]
Title:Chaos ga Kiwamaru (TV Size)
TitleUnicode:カオスが極まる (TV Size)
Artist:UNISON SQUARE GARDEN
ArtistUnicode:UNISON SQUARE GARDEN
Creator:Sajinn
Version:Basen's Normal
Source:ブルーロック
Tags:blue lock football anime rock jrock japanese rock j-rock soccer opening op basensorex kujinn reform pepekcz spokenaway male vocals vocalist
BeatmapID:3831524
BeatmapSetID:1863294

[Difficulty]
HPDrainRate:3
CircleSize:3.5
OverallDifficulty:4
ApproachRate:5.2
SliderMultiplier:1
SliderTickRate:1

[Events]
//Background and Video events
0,0,"1165712.jpg",0,0
//Break Periods
//Storyboard Layer 0 (Background)
//Storyboard Layer 1 (Fail)
//Storyboard Layer 2 (Pass)
//Storyboard Layer 3 (Foreground)
//Storyboard Layer 4 (Overlay)
//Storyboard Sound Samples

[TimingPoints]
481,307.692307692308,4,2,1,70,1,0
5250,-100,4,2,1,70,0,0
12942,-100,4,2,1,60,0,0
15096,-111.111111111111,4,2,1,60,0,0
17711,-111.111111111111,4,2,1,70,0,0
20019,-111.111111111111,4,2,1,60,0,0
22634,-111.111111111111,4,2,1,70,0,0
25250,-111.111111111111,4,2,1,60,0,0
34788,-125,4,2,1,60,0,0
44327,-125,4,2,1,70,0,0
44634,-111.111111111111,4,2,1,70,0,0
49557,-100,4,2,1,70,0,0
49865,-100,4,2,1,80,0,0
54634,-111.111111111111,4,2,1,60,0,0
61404,-100,4,2,1,70,0,0
63865,-100,4,2,1,90,0,0
64327,-90.9090909090909,4,2,1,90,0,1
84173,-100,4,2,1,60,0,0
87250,-100,4,2,1,70,0,0

[Colours]
Combo1 : 223,169,235
Combo2 : 138,247,111
Combo3 : 244,165,94
Combo4 : 140,228,244

[HitObjects]
89,40,481,6,0,L|95:89,1,50,10|10,0:0|0:0,0:0:0:0:
59,123,788,1,10,0:0:0:0:
59,123,942,2,0,L|40:271,1,150,6|8,1:2|3:0,0:0:0:0:
104,349,1711,1,2,1:2:0:0:
194,306,2019,1,8,3:0:0:0:
263,378,2327,2,0,P|287:378|312:372,1,50,14|10,0:2|0:0,0:0:0:0:
354,346,2634,1,10,0:0:0:0:
452,365,2942,6,0,P|475:321|468:272,1,100,6|8,1:2|0:0,0:0:0:0:
452,225,3404,1,6,1:2:0:0:
370,177,3711,1,8,0:0:0:0:
370,177,3865,2,0,L|270:189,1,100,6|8,1:2|0:0,0:0:0:0:
220,193,4327,1,6,1:2:0:0:
166,277,4634,2,0,L|66:264,1,100,6|8,1:2|0:0,0:0:0:0:
32,235,5096,1,8,3:0:0:0:
32,235,5250,6,0,P|4:167|35:100,1,150,6|10,1:2|0:0,0:0:0:0:
77,73,5865,1,2,0:0:0:0:
164,24,6173,1,2,0:0:0:0:
250,74,6481,2,0,L|349:61,1,100,2|2,0:0|0:0,0:0:0:0:
439,105,7096,2,0,P|462:148|455:197,1,100,2|2,0:0|0:0,0:0:0:0:
463,296,7711,6,0,B|377:289|410:343|316:332,1,150,2|10,0:0|0:0,0:0:0:0:
273,320,8327,1,2,0:0:0:0:
205,246,8634,1,10,0:0:0:0:
264,165,8942,2,0,L|276:65,1,100,10|10,0:0|0:0,0:0:0:0:
245,32,9404,1,0,1:2:0:0:
245,32,9557,2,0,P|201:8|152:15,1,100,10|8,0:0|3:0,0:0:0:0:
63,60,10173,6,0,B|15:108|15:108|40:185,1,150,6|2,1:2|1:2,0:0:0:0:
56,233,10788,2,0,L|49:282,1,50,10|10,0:0|0:0,0:0:0:0:
45,332,11096,1,10,0:0:0:0:
136,372,11404,2,0,P|160:365|185:366,1,50,10|4,0:0|3:0,0:0:0:0:
233,379,11711,1,10,0:0:0:0:
319,328,12019,1,6,1:2:0:0:
403,382,12327,1,6,1:2:0:0:
483,323,12634,6,0,L|464:174,1,150,6|10,1:2|0:0,0:0:0:0:
509,84,13404,1,8,0:0:0:0:
447,5,13711,1,10,0:0:0:0:
353,40,14019,2,0,L|303:33,1,50,10|0,0:0|1:2,0:0:0:0:
278,77,14327,2,0,L|228:83,1,50,8|2,0:0|1:0,0:0:0:0:
197,51,14634,1,2,0:0:0:0:
197,51,14788,1,2,0:0:0:0:
107,58,15096,6,0,P|63:108|67:173,1,134.999995880127,6|10,1:2|0:0,0:0:0:0:
119,247,15865,1,2,1:2:0:0:
209,247,16173,1,10,0:0:0:0:
263,176,16481,1,2,1:2:0:0:
263,176,16634,2,0,P|302:154|347:160,1,89.9999972534181,2|2,1:2|0:0,0:0:0:0:
428,197,17250,1,2,1:2:0:0:
512,240,17557,1,8,0:0:0:0:
512,240,17711,6,0,L|500:335,1,89.9999972534181,6|2,1:2|1:2,0:0:0:0:
411,339,18327,2,0,L|416:383,2,44.999998626709,10|10|2,0:0|0:0|1:2,0:0:0:0:
371,317,18788,1,10,0:0:0:0:
299,371,19096,1,10,0:0:0:0:
227,315,19404,2,0,B|152:308|180:355|99:346,1,134.999995880127,10|8,0:0|3:0,0:0:0:0:
55,342,20019,6,0,P|11:292|15:227,1,134.999995880127,6|10,1:2|0:0,0:0:0:0:
65,152,20788,1,2,1:2:0:0:
14,77,21096,1,10,0:0:0:0:
78,14,21404,1,2,1:2:0:0:
78,14,21557,2,0,L|173:25,1,89.9999972534181,2|2,1:2|0:0,0:0:0:0:
205,106,22173,1,2,1:2:0:0:
298,120,22480,1,2,0:0:0:0:
298,120,22634,6,0,L|393:108,1,89.9999972534181,6|10,1:2|0:0,0:0:0:0:
467,150,23250,2,0,P|472:171|473:194,1,44.999998626709,10|10,0:0|0:0,0:0:0:0:
466,238,23557,1,2,1:2:0:0:
434,322,23865,2,0,P|394:343|349:337,1,89.9999972534181,2|10,1:2|0:0,0:0:0:0:
309,319,24327,1,6,1:2:0:0:
243,257,24634,1,6,1:2:0:0:
279,174,24942,6,0,B|305:93|305:93|270:57,1,134.999995880127,6|8,1:2|0:0,0:0:0:0:
189,19,25711,1,0,1:0:0:0:
117,74,26019,2,0,L|72:79,1,44.999998626709,10|2,0:0|0:0,0:0:0:0:
27,85,26327,2,0,P|5:124|11:169,1,89.9999972534181,2|10,1:2|0:0,0:0:0:0:
27,209,26788,1,2,0:0:0:0:
4,298,27096,1,0,0:0:0:0:
4,298,27250,1,10,0:0:0:0:
83,340,27557,6,0,P|88:361|89:384,2,44.999998626709,2|2|10,1:2|0:0|0:0,0:0:0:0:
113,306,28019,1,2,0:0:0:0:
194,356,28327,1,2,0:0:0:0:
194,356,28481,2,0,L|238:350,1,44.999998626709,10|2,0:0|0:0,0:0:0:0:
264,313,28788,2,0,L|359:324,1,89.9999972534181,2|10,1:2|0:0,0:0:0:0:
397,333,29250,1,2,0:0:0:0:
469,279,29557,1,0,0:0:0:0:
469,279,29711,1,10,0:0:0:0:
419,203,30019,6,0,P|397:197|374:196,2,44.999998626709,2|2|10,1:2|0:0|0:0,0:0:0:0:
455,175,30481,1,2,0:0:0:0:
455,175,30634,2,0,P|460:131|439:92,1,89.9999972534181,2|10,1:2|0:0,0:0:0:0:
403,63,31096,1,2,0:0:0:0:
316,37,31404,2,0,L|271:42,1,44.999998626709,2|10,0:0|0:0,0:0:0:0:
226,47,31711,1,2,0:0:0:0:
145,18,32019,1,0,0:0:0:0:
145,18,32173,1,10,0:0:0:0:
55,24,32481,6,0,L|43:119,1,89.9999972534181,2|10,1:2|0:0,0:0:0:0:
108,176,33096,1,2,1:2:0:0:
185,129,33404,1,10,0:0:0:0:
248,192,33711,2,0,P|291:197|330:176,1,89.9999972534181,2|8,1:2|3:0,0:0:0:0:
399,117,34327,2,0,P|442:111|481:132,1,89.9999972534181,4|4,3:0|3:0,0:0:0:0:
511,160,34788,6,0,B|501:237|501:237|466:264|466:264|457:341,1,200,6|8,1:2|0:0,0:0:0:0:
387,381,35865,1,2,0:0:0:0:
319,337,36173,2,0,L|239:346,1,80,2|0,0:0|1:0,0:0:0:0:
168,309,36788,1,8,0:0:0:0:
112,366,37096,1,0,0:0:0:0:
112,366,37250,6,0,P|22:339|20:246,1,200,6|8,1:2|0:0,0:0:0:0:
72,185,38327,1,2,0:0:0:0:
25,120,38634,2,0,P|20:79|39:44,1,80,2|0,0:0|1:0,0:0:0:0:
104,0,39250,1,8,0:0:0:0:
169,54,39557,1,0,0:0:0:0:
169,54,39711,6,0,B|299:32|238:116|369:90,1,200,6|8,1:2|0:0,0:0:0:0:
432,65,40788,1,2,0:0:0:0:
476,131,41096,2,0,L|464:226,1,80,2|0,0:0|1:0,0:0:0:0:
503,281,41711,1,8,0:0:0:0:
447,338,42019,1,0,0:0:0:0:
447,338,42173,6,0,B|318:380|318:380|272:335,1,200,6|8,1:2|0:0,0:0:0:0:
219,275,43250,1,2,1:2:0:0:
230,195,43557,2,0,L|239:115,1,80,10|10,0:0|0:0,0:0:0:0:
243,75,44019,1,2,0:0:0:0:
187,17,44327,2,0,P|166:11|144:11,1,40,10|8,0:0|0:0,0:0:0:0:
104,21,44634,5,6,1:2:0:0:
32,74,44942,1,10,0:0:0:0:
32,74,45096,2,0,P|10:112|16:156,1,89.9999972534181,8|8,0:0|0:0,0:0:0:0:
58,236,45711,1,8,0:0:0:0:
97,316,46019,2,0,L|192:327,1,89.9999972534181,10|10,0:0|0:0,0:0:0:0:
231,332,46481,1,10,0:0:0:0:
312,294,46788,1,10,0:0:0:0:
382,349,47096,6,0,P|425:354|464:333,1,89.9999972534181,6|8,1:2|3:0,0:0:0:0:
498,303,47557,1,8,0:0:0:0:
498,303,47711,2,0,P|503:259|482:220,1,89.9999972534181,6|8,1:2|3:0,0:0:0:0:
456,189,48173,1,8,3:0:0:0:
456,189,48327,2,0,P|450:145|471:106,1,89.9999972534181,6|6,1:2|1:2,0:0:0:0:
417,33,48942,1,6,1:2:0:0:
343,85,49250,1,6,1:2:0:0:
277,9,49557,6,0,L|177:21,1,100,6|2,1:2|1:2,0:0:0:0:
127,29,50019,1,10,0:0:0:0:
48,91,50327,1,8,0:0:0:0:
65,189,50634,1,10,0:0:0:0:
158,225,50942,2,0,L|257:212,1,100,8|10,0:0|0:0,0:0:0:0:
333,148,51557,1,8,0:0:0:0:
420,197,51865,2,0,P|426:221|426:246,1,50,10|8,0:0|3:0,0:0:0:0:
418,295,52173,6,0,P|374:318|326:312,1,100,8|10,3:0|0:0,0:0:0:0:
284,337,52634,1,2,1:2:0:0:
284,337,52788,2,0,P|240:313|192:319,1,100,14|2,0:0|1:2,0:0:0:0:
114,382,53404,1,14,0:0:0:0:
41,313,53711,1,14,0:0:0:0:
99,231,54019,2,0,L|148:224,2,50,8|8|8,0:0|0:0|0:0,0:0:0:0:
64,202,54481,1,6,1:2:0:0:
64,202,54634,6,0,P|32:122|88:57,1,179.999994506836,0|0,3:0|3:0,0:0:0:0:
174,32,55557,1,0,1:0:0:0:
230,102,55865,2,0,P|268:123|312:117,1,89.9999972534181,0|0,3:0|0:0,0:0:0:0:
371,48,56481,2,0,L|376:3,2,44.999998626709,0|0|0,0:0|0:0|1:0,0:0:0:0:
449,92,57096,5,0,1:0:0:0:
509,159,57404,1,0,0:0:0:0:
439,215,57711,2,0,L|455:348,1,134.999995880127,0|0,3:0|0:0,0:0:0:0:
419,376,58327,2,0,P|375:381|336:360,1,89.9999972534181,0|0,1:0|0:0,0:0:0:0:
272,296,58942,1,0,3:0:0:0:
330,227,59250,1,0,1:0:0:0:
268,161,59557,6,0,B|303:53|303:53|256:6,1,179.999994506836,0|0,1:0|3:0,0:0:0:0:
173,42,60481,1,0,1:0:0:0:
86,17,60788,2,0,P|64:55|70:99,1,89.9999972534181
112,190,61404,6,0,L|105:239,1,50,8|8,0:0|3:0,0:0:0:0:
72,276,61711,1,4,3:0:0:0:
72,276,61865,1,4,1:2:0:0:
72,276,62788,2,0,L|78:325,1,50,2|10,1:2|0:2,0:0:0:0:
84,376,63096,1,6,1:2:0:0:
324,307,63865,2,0,P|348:301|373:303,1,50,10|10,0:0|0:0,0:0:0:0:
424,324,64173,1,10,0:0:0:0:
423,324,64327,6,0,P|452:278|443:225,1,110.000003356934,6|2,1:2|1:2,0:0:0:0:
421,175,64788,1,10,0:0:0:0:
463,75,65096,1,0,1:0:0:0:
463,75,65250,2,0,L|399:67,1,55.0000016784668,2|10,0:0|0:0,0:0:0:0:
371,27,65557,2,0,L|261:40,1,110.000003356934,2|2,0:0|0:0,0:0:0:0:
233,89,66019,1,10,0:0:0:0:
233,89,66173,2,0,L|123:75,1,110.000003356934,2|2,0:0|0:0,0:0:0:0:
29,132,66788,1,2,0:0:0:0:
104,219,67096,5,2,0:0:0:0:
104,219,67250,2,0,P|130:212|157:218,1,55.0000016784668,10|2,0:0|0:0,0:0:0:0:
209,236,67557,2,0,L|201:299,2,55.0000016784668,2|2|10,1:2|0:0|0:0,0:0:0:0:
254,203,68019,2,0,P|299:174|352:183,1,110.000003356934,2|10,0:0|0:0,0:0:0:0:
400,210,68481,1,10,0:0:0:0:
485,279,68788,2,0,L|477:342,1,55.0000016784668,10|10,0:0|0:0,0:0:0:0:
440,373,69096,1,10,0:0:0:0:
440,373,69250,6,0,P|386:382|341:353,1,110.000003356934,6|2,1:2|1:2,0:0:0:0:
308,309,69711,1,10,0:0:0:0:
225,381,70019,1,0,1:2:0:0:
225,381,70173,2,0,L|161:373,1,55.0000016784668,2|10,0:0|0:0,0:0:0:0:
150,322,70481,2,0,L|40:335,1,110.000003356934,2|2,0:0|0:0,0:0:0:0:
7,298,70942,1,10,0:0:0:0:
7,298,71096,2,0,P|-2:244|26:199,1,110.000003356934,2|2,0:0|0:0,0:0:0:0:
65,96,71711,6,0,L|174:82,1,110.000003356934,2|0,0:0|0:0,0:0:0:0:
209,40,72173,1,10,0:0:0:0:
209,40,72327,2,0,L|318:53,1,110.000003356934,0|2,0:0|1:2,0:0:0:0:
427,67,72942,2,0,P|455:112|446:165,1,110.000003356934,6|8,1:2|3:0,0:0:0:0:
423,215,73404,1,4,3:0:0:0:
405,323,73711,2,0,P|378:329|350:327,1,55.0000016784668,10|0,2:0|1:0,0:0:0:0:
305,305,74019,1,10,2:0:0:0:
305,305,74173,6,0,P|251:295|206:324,1,110.000003356934,6|2,1:2|0:0,0:0:0:0:
179,372,74634,1,10,0:0:0:0:
80,334,74942,1,0,1:2:0:0:
80,334,75096,2,0,L|73:279,1,55.0000016784668,2|10,0:0|0:0,0:0:0:0:
25,250,75404,2,0,L|38:138,1,110.000003356934,2|2,0:0|0:0,0:0:0:0:
48,89,75865,1,10,0:0:0:0:
48,89,76019,2,0,P|93:60|146:69,1,110.000003356934,2|2,0:0|0:0,0:0:0:0:
238,128,76634,1,2,0:0:0:0:
195,231,76942,5,2,0:0:0:0:
195,231,77096,2,0,L|201:285,1,55.0000016784668,10|2,0:0|0:0,0:0:0:0:
246,317,77404,2,0,L|239:371,2,55.0000016784668,2|2|10,1:2|0:0|0:0,0:0:0:0:
298,301,77865,1,14,0:0:0:0:
384,368,78173,1,2,1:2:0:0:
482,319,78481,2,0,P|488:292|486:264,1,55.0000016784668,10|8,0:0|0:0,0:0:0:0:
452,221,78788,2,0,P|445:194|447:166,1,55.0000016784668,10|8,0:0|0:0,0:0:0:0:
462,113,79096,6,0,P|416:84|363:93,1,110.000003356934,6|0,1:2|1:2,0:0:0:0:
313,115,79557,1,8,0:0:0:0:
260,18,79865,1,10,0:0:0:0:
150,6,80173,1,10,0:0:0:0:
71,83,80481,2,0,L|57:192,1,110.000003356934,8|8,0:0|0:0,0:0:0:0:
41,301,81096,1,10,0:0:0:0:
138,363,81404,1,8,0:0:0:0:
138,363,81557,6,0,P|183:334|236:343,1,110.000003356934,6|2,1:2|1:2,0:0:0:0:
278,379,82019,2,0,P|304:385|332:383,1,55.0000016784668,10|2,0:0|1:2,0:0:0:0:
376,350,82327,1,10,0:0:0:0:
481,379,82634,1,2,1:2:0:0:
511,273,82942,2,0,L|504:218,1,55.0000016784668,10|2,0:0|1:2,0:0:0:0:
459,186,83250,1,14,0:0:0:0:
356,145,83557,2,0,P|354:117|360:90,2,55.0000016784668,10|10|10,0:0|0:0|0:0,0:0:0:0:
320,187,84019,1,2,1:2:0:0:
320,187,84173,6,0,P|266:266|170:262,1,200,0|0,3:0|3:0,0:0:0:0:
70,265,85096,1,0,1:2:0:0:
19,178,85404,2,0,L|32:66,1,100
123,38,86019,2,0,B|217:6|217:6|258:47,1,150,0|0,3:0|0:0,0:0:0:0:
288,77,86634,5,0,1:2:0:0:
479,17,87250,2,0,L|485:66,1,50,8|8,0:0|3:0,0:0:0:0:
491,116,87557,1,4,3:0:0:0:
418,184,87865,2,0,L|368:177,2,50,2|2|2,0:0|0:0|0:0,0:0:0:0:
450,222,88327,1,2,0:0:0:0:
413,315,88634,1,2,1:2:0:0:
498,366,88942,5,6,1:2:0:0:
