osu file format v14

[General]
AudioFilename: audio.mp3
AudioLeadIn: 0
PreviewTime: 63784
Countdown: 0
SampleSet: Soft
StackLeniency: 0.7
Mode: 3
LetterboxInBreaks: 0
SpecialStyle: 0
WidescreenStoryboard: 0

[Editor]
Bookmarks: 554,5323,15169,25323,34861,44707,54554,61938,64400,84246,89477
DistanceSpacing: 1
BeatDivisor: 4
GridSize: 16
TimelineZoom: 1.9

[Metadata]
Title:Chaos ga Kiwamaru (TV Size)
TitleUnicode:カオスが極まる (TV Size)
Artist:UNISON SQUARE GARDEN
ArtistUnicode:UNISON SQUARE GARDEN
Creator:Noch Einen
Version:Zero to Ichi // Hard
Source:ブルーロック
Tags:USG japanese rock j-rock BLUE LOCK BLUELOCK Tomoya Tabuchi 田淵智也 たぶちともや
BeatmapID:3853869
BeatmapSetID:1872905

[Difficulty]
HPDrainRate:8
CircleSize:7
OverallDifficulty:8
ApproachRate:5
SliderMultiplier:1.4
SliderTickRate:1

[Events]
//Background and Video events
0,0,"9b591b6a-c6e2-4f21-a989-b3979f7b73d2.jpg",0,0
//Break Periods
//Storyboard Layer 0 (Background)
//Storyboard Layer 1 (Fail)
//Storyboard Layer 2 (Pass)
//Storyboard Layer 3 (Foreground)
//Storyboard Layer 4 (Overlay)
//Storyboard Sound Samples

[TimingPoints]
554,307.692307692308,4,2,1,40,1,0
554,-100,4,2,1,40,0,0
64400,-100,4,2,1,40,0,1
84246,-100,4,2,1,40,0,0

[HitObjects]
182,192,554,5,0,0:0:0:0:
475,192,554,1,0,0:0:0:0:
402,192,707,1,0,0:0:0:0:
109,192,707,1,0,0:0:0:0:
329,192,861,1,0,0:0:0:0:
36,192,861,1,0,0:0:0:0:
475,192,1015,128,0,1323:0:0:0:0:
182,192,1015,1,0,0:0:0:0:
256,192,1015,1,0,0:0:0:0:
36,192,1323,1,0,0:0:0:0:
109,192,1477,1,0,0:0:0:0:
182,192,1630,1,0,0:0:0:0:
329,192,1707,1,0,0:0:0:0:
475,192,1784,1,0,0:0:0:0:
109,192,1938,1,0,0:0:0:0:
256,192,2015,1,0,0:0:0:0:
402,192,2092,1,0,0:0:0:0:
329,192,2246,1,0,0:0:0:0:
182,192,2323,1,0,0:0:0:0:
475,192,2400,1,0,0:0:0:0:
36,192,2400,1,0,0:0:0:0:
36,192,2554,1,0,0:0:0:0:
475,192,2554,1,0,0:0:0:0:
329,192,2707,1,0,0:0:0:0:
182,192,2707,1,0,0:0:0:0:
329,192,2861,1,0,0:0:0:0:
182,192,2861,1,0,0:0:0:0:
475,192,3015,1,0,0:0:0:0:
256,192,3015,1,0,0:0:0:0:
36,192,3015,128,0,3323:0:0:0:0:
182,192,3169,1,0,0:0:0:0:
329,192,3246,1,0,0:0:0:0:
475,192,3323,1,0,0:0:0:0:
109,192,3477,1,0,0:0:0:0:
329,192,3477,128,0,3784:0:0:0:0:
36,192,3630,1,0,0:0:0:0:
109,192,3707,1,0,0:0:0:0:
182,192,3784,1,0,0:0:0:0:
256,192,3938,1,0,0:0:0:0:
402,192,3938,128,0,4246:0:0:0:0:
182,192,4092,1,0,0:0:0:0:
256,192,4169,1,0,0:0:0:0:
329,192,4246,1,0,0:0:0:0:
182,192,4400,1,0,0:0:0:0:
402,192,4400,128,0,4554:0:0:0:0:
256,192,4400,128,0,4554:0:0:0:0:
36,192,4554,1,0,0:0:0:0:
109,192,4554,1,0,0:0:0:0:
475,192,4707,128,0,5015:0:0:0:0:
329,192,4707,128,0,5015:0:0:0:0:
256,192,4707,1,0,0:0:0:0:
109,192,5015,1,0,0:0:0:0:
36,192,5015,1,0,0:0:0:0:
36,192,5169,1,0,0:0:0:0:
109,192,5169,1,0,0:0:0:0:
475,192,5323,128,0,5630:0:0:0:0:
329,192,5323,1,0,0:0:0:0:
182,192,5323,1,0,0:0:0:0:
182,192,5630,128,0,5784:0:0:0:0:
109,192,5784,1,0,0:0:0:0:
329,192,5784,128,0,5938:0:0:0:0:
475,192,5938,128,0,6092:0:0:0:0:
256,192,6092,1,0,0:0:0:0:
36,192,6092,1,0,0:0:0:0:
402,192,6246,128,0,6400:0:0:0:0:
109,192,6400,1,0,0:0:0:0:
182,192,6400,1,0,0:0:0:0:
329,192,6554,128,0,6707:0:0:0:0:
36,192,6707,1,0,0:0:0:0:
475,192,6707,1,0,0:0:0:0:
256,192,6861,128,0,7015:0:0:0:0:
402,192,7015,1,0,0:0:0:0:
475,192,7015,1,0,0:0:0:0:
182,192,7169,128,0,7323:0:0:0:0:
329,192,7323,1,0,0:0:0:0:
36,192,7323,1,0,0:0:0:0:
109,192,7477,128,0,7630:0:0:0:0:
475,192,7630,1,0,0:0:0:0:
256,192,7630,1,0,0:0:0:0:
36,192,7784,128,0,8092:0:0:0:0:
329,192,7938,1,0,0:0:0:0:
402,192,7938,1,0,0:0:0:0:
182,192,8092,128,0,8246:0:0:0:0:
402,192,8246,1,0,0:0:0:0:
256,192,8246,1,0,0:0:0:0:
475,192,8246,128,0,8400:0:0:0:0:
182,192,8400,128,0,8554:0:0:0:0:
36,192,8554,1,0,0:0:0:0:
402,192,8707,1,0,0:0:0:0:
256,192,8707,128,0,8861:0:0:0:0:
109,192,8861,1,0,0:0:0:0:
182,192,9015,1,0,0:0:0:0:
475,192,9015,1,0,0:0:0:0:
329,192,9015,128,0,9169:0:0:0:0:
36,192,9169,1,0,0:0:0:0:
109,192,9323,128,0,9477:0:0:0:0:
329,192,9323,1,0,0:0:0:0:
402,192,9400,1,0,0:0:0:0:
475,192,9477,1,0,0:0:0:0:
329,192,9630,1,0,0:0:0:0:
109,192,9630,1,0,0:0:0:0:
182,192,9707,1,0,0:0:0:0:
256,192,9784,1,0,0:0:0:0:
329,192,9861,1,0,0:0:0:0:
475,192,9938,1,0,0:0:0:0:
36,192,10015,1,0,0:0:0:0:
109,192,10092,1,0,0:0:0:0:
182,192,10169,1,0,0:0:0:0:
256,192,10246,1,0,0:0:0:0:
402,192,10246,128,0,10554:0:0:0:0:
36,192,10246,1,0,0:0:0:0:
182,192,10554,128,0,10707:0:0:0:0:
36,192,10554,1,0,0:0:0:0:
329,192,10707,128,0,10861:0:0:0:0:
182,192,10861,1,0,0:0:0:0:
475,192,10861,1,0,0:0:0:0:
402,192,10938,1,0,0:0:0:0:
36,192,11015,1,0,0:0:0:0:
329,192,11015,1,0,0:0:0:0:
329,192,11169,128,0,11323:0:0:0:0:
36,192,11169,1,0,0:0:0:0:
256,192,11323,128,0,11477:0:0:0:0:
475,192,11477,128,0,11784:0:0:0:0:
182,192,11477,1,0,0:0:0:0:
36,192,11630,1,0,0:0:0:0:
109,192,11630,1,0,0:0:0:0:
256,192,11707,1,0,0:0:0:0:
402,192,11784,128,0,11938:0:0:0:0:
182,192,11938,1,0,0:0:0:0:
475,192,12092,1,0,0:0:0:0:
329,192,12092,128,0,12246:0:0:0:0:
402,192,12400,1,0,0:0:0:0:
256,192,12400,128,0,12554:0:0:0:0:
329,192,12707,128,0,13015:0:0:0:0:
182,192,12707,1,0,0:0:0:0:
36,192,12707,128,0,13169:0:0:0:0:
109,192,13015,128,0,13169:0:0:0:0:
329,192,13169,128,0,13323:0:0:0:0:
475,192,13169,1,0,0:0:0:0:
182,192,13323,128,0,13477:0:0:0:0:
402,192,13477,1,0,0:0:0:0:
36,192,13477,1,0,0:0:0:0:
256,192,13630,128,0,13784:0:0:0:0:
475,192,13784,1,0,0:0:0:0:
109,192,13784,128,0,13938:0:0:0:0:
329,192,13938,128,0,14092:0:0:0:0:
36,192,14092,1,0,0:0:0:0:
475,192,14092,128,0,14246:0:0:0:0:
182,192,14246,128,0,14400:0:0:0:0:
256,192,14400,1,0,0:0:0:0:
329,192,14400,128,0,14554:0:0:0:0:
36,192,14554,1,0,0:0:0:0:
109,192,14554,128,0,14861:0:0:0:0:
402,192,14707,128,0,15169:0:0:0:0:
256,192,14861,128,0,15169:0:0:0:0:
36,192,15169,128,0,15477:0:0:0:0:
109,192,15169,1,0,0:0:0:0:
182,192,15169,1,0,0:0:0:0:
329,192,15477,128,0,15630:0:0:0:0:
182,192,15630,128,0,15784:0:0:0:0:
36,192,15630,1,0,0:0:0:0:
256,192,15938,128,0,16092:0:0:0:0:
402,192,16092,1,0,0:0:0:0:
109,192,16246,1,0,0:0:0:0:
256,192,16246,128,0,16400:0:0:0:0:
329,192,16554,1,0,0:0:0:0:
329,192,16707,128,0,16861:0:0:0:0:
475,192,16861,1,0,0:0:0:0:
36,192,16861,1,0,0:0:0:0:
109,192,17015,128,0,17169:0:0:0:0:
402,192,17169,1,0,0:0:0:0:
256,192,17323,128,0,17477:0:0:0:0:
36,192,17477,1,0,0:0:0:0:
109,192,17477,1,0,0:0:0:0:
329,192,17630,128,0,17784:0:0:0:0:
182,192,17784,128,0,17938:0:0:0:0:
475,192,17784,1,0,0:0:0:0:
402,192,17784,1,0,0:0:0:0:
36,192,17938,1,0,0:0:0:0:
256,192,17938,128,0,18092:0:0:0:0:
329,192,18092,128,0,18246:0:0:0:0:
109,192,18246,1,0,0:0:0:0:
182,192,18323,1,0,0:0:0:0:
256,192,18400,128,0,18554:0:0:0:0:
402,192,18400,1,0,0:0:0:0:
109,192,18554,1,0,0:0:0:0:
475,192,18554,128,0,18707:0:0:0:0:
182,192,18707,128,0,18861:0:0:0:0:
256,192,18861,1,0,0:0:0:0:
402,192,18861,128,0,19015:0:0:0:0:
36,192,19015,1,0,0:0:0:0:
475,192,19015,1,0,0:0:0:0:
182,192,19092,1,0,0:0:0:0:
329,192,19169,1,0,0:0:0:0:
109,192,19246,1,0,0:0:0:0:
256,192,19323,1,0,0:0:0:0:
36,192,19400,1,0,0:0:0:0:
475,192,19477,1,0,0:0:0:0:
329,192,19554,1,0,0:0:0:0:
182,192,19630,1,0,0:0:0:0:
36,192,19707,1,0,0:0:0:0:
256,192,19784,1,0,0:0:0:0:
109,192,19861,1,0,0:0:0:0:
329,192,19938,1,0,0:0:0:0:
182,192,20015,1,0,0:0:0:0:
475,192,20092,1,0,0:0:0:0:
402,192,20092,1,0,0:0:0:0:
36,192,20092,128,0,20400:0:0:0:0:
109,192,20400,128,0,20554:0:0:0:0:
329,192,20554,1,0,0:0:0:0:
475,192,20554,128,0,20707:0:0:0:0:
475,192,20861,128,0,21015:0:0:0:0:
329,192,21015,1,0,0:0:0:0:
256,192,21169,1,0,0:0:0:0:
109,192,21169,128,0,21323:0:0:0:0:
36,192,21477,128,0,21630:0:0:0:0:
182,192,21630,128,0,21784:0:0:0:0:
475,192,21784,1,0,0:0:0:0:
402,192,21784,1,0,0:0:0:0:
329,192,21938,128,0,22092:0:0:0:0:
109,192,22092,1,0,0:0:0:0:
256,192,22246,128,0,22400:0:0:0:0:
36,192,22400,1,0,0:0:0:0:
402,192,22400,1,0,0:0:0:0:
182,192,22554,1,0,0:0:0:0:
329,192,22707,128,0,22861:0:0:0:0:
475,192,22707,1,0,0:0:0:0:
402,192,22707,1,0,0:0:0:0:
36,192,22861,1,0,0:0:0:0:
182,192,22861,128,0,23015:0:0:0:0:
329,192,23015,128,0,23169:0:0:0:0:
36,192,23169,1,0,0:0:0:0:
182,192,23246,1,0,0:0:0:0:
402,192,23323,1,0,0:0:0:0:
475,192,23323,128,0,23477:0:0:0:0:
256,192,23477,128,0,23630:0:0:0:0:
109,192,23477,1,0,0:0:0:0:
36,192,23630,128,0,23784:0:0:0:0:
182,192,23784,1,0,0:0:0:0:
475,192,23784,128,0,23938:0:0:0:0:
402,192,23938,1,0,0:0:0:0:
109,192,23938,1,0,0:0:0:0:
329,192,24015,1,0,0:0:0:0:
256,192,24092,1,0,0:0:0:0:
182,192,24169,1,0,0:0:0:0:
109,192,24246,1,0,0:0:0:0:
36,192,24246,1,0,0:0:0:0:
256,192,24400,1,0,0:0:0:0:
402,192,24400,128,0,24554:0:0:0:0:
36,192,24554,1,0,0:0:0:0:
329,192,24707,1,0,0:0:0:0:
475,192,24707,128,0,24861:0:0:0:0:
109,192,24861,1,0,0:0:0:0:
256,192,25015,1,0,0:0:0:0:
36,192,25015,128,0,25323:0:0:0:0:
475,192,25015,1,0,0:0:0:0:
329,192,25323,128,0,25477:0:0:0:0:
256,192,25477,1,0,0:0:0:0:
182,192,25477,128,0,25630:0:0:0:0:
475,192,25630,128,0,25784:0:0:0:0:
402,192,25784,1,0,0:0:0:0:
36,192,25938,128,0,26092:0:0:0:0:
256,192,26092,1,0,0:0:0:0:
402,192,26092,128,0,26246:0:0:0:0:
36,192,26246,128,0,26400:0:0:0:0:
329,192,26400,128,0,26554:0:0:0:0:
256,192,26554,128,0,26707:0:0:0:0:
36,192,26707,1,0,0:0:0:0:
182,192,26707,128,0,26861:0:0:0:0:
475,192,26861,128,0,27015:0:0:0:0:
329,192,27015,1,0,0:0:0:0:
109,192,27169,1,0,0:0:0:0:
402,192,27323,1,0,0:0:0:0:
256,192,27323,128,0,27477:0:0:0:0:
256,192,27630,128,0,27784:0:0:0:0:
475,192,27784,128,0,27938:0:0:0:0:
109,192,27938,1,0,0:0:0:0:
402,192,27938,128,0,28092:0:0:0:0:
329,192,28092,128,0,28246:0:0:0:0:
36,192,28246,128,0,28400:0:0:0:0:
182,192,28400,128,0,28554:0:0:0:0:
475,192,28554,1,0,0:0:0:0:
329,192,28554,128,0,28707:0:0:0:0:
109,192,28707,128,0,28861:0:0:0:0:
256,192,28861,128,0,29015:0:0:0:0:
402,192,29015,128,0,29169:0:0:0:0:
36,192,29169,1,0,0:0:0:0:
182,192,29169,128,0,29323:0:0:0:0:
475,192,29323,128,0,29477:0:0:0:0:
329,192,29477,1,0,0:0:0:0:
109,192,29630,1,0,0:0:0:0:
256,192,29784,1,0,0:0:0:0:
475,192,29784,128,0,29938:0:0:0:0:
36,192,30092,128,0,30246:0:0:0:0:
329,192,30246,128,0,30400:0:0:0:0:
182,192,30400,1,0,0:0:0:0:
475,192,30400,128,0,30554:0:0:0:0:
109,192,30554,128,0,30707:0:0:0:0:
402,192,30707,128,0,30861:0:0:0:0:
256,192,30861,128,0,31015:0:0:0:0:
36,192,31015,1,0,0:0:0:0:
109,192,31015,1,0,0:0:0:0:
475,192,31169,128,0,31323:0:0:0:0:
256,192,31323,1,0,0:0:0:0:
402,192,31477,128,0,31630:0:0:0:0:
36,192,31630,1,0,0:0:0:0:
182,192,31630,128,0,31784:0:0:0:0:
329,192,31784,128,0,31938:0:0:0:0:
109,192,31938,1,0,0:0:0:0:
256,192,32092,1,0,0:0:0:0:
475,192,32246,1,0,0:0:0:0:
402,192,32246,128,0,32400:0:0:0:0:
402,192,32554,128,0,32707:0:0:0:0:
182,192,32707,1,0,0:0:0:0:
36,192,32861,1,0,0:0:0:0:
475,192,32861,128,0,33015:0:0:0:0:
256,192,33015,1,0,0:0:0:0:
475,192,33169,128,0,33323:0:0:0:0:
182,192,33323,1,0,0:0:0:0:
256,192,33477,1,0,0:0:0:0:
329,192,33477,128,0,33630:0:0:0:0:
109,192,33630,1,0,0:0:0:0:
182,192,33784,128,0,33938:0:0:0:0:
402,192,33938,1,0,0:0:0:0:
109,192,34092,1,0,0:0:0:0:
256,192,34092,1,0,0:0:0:0:
329,192,34195,1,0,0:0:0:0:
36,192,34297,1,0,0:0:0:0:
256,192,34400,1,0,0:0:0:0:
109,192,34502,1,0,0:0:0:0:
402,192,34605,1,0,0:0:0:0:
256,192,34707,1,0,0:0:0:0:
475,192,34861,1,0,0:0:0:0:
402,192,34861,1,0,0:0:0:0:
182,192,34861,1,0,0:0:0:0:
36,192,35630,1,0,0:0:0:0:
182,192,35630,1,0,0:0:0:0:
329,192,35938,1,0,0:0:0:0:
36,192,36092,1,0,0:0:0:0:
475,192,36554,1,0,0:0:0:0:
402,192,36554,1,0,0:0:0:0:
36,192,36861,1,0,0:0:0:0:
182,192,36861,1,0,0:0:0:0:
402,192,37323,1,0,0:0:0:0:
256,192,37323,1,0,0:0:0:0:
109,192,37323,1,0,0:0:0:0:
329,192,37630,1,0,0:0:0:0:
182,192,37707,1,0,0:0:0:0:
36,192,37784,1,0,0:0:0:0:
475,192,37938,1,0,0:0:0:0:
329,192,38015,1,0,0:0:0:0:
36,192,38092,1,0,0:0:0:0:
182,192,38092,1,0,0:0:0:0:
36,192,38400,1,0,0:0:0:0:
182,192,38554,1,0,0:0:0:0:
109,192,38707,1,0,0:0:0:0:
475,192,39015,1,0,0:0:0:0:
402,192,39015,1,0,0:0:0:0:
36,192,39323,1,0,0:0:0:0:
182,192,39323,1,0,0:0:0:0:
256,192,39656,1,0,0:0:0:0:
475,192,39784,1,0,0:0:0:0:
402,192,39784,1,0,0:0:0:0:
109,192,39784,1,0,0:0:0:0:
36,192,40554,1,0,0:0:0:0:
182,192,40554,1,0,0:0:0:0:
329,192,40861,1,0,0:0:0:0:
36,192,41015,1,0,0:0:0:0:
182,192,41169,1,0,0:0:0:0:
256,192,41323,1,0,0:0:0:0:
402,192,41477,1,0,0:0:0:0:
329,192,41477,1,0,0:0:0:0:
256,192,41784,1,0,0:0:0:0:
109,192,41784,1,0,0:0:0:0:
329,192,42092,1,0,0:0:0:0:
475,192,42246,1,0,0:0:0:0:
36,192,42246,1,0,0:0:0:0:
182,192,42246,1,0,0:0:0:0:
36,192,43015,1,0,0:0:0:0:
182,192,43015,1,0,0:0:0:0:
256,192,43323,1,0,0:0:0:0:
475,192,43630,1,0,0:0:0:0:
329,192,43630,1,0,0:0:0:0:
329,192,43938,1,0,0:0:0:0:
182,192,43938,1,0,0:0:0:0:
36,192,44246,1,0,0:0:0:0:
182,192,44246,1,0,0:0:0:0:
329,192,44400,1,0,0:0:0:0:
256,192,44477,1,0,0:0:0:0:
182,192,44554,1,0,0:0:0:0:
109,192,44630,1,0,0:0:0:0:
475,192,44707,1,0,0:0:0:0:
402,192,44707,1,0,0:0:0:0:
329,192,44707,1,0,0:0:0:0:
182,192,45015,1,0,0:0:0:0:
329,192,45092,1,0,0:0:0:0:
475,192,45169,1,0,0:0:0:0:
109,192,45323,1,0,0:0:0:0:
256,192,45400,1,0,0:0:0:0:
402,192,45477,1,0,0:0:0:0:
36,192,45630,1,0,0:0:0:0:
329,192,45707,1,0,0:0:0:0:
182,192,45784,1,0,0:0:0:0:
402,192,45938,1,0,0:0:0:0:
109,192,46015,1,0,0:0:0:0:
256,192,46092,1,0,0:0:0:0:
182,192,46246,1,0,0:0:0:0:
329,192,46323,1,0,0:0:0:0:
475,192,46400,1,0,0:0:0:0:
256,192,46554,1,0,0:0:0:0:
402,192,46630,1,0,0:0:0:0:
109,192,46707,1,0,0:0:0:0:
36,192,46707,1,0,0:0:0:0:
475,192,46861,1,0,0:0:0:0:
182,192,46938,1,0,0:0:0:0:
329,192,47015,1,0,0:0:0:0:
475,192,47092,1,0,0:0:0:0:
36,192,47169,128,0,47630:0:0:0:0:
109,192,47169,1,0,0:0:0:0:
256,192,47169,1,0,0:0:0:0:
256,192,47477,1,0,0:0:0:0:
109,192,47477,128,0,47630:0:0:0:0:
475,192,47630,1,0,0:0:0:0:
329,192,47630,1,0,0:0:0:0:
256,192,47784,1,0,0:0:0:0:
109,192,47784,128,0,48246:0:0:0:0:
36,192,47784,1,0,0:0:0:0:
402,192,48092,1,0,0:0:0:0:
256,192,48092,128,0,48246:0:0:0:0:
475,192,48246,1,0,0:0:0:0:
402,192,48246,1,0,0:0:0:0:
256,192,48400,128,0,48554:0:0:0:0:
109,192,48400,128,0,48554:0:0:0:0:
329,192,48707,128,0,48861:0:0:0:0:
182,192,48707,128,0,48861:0:0:0:0:
402,192,49015,128,0,49169:0:0:0:0:
256,192,49015,128,0,49169:0:0:0:0:
475,192,49323,128,0,49477:0:0:0:0:
329,192,49323,128,0,49477:0:0:0:0:
36,192,49630,128,0,49784:0:0:0:0:
109,192,49630,128,0,49784:0:0:0:0:
256,192,49630,1,0,0:0:0:0:
329,192,49938,128,0,50092:0:0:0:0:
182,192,50092,1,0,0:0:0:0:
402,192,50092,128,0,50246:0:0:0:0:
475,192,50246,128,0,50400:0:0:0:0:
36,192,50400,1,0,0:0:0:0:
109,192,50400,1,0,0:0:0:0:
329,192,50554,128,0,50861:0:0:0:0:
36,192,50707,1,0,0:0:0:0:
402,192,50707,128,0,51015:0:0:0:0:
475,192,50861,128,0,51169:0:0:0:0:
182,192,51015,1,0,0:0:0:0:
329,192,51169,128,0,51630:0:0:0:0:
36,192,51323,1,0,0:0:0:0:
402,192,51323,128,0,51630:0:0:0:0:
475,192,51477,128,0,51630:0:0:0:0:
36,192,51630,1,0,0:0:0:0:
109,192,51630,1,0,0:0:0:0:
256,192,51784,1,0,0:0:0:0:
475,192,51938,1,0,0:0:0:0:
402,192,51938,1,0,0:0:0:0:
182,192,52092,1,0,0:0:0:0:
329,192,52246,1,0,0:0:0:0:
109,192,52323,1,0,0:0:0:0:
402,192,52400,1,0,0:0:0:0:
256,192,52554,1,0,0:0:0:0:
475,192,52554,1,0,0:0:0:0:
182,192,52707,1,0,0:0:0:0:
329,192,52784,1,0,0:0:0:0:
36,192,52861,1,0,0:0:0:0:
109,192,52861,1,0,0:0:0:0:
475,192,52861,1,0,0:0:0:0:
256,192,53015,1,0,0:0:0:0:
402,192,53169,1,0,0:0:0:0:
182,192,53323,1,0,0:0:0:0:
36,192,53477,1,0,0:0:0:0:
329,192,53477,1,0,0:0:0:0:
475,192,53477,1,0,0:0:0:0:
329,192,53630,1,0,0:0:0:0:
256,192,53707,1,0,0:0:0:0:
475,192,53784,1,0,0:0:0:0:
36,192,53784,1,0,0:0:0:0:
182,192,53784,1,0,0:0:0:0:
329,192,54092,1,0,0:0:0:0:
182,192,54169,1,0,0:0:0:0:
36,192,54246,1,0,0:0:0:0:
256,192,54323,1,0,0:0:0:0:
475,192,54400,1,0,0:0:0:0:
182,192,54477,1,0,0:0:0:0:
402,192,54554,1,0,0:0:0:0:
109,192,54707,1,0,0:0:0:0:
329,192,54707,1,0,0:0:0:0:
475,192,55015,128,0,55092:0:0:0:0:
402,192,55092,128,0,55169:0:0:0:0:
329,192,55169,128,0,55246:0:0:0:0:
256,192,55246,128,0,55323:0:0:0:0:
182,192,55323,1,0,0:0:0:0:
36,192,55323,1,0,0:0:0:0:
36,192,55630,128,0,55938:0:0:0:0:
182,192,55938,128,0,56246:0:0:0:0:
475,192,56246,128,0,56323:0:0:0:0:
36,192,56246,128,0,57015:0:0:0:0:
402,192,56323,128,0,56400:0:0:0:0:
329,192,56400,128,0,56477:0:0:0:0:
256,192,56477,128,0,56554:0:0:0:0:
182,192,56554,128,0,57015:0:0:0:0:
475,192,56861,1,0,0:0:0:0:
475,192,57169,1,0,0:0:0:0:
182,192,57169,128,0,57784:0:0:0:0:
36,192,57169,128,0,57477:0:0:0:0:
329,192,57477,128,0,57784:0:0:0:0:
36,192,57784,128,0,58400:0:0:0:0:
475,192,57784,128,0,58400:0:0:0:0:
256,192,58092,1,0,0:0:0:0:
256,192,58400,1,0,0:0:0:0:
182,192,58619,1,0,0:0:0:0:
475,192,58861,128,0,58938:0:0:0:0:
329,192,58938,128,0,59015:0:0:0:0:
36,192,59015,1,0,0:0:0:0:
182,192,59015,1,0,0:0:0:0:
256,192,59323,1,0,0:0:0:0:
256,192,59630,1,0,0:0:0:0:
36,192,59938,128,0,60015:0:0:0:0:
109,192,60015,128,0,60092:0:0:0:0:
182,192,60092,128,0,60169:0:0:0:0:
256,192,60169,128,0,60246:0:0:0:0:
475,192,60246,1,0,0:0:0:0:
329,192,60246,1,0,0:0:0:0:
256,192,60554,128,0,60861:0:0:0:0:
109,192,60861,128,0,61169:0:0:0:0:
402,192,61169,128,0,61477:0:0:0:0:
36,192,61477,1,0,0:0:0:0:
109,192,61477,1,0,0:0:0:0:
329,192,61554,1,0,0:0:0:0:
256,192,61630,1,0,0:0:0:0:
182,192,61707,1,0,0:0:0:0:
475,192,61784,1,0,0:0:0:0:
402,192,61861,1,0,0:0:0:0:
182,192,61938,1,0,0:0:0:0:
329,192,61938,128,0,62246:0:0:0:0:
36,192,62246,128,0,62400:0:0:0:0:
182,192,62400,128,0,62554:0:0:0:0:
475,192,62554,128,0,62861:0:0:0:0:
182,192,62861,1,0,0:0:0:0:
109,192,62938,1,0,0:0:0:0:
36,192,63015,128,0,63477:0:0:0:0:
475,192,63015,1,0,0:0:0:0:
402,192,63169,128,0,63477:0:0:0:0:
256,192,63323,128,0,63477:0:0:0:0:
109,192,63477,1,0,0:0:0:0:
475,192,63938,1,0,0:0:0:0:
36,192,63938,1,0,0:0:0:0:
329,192,64015,1,0,0:0:0:0:
109,192,64092,1,0,0:0:0:0:
402,192,64169,1,0,0:0:0:0:
182,192,64246,1,0,0:0:0:0:
256,192,64323,1,0,0:0:0:0:
36,192,64400,1,0,0:0:0:0:
475,192,64400,1,0,0:0:0:0:
329,192,64400,1,0,0:0:0:0:
36,192,64707,1,0,0:0:0:0:
182,192,64784,1,0,0:0:0:0:
475,192,64861,1,0,0:0:0:0:
329,192,64861,1,0,0:0:0:0:
109,192,65015,1,0,0:0:0:0:
256,192,65169,1,0,0:0:0:0:
36,192,65323,128,0,65477:0:0:0:0:
182,192,65477,1,0,0:0:0:0:
475,192,65477,128,0,65938:0:0:0:0:
329,192,65630,128,0,65938:0:0:0:0:
36,192,65784,1,0,0:0:0:0:
182,192,65938,128,0,66092:0:0:0:0:
109,192,66092,128,0,66554:0:0:0:0:
329,192,66092,1,0,0:0:0:0:
475,192,66246,128,0,66554:0:0:0:0:
256,192,66400,1,0,0:0:0:0:
36,192,66554,128,0,66707:0:0:0:0:
182,192,66707,1,0,0:0:0:0:
329,192,66707,128,0,67169:0:0:0:0:
475,192,66861,128,0,67169:0:0:0:0:
36,192,67015,1,0,0:0:0:0:
109,192,67015,1,0,0:0:0:0:
182,192,67169,1,0,0:0:0:0:
475,192,67323,1,0,0:0:0:0:
329,192,67323,1,0,0:0:0:0:
109,192,67477,1,0,0:0:0:0:
256,192,67630,128,0,67784:0:0:0:0:
475,192,67784,128,0,68246:0:0:0:0:
182,192,67938,1,0,0:0:0:0:
36,192,67938,128,0,68092:0:0:0:0:
329,192,68092,128,0,68246:0:0:0:0:
109,192,68246,1,0,0:0:0:0:
475,192,68400,1,0,0:0:0:0:
329,192,68400,1,0,0:0:0:0:
36,192,68554,1,0,0:0:0:0:
182,192,68554,1,0,0:0:0:0:
475,192,68707,1,0,0:0:0:0:
329,192,68707,1,0,0:0:0:0:
182,192,68861,1,0,0:0:0:0:
36,192,68861,1,0,0:0:0:0:
402,192,68938,1,0,0:0:0:0:
329,192,69015,1,0,0:0:0:0:
256,192,69092,1,0,0:0:0:0:
182,192,69169,1,0,0:0:0:0:
109,192,69246,1,0,0:0:0:0:
475,192,69323,1,0,0:0:0:0:
402,192,69323,1,0,0:0:0:0:
329,192,69323,1,0,0:0:0:0:
36,192,69630,1,0,0:0:0:0:
329,192,69784,1,0,0:0:0:0:
182,192,69784,1,0,0:0:0:0:
109,192,70092,1,0,0:0:0:0:
402,192,70246,128,0,70400:0:0:0:0:
329,192,70400,1,0,0:0:0:0:
36,192,70400,128,0,70861:0:0:0:0:
182,192,70554,128,0,70861:0:0:0:0:
402,192,70707,1,0,0:0:0:0:
256,192,70861,128,0,71015:0:0:0:0:
329,192,71015,128,0,71323:0:0:0:0:
36,192,71015,1,0,0:0:0:0:
475,192,71169,128,0,71323:0:0:0:0:
109,192,71323,1,0,0:0:0:0:
256,192,71477,128,0,71630:0:0:0:0:
475,192,71630,1,0,0:0:0:0:
109,192,71630,128,0,72092:0:0:0:0:
182,192,71784,128,0,72092:0:0:0:0:
329,192,71938,1,0,0:0:0:0:
475,192,71938,1,0,0:0:0:0:
256,192,72092,1,0,0:0:0:0:
182,192,72246,1,0,0:0:0:0:
109,192,72246,1,0,0:0:0:0:
256,192,72400,1,0,0:0:0:0:
475,192,72554,1,0,0:0:0:0:
402,192,72554,1,0,0:0:0:0:
182,192,72630,1,0,0:0:0:0:
329,192,72707,1,0,0:0:0:0:
109,192,72784,1,0,0:0:0:0:
256,192,72861,1,0,0:0:0:0:
475,192,73015,1,0,0:0:0:0:
182,192,73015,1,0,0:0:0:0:
36,192,73015,1,0,0:0:0:0:
402,192,73323,1,0,0:0:0:0:
256,192,73323,1,0,0:0:0:0:
36,192,73477,1,0,0:0:0:0:
109,192,73477,1,0,0:0:0:0:
475,192,73784,1,0,0:0:0:0:
329,192,73784,1,0,0:0:0:0:
182,192,73938,1,0,0:0:0:0:
402,192,74092,1,0,0:0:0:0:
256,192,74092,1,0,0:0:0:0:
475,192,74246,1,0,0:0:0:0:
36,192,74246,1,0,0:0:0:0:
109,192,74246,1,0,0:0:0:0:
475,192,74554,1,0,0:0:0:0:
329,192,74630,1,0,0:0:0:0:
36,192,74707,1,0,0:0:0:0:
182,192,74707,1,0,0:0:0:0:
402,192,74861,1,0,0:0:0:0:
256,192,75015,1,0,0:0:0:0:
109,192,75169,128,0,75323:0:0:0:0:
329,192,75323,128,0,75784:0:0:0:0:
475,192,75323,1,0,0:0:0:0:
182,192,75477,128,0,75784:0:0:0:0:
36,192,75630,1,0,0:0:0:0:
475,192,75784,128,0,75938:0:0:0:0:
109,192,75938,1,0,0:0:0:0:
402,192,75938,128,0,76400:0:0:0:0:
36,192,76092,128,0,76400:0:0:0:0:
256,192,76246,1,0,0:0:0:0:
109,192,76400,128,0,76554:0:0:0:0:
182,192,76554,1,0,0:0:0:0:
329,192,76554,128,0,76861:0:0:0:0:
475,192,76707,128,0,76861:0:0:0:0:
109,192,76861,1,0,0:0:0:0:
256,192,77015,1,0,0:0:0:0:
475,192,77169,1,0,0:0:0:0:
402,192,77169,1,0,0:0:0:0:
182,192,77323,1,0,0:0:0:0:
36,192,77477,1,0,0:0:0:0:
329,192,77630,1,0,0:0:0:0:
256,192,77784,1,0,0:0:0:0:
109,192,77784,1,0,0:0:0:0:
36,192,77938,1,0,0:0:0:0:
475,192,77938,1,0,0:0:0:0:
402,192,77938,1,0,0:0:0:0:
182,192,78092,1,0,0:0:0:0:
256,192,78246,1,0,0:0:0:0:
402,192,78246,1,0,0:0:0:0:
475,192,78400,1,0,0:0:0:0:
109,192,78400,1,0,0:0:0:0:
182,192,78554,1,0,0:0:0:0:
256,192,78630,1,0,0:0:0:0:
329,192,78707,1,0,0:0:0:0:
36,192,78784,1,0,0:0:0:0:
109,192,78861,1,0,0:0:0:0:
182,192,78938,1,0,0:0:0:0:
329,192,79015,1,0,0:0:0:0:
402,192,79092,1,0,0:0:0:0:
36,192,79169,1,0,0:0:0:0:
256,192,79169,1,0,0:0:0:0:
475,192,79169,1,0,0:0:0:0:
329,192,79477,1,0,0:0:0:0:
182,192,79554,1,0,0:0:0:0:
475,192,79630,1,0,0:0:0:0:
36,192,79630,1,0,0:0:0:0:
402,192,79784,1,0,0:0:0:0:
256,192,79861,1,0,0:0:0:0:
36,192,79938,1,0,0:0:0:0:
109,192,79938,1,0,0:0:0:0:
182,192,80092,1,0,0:0:0:0:
329,192,80169,1,0,0:0:0:0:
36,192,80246,1,0,0:0:0:0:
475,192,80246,1,0,0:0:0:0:
256,192,80400,1,0,0:0:0:0:
329,192,80477,1,0,0:0:0:0:
109,192,80554,1,0,0:0:0:0:
402,192,80554,1,0,0:0:0:0:
182,192,80707,1,0,0:0:0:0:
256,192,80784,1,0,0:0:0:0:
36,192,80861,1,0,0:0:0:0:
329,192,80861,1,0,0:0:0:0:
475,192,81015,1,0,0:0:0:0:
256,192,81092,1,0,0:0:0:0:
36,192,81169,1,0,0:0:0:0:
109,192,81169,1,0,0:0:0:0:
182,192,81323,1,0,0:0:0:0:
256,192,81400,1,0,0:0:0:0:
475,192,81477,1,0,0:0:0:0:
329,192,81477,1,0,0:0:0:0:
182,192,81630,1,0,0:0:0:0:
36,192,81630,1,0,0:0:0:0:
109,192,81630,1,0,0:0:0:0:
329,192,81938,1,0,0:0:0:0:
256,192,82092,1,0,0:0:0:0:
109,192,82092,1,0,0:0:0:0:
36,192,82246,1,0,0:0:0:0:
475,192,82400,1,0,0:0:0:0:
182,192,82400,1,0,0:0:0:0:
182,192,82554,1,0,0:0:0:0:
402,192,82707,1,0,0:0:0:0:
256,192,82861,1,0,0:0:0:0:
475,192,83015,1,0,0:0:0:0:
109,192,83015,1,0,0:0:0:0:
182,192,83169,1,0,0:0:0:0:
329,192,83323,1,0,0:0:0:0:
36,192,83323,1,0,0:0:0:0:
402,192,83323,1,0,0:0:0:0:
402,192,83477,1,0,0:0:0:0:
182,192,83630,1,0,0:0:0:0:
109,192,83707,1,0,0:0:0:0:
36,192,83784,1,0,0:0:0:0:
256,192,83861,1,0,0:0:0:0:
475,192,83938,1,0,0:0:0:0:
109,192,84092,1,0,0:0:0:0:
182,192,84092,1,0,0:0:0:0:
402,192,84246,1,0,0:0:0:0:
329,192,84246,1,0,0:0:0:0:
182,192,84554,128,0,84630:0:0:0:0:
475,192,84630,128,0,84707:0:0:0:0:
402,192,84707,128,0,84784:0:0:0:0:
329,192,84784,128,0,84861:0:0:0:0:
109,192,84861,1,0,0:0:0:0:
36,192,84861,1,0,0:0:0:0:
256,192,85015,1,0,0:0:0:0:
36,192,85169,128,0,85477:0:0:0:0:
329,192,85323,1,0,0:0:0:0:
402,192,85400,1,0,0:0:0:0:
182,192,85477,128,0,85784:0:0:0:0:
475,192,85477,1,0,0:0:0:0:
475,192,85784,128,0,85861:0:0:0:0:
36,192,85784,128,0,86707:0:0:0:0:
402,192,85861,128,0,85938:0:0:0:0:
329,192,85938,128,0,86015:0:0:0:0:
256,192,86015,128,0,86092:0:0:0:0:
182,192,86092,128,0,86707:0:0:0:0:
475,192,86400,1,0,0:0:0:0:
329,192,86707,128,0,87015:0:0:0:0:
402,192,87015,128,0,87323:0:0:0:0:
256,192,87323,1,0,0:0:0:0:
475,192,87323,128,0,87630:0:0:0:0:
36,192,87400,1,0,0:0:0:0:
109,192,87477,1,0,0:0:0:0:
182,192,87554,1,0,0:0:0:0:
329,192,87630,1,0,0:0:0:0:
402,192,87707,1,0,0:0:0:0:
475,192,87784,1,0,0:0:0:0:
109,192,87938,128,0,88092:0:0:0:0:
475,192,88092,128,0,88246:0:0:0:0:
256,192,88246,128,0,88400:0:0:0:0:
36,192,88400,128,0,88554:0:0:0:0:
402,192,88554,1,0,0:0:0:0:
329,192,88630,1,0,0:0:0:0:
256,192,88707,1,0,0:0:0:0:
36,192,88861,1,0,0:0:0:0:
182,192,88861,1,0,0:0:0:0:
329,192,88989,128,0,89477:0:0:0:0:
402,192,88989,128,0,89477:0:0:0:0:
475,192,88989,128,0,89477:0:0:0:0:
