osu file format v14

[General]
AudioFilename: audio.mp3
AudioLeadIn: 0
PreviewTime: 55909
Countdown: 0
SampleSet: Soft
StackLeniency: 0.7
Mode: 0
LetterboxInBreaks: 0
WidescreenStoryboard: 0

[Editor]
DistanceSpacing: 0.8
BeatDivisor: 4
GridSize: 32
TimelineZoom: 1.2

[Metadata]
Title:10% roll, 10% romance (TV Size)
TitleUnicode:10% roll, 10% romance (TV Size)
Artist:UNISON SQUARE GARDEN
ArtistUnicode:UNISON SQUARE GARDEN
Creator:Hazu-
Version:Wolf's Normal
Source:ボールルームへようこそ
Tags:wolf3211 -NanoRIPE- toybot ballroom e youkoso welcome to the opening op anime japanese
BeatmapID:1364099
BeatmapSetID:639236

[Difficulty]
HPDrainRate:4
CircleSize:3.5
OverallDifficulty:4
ApproachRate:5
SliderMultiplier:1.5
SliderTickRate:1

[Events]
//Background and Video events
0,0,"10 10.jpg",0,0
Video,280,"Ballroom.avi"
//Break Periods
//Storyboard Layer 0 (Background)
//Storyboard Layer 1 (Fail)
//Storyboard Layer 2 (Pass)
//Storyboard Layer 3 (Foreground)
//Storyboard Sound Samples

[TimingPoints]
686,432.276657060519,4,2,1,70,1,0
2415,-100,4,2,1,60,0,0
5873,-100,4,2,1,65,0,0
7602,-100,4,2,1,70,0,0
11060,-100,4,2,1,70,0,0
11492,-100,4,2,1,60,0,0
14518,-100,4,2,1,70,0,0
14951,-100,4,2,1,60,0,0
17977,-100,4,2,1,70,0,0
18409,-100,4,2,1,60,0,0
19706,-100,4,2,1,70,0,0
20138,-100,4,2,1,60,0,0
20570,-100,4,2,1,70,0,0
21003,-100,4,2,1,60,0,0
21435,-100,4,2,1,70,0,0
21867,-100,4,2,1,60,0,0
23164,-100,4,2,1,70,0,0
23596,-100,4,2,1,60,0,0
24893,-100,4,2,1,65,0,0
38077,-100,4,2,1,62,0,0
38672,-100,4,2,1,5,0,0
38726,-100,4,2,1,60,0,0
45642,-100,4,2,1,65,0,0
49100,-100,4,2,1,60,0,0
52559,-100,4,2,1,65,0,0
54288,-100,4,2,1,60,0,0
55152,468.75,4,2,1,60,1,0
55585,432.276657060519,4,2,1,65,1,0
55585,-100,4,2,1,65,0,0
55963,-100,4,2,1,5,0,0
56017,432.276657060519,4,2,1,70,1,1
56017,-100,4,2,1,70,0,1
62933,-100,4,2,1,60,0,1
66391,-100,4,2,1,70,0,1
83682,-100,4,2,1,60,0,0
87140,-100,4,2,1,65,0,0
88870,-100,4,2,1,70,0,0
89302,-100,4,2,1,5,0,0

[Colours]
Combo1 : 121,200,190
Combo2 : 227,101,79
Combo3 : 58,148,139
Combo4 : 231,176,150

[HitObjects]
170,197,686,6,0,P|195:249|177:304,1,112.5,12|8,0:0|0:0,0:0:0:0:
91,309,1334,2,0,P|66:257|84:202,1,112.5,6|8,0:0|0:3,0:0:0:0:
170,197,1982,2,0,L|246:193,1,75,8|8,0:3|0:3,0:0:0:0:
305,192,2415,6,0,B|341:200|376:176|376:176|409:200|449:192,1,150,14|2,3:0|0:0,0:0:0:0:
431,74,3279,2,0,P|371:57|320:73,1,112.5,10|10,3:0|0:0,0:0:0:0:
270,96,3820,1,10,0:0:0:0:
270,96,4036,2,0,P|218:116|154:100,1,112.5,10|10,0:0|0:3,0:0:0:0:
104,97,4576,2,0,B|112:183,1,75,10|8,0:3|0:3,0:0:0:0:
134,226,5008,2,0,P|144:270|117:342,1,112.5,10|2,0:0|0:0,0:0:0:0:
67,354,5549,1,2,0:0:0:0:
35,269,5873,6,0,L|190:268,1,150,6|10,0:0|0:0,0:0:0:0:
244,269,6521,1,8,0:0:0:0:
244,269,6737,2,0,B|236:229|236:229|244:181|244:181|236:117,1,150,2|8,0:0|0:0,0:0:0:0:
353,94,7602,6,0,L|363:178,1,75,6|10,0:0|0:0,0:0:0:0:
373,227,8034,2,0,P|430:215|480:244,2,112.5,2|2|8,3:2|0:0|0:0,0:0:0:0:
292,316,9115,1,10,0:0:0:0:
292,316,9331,2,0,P|222:311|138:310,1,150,2|0,3:2|3:2,0:0:0:0:
134,220,10088,2,0,P|180:224|288:218,1,150,6|6,0:0|0:0,0:0:0:0:
408,288,11060,6,0,L|409:213,1,75,6|6,3:2|3:2,0:0:0:0:
410,153,11492,1,2,3:2:0:0:
341,54,11925,2,0,B|309:46|309:46|229:54|229:54|189:46,1,150,0|2,3:0|3:2,0:0:0:0:
133,38,12573,1,10,0:0:0:0:
133,38,12789,2,0,L|136:124,1,75,2|10,3:2|0:0,0:0:0:0:
140,172,13222,1,2,3:2:0:0:
140,172,13438,2,0,P|62:156|4:201,1,150,10|10,0:0|0:0,0:0:0:0:
12,254,14086,1,2,3:2:0:0:
101,333,14518,6,0,P|132:326|175:324,1,75,6|6,3:2|3:2,0:0:0:0:
231,303,14951,1,2,0:0:0:0:
343,344,15383,2,0,L|340:194,1,150,0|2,3:0|3:2,0:0:0:0:
341,134,16031,1,10,0:0:0:0:
341,134,16247,2,0,P|304:126|257:137,1,75,2|10,3:2|0:0,0:0:0:0:
219,172,16680,1,2,3:2:0:0:
219,172,16896,2,0,P|147:199|83:160,1,150,10|10,0:0|0:0,0:0:0:0:
53,116,17544,1,2,3:2:0:0:
120,16,17977,6,0,P|155:8|198:19,1,75,6|6,3:2|3:2,0:0:0:0:
248,37,18409,1,2,0:0:0:0:
366,16,18841,2,0,P|363:80|367:170,1,150,2|0,3:2|3:2,0:0:0:0:
376,225,19490,1,8,0:0:0:0:
376,225,19706,2,0,P|337:218|292:228,1,75,6|6,3:2|3:2,0:0:0:0:
251,257,20138,1,2,3:2:0:0:
304,364,20570,2,0,P|343:371|388:361,1,75,6|6,3:2|3:2,0:0:0:0:
428,333,21002,1,2,3:2:0:0:
376,225,21435,6,0,P|337:218|292:228,1,75,6|6,3:2|3:2,0:0:0:0:
251,257,21867,1,0,3:2:0:0:
140,304,22299,2,0,B|108:228|164:228|134:158,1,150,0|2,0:0|3:2,0:0:0:0:
104,106,22948,1,10,0:0:0:0:
104,106,23164,2,0,P|97:67|107:33,1,75,6|6,3:2|3:2,0:0:0:0:
164,16,23596,1,2,3:2:0:0:
251,98,24028,2,0,P|258:137|248:171,1,75,10|10,0:0|0:0,0:0:0:0:
191,189,24461,2,0,P|184:228|194:262,1,75,10|10,3:2|3:2,0:0:0:0:
221,314,24893,6,0,B|253:298|293:314|293:314|333:330|381:314,1,150,6|2,0:0|3:2,0:0:0:0:
477,270,25758,2,0,P|495:195|441:136,1,150,0|2,3:2|3:2,0:0:0:0:
397,120,26406,1,10,0:0:0:0:
397,120,26622,2,0,P|359:121|320:124,1,75,2|10,3:2|0:0,0:0:0:0:
268,149,27054,1,2,3:2:0:0:
268,149,27271,2,0,B|224:141|224:141|164:149|164:149|116:141,1,150,10|10,0:0|0:0,0:0:0:0:
61,128,27919,1,2,3:2:0:0:
63,246,28351,6,0,B|107:238|107:238|167:246|167:246|215:238,1,150,6|2,0:0|3:2,0:0:0:0:
329,219,29216,2,0,P|369:285|337:354,1,150,0|2,3:2|3:2,0:0:0:0:
289,372,29864,1,10,0:0:0:0:
289,372,30080,2,0,P|246:367|193:366,1,75,2|10,3:2|0:0,0:0:0:0:
154,360,30513,1,2,3:2:0:0:
154,360,30729,2,0,B|164:314|164:314|153:202,1,150,10|10,0:0|0:0,0:0:0:0:
145,152,31377,1,2,3:2:0:0:
68,59,31809,6,0,P|119:32|213:51,1,150,6|2,0:0|3:2,0:0:0:0:
284,139,32674,2,0,L|280:297,1,150,2|0,3:2|3:2,0:0:0:0:
257,344,33322,1,10,0:0:0:0:
257,344,33539,2,0,P|292:336|337:351,1,75,6|10,0:0|0:0,0:0:0:0:
384,368,33971,2,0,P|419:377|456:369,1,75,2|10,3:2|0:0,0:0:0:0:
501,329,34403,2,0,P|499:287|499:173,1,150,2|2,3:2|3:2,0:0:0:0:
500,119,35051,1,10,0:3:0:0:
410,57,35484,5,10,3:2:0:0:
410,57,35700,2,0,P|357:27|274:67,1,150,14|10,0:0|3:2,0:0:0:0:
256,114,36348,2,0,P|203:144|120:104,1,150,14|8,0:0|0:3,0:0:0:0:
81,71,36997,2,0,P|85:126|80:153,1,75,2|2,3:2|3:2,0:0:0:0:
67,203,37429,2,0,P|63:258|68:285,1,75,2|2,3:2|3:2,0:0:0:0:
161,349,38077,2,0,B|193:333|233:349|233:349|273:365|321:349,1,150,6|0,0:0|0:0,0:0:0:0:
367,348,38726,6,0,P|363:275|363:184,1,150,6|2,3:2|3:2,0:0:0:0:
270,121,39590,2,0,P|274:194|274:285,1,150,2|2,3:2|3:2,0:0:0:0:
179,344,40455,2,0,P|114:374|43:341,1,150,2|2,3:2|3:2,0:0:0:0:
46,225,41320,2,0,P|110:194|181:227,1,150,2|2,3:2|3:2,0:0:0:0:
277,290,42184,5,2,3:2:0:0:
368,381,42616,1,2,3:2:0:0:
458,290,43049,1,2,3:2:0:0:
368,200,43481,1,2,3:2:0:0:
283,115,43913,2,0,P|240:116|123:108,1,150,10|2,0:0|0:0,0:0:0:0:
73,106,44562,1,0,0:0:0:0:
73,106,44778,2,0,P|35:158|52:238,1,150,10|2,0:0|0:0,0:0:0:0:
137,320,45642,6,0,P|180:319|297:327,1,150,6|2,0:0|3:2,0:0:0:0:
346,331,46291,1,10,0:0:0:0:
346,331,46507,2,0,B|357:287|357:287|347:183,1,150,2|0,3:2|3:2,0:0:0:0:
339,123,47155,1,8,0:0:0:0:
339,123,47371,2,0,B|307:115|307:115|227:123|227:123|187:115,1,150,2|2,3:2|3:2,0:0:0:0:
132,102,48020,2,0,L|55:110,1,75,10|2,0:0|3:2,0:0:0:0:
78,227,48668,2,0,L|152:219,1,75,10|10,3:0|0:3,0:0:0:0:
211,210,49100,6,0,P|255:268|230:358,1,150,6|10,0:0|0:0,0:0:0:0:
197,379,49749,2,0,B|229:363|269:379|269:379|309:395|357:379,1,150,6|2,0:0|0:0,0:0:0:0:
402,376,50397,1,8,0:0:0:0:
402,376,50613,2,0,B|410:340|386:305|386:305|410:272|402:232,1,150,6|2,0:0|0:0,0:0:0:0:
394,174,51262,1,8,0:0:0:0:
394,174,51478,2,0,P|345:180|270:90,1,150,6|2,0:0|0:0,0:0:0:0:
277,57,52126,1,10,0:0:0:0:
157,42,52559,6,0,P|158:121|157:214,1,150,6|0,3:2|3:2,0:0:0:0:
164,251,53207,2,0,P|227:298|296:263,2,150,10|8|10,0:0|0:0|0:0,0:0:0:0:
157,191,54288,1,2,3:2:0:0:
157,191,55152,2,0,B|161:115|161:115|217:170,1,139,8|14,3:2|0:0,0:0:0:0:
287,274,56017,6,0,P|319:274|362:272,1,75,6|10,0:0|0:0,0:0:0:0:
421,274,56449,2,0,P|439:324|416:389,2,112.5,2|2|10,3:2|0:0|0:0,0:0:0:0:
361,272,57314,2,0,P|351:236|360:194,1,75,2|10,3:2|0:0,0:0:0:0:
371,141,57746,2,0,P|323:113|267:126,1,112.5,2|2,3:2|0:0,0:0:0:0:
200,180,58394,2,0,B|240:268|168:308|168:308|120:268|136:228,1,225,10|2,0:0|3:2,0:0:0:0:
149,114,59475,6,0,P|185:98|224:101,1,75,2|10,3:2|0:0,0:0:0:0:
278,111,59907,2,0,B|287:64|287:64|275:1,2,112.5,2|2|10,3:2|0:0|0:0,0:0:0:0:
292,169,60772,2,0,P|292:205|291:247,1,75,2|10,3:2|0:0,0:0:0:0:
305,302,61204,2,0,P|351:295|418:296,1,112.5,2|2,3:2|0:0,0:0:0:0:
503,321,61853,1,10,0:0:0:0:
511,199,62285,2,0,P|465:206|398:205,1,112.5,4|4,0:0|0:0,0:0:0:0:
332,144,62933,6,0,B|296:136|261:160|261:160|228:136|188:144,1,150,6|10,0:0|3:2,0:0:0:0:
69,144,63798,1,10,3:2:0:0:
69,263,64230,1,8,3:2:0:0:
189,263,64663,2,0,B|225:271|260:246|260:246|293:271|330:263,1,150,10|10,3:2|3:2,0:0:0:0:
443,303,65527,2,0,P|452:257|438:223,1,75,10|0,3:2|3:2,0:0:0:0:
407,183,65959,2,0,P|398:137|412:103,1,75,10|10,0:0|0:0,0:0:0:0:
437,59,66392,6,0,P|401:26|338:26,1,112.5,6|2,0:0|0:0,0:0:0:0:
269,81,67040,1,10,0:0:0:0:
269,81,67256,2,0,P|231:75|191:85,1,75,2|10,3:2|0:0,0:0:0:0:
148,119,67688,2,0,P|110:125|70:115,1,75,2|10,3:2|0:0,0:0:0:0:
16,101,68121,2,0,P|19:158|19:215,1,112.5,2|2,3:2|0:0,0:0:0:0:
27,302,68769,1,10,0:0:0:0:
27,302,68985,2,0,P|86:341|159:292,1,150,2|6,3:2|0:0,0:0:0:0:
211,207,69850,6,0,P|245:203|289:211,1,75,6|10,0:0|0:0,0:0:0:0:
338,237,70282,2,0,P|392:254|443:233,2,112.5,2|2|10,3:2|0:0|0:0,0:0:0:0:
285,210,71147,2,0,P|285:172|281:135,1,75,2|10,3:2|0:0,0:0:0:0:
272,75,71579,2,0,B|232:86|232:86|162:80,1,112.5,2|2,3:2|0:0,0:0:0:0:
72,64,72227,2,0,B|24:48|-32:112|24:176|72:160|72:160|96:152|96:152|128:160,1,225,10|2,0:0|3:2,0:0:0:0:
201,235,73308,6,0,L|197:328,1,75,2|10,3:2|0:0,0:0:0:0:
194,369,73740,2,0,B|146:358|146:358|82:368,2,112.5,2|2|10,3:2|3:2|0:0,0:0:0:0:
253,377,74605,2,0,L|327:372,1,75,2|10,3:2|0:0,0:0:0:0:
386,361,75037,2,0,P|409:310|351:249,1,150,2|2,3:2|3:2,0:0:0:0:
291,237,75686,1,10,0:0:0:0:
291,237,75902,2,0,P|235:192|256:124,1,150,2|2,3:2|3:2,0:0:0:0:
331,32,76766,6,0,B|307:40|307:40|251:32|251:32|220:38,1,112.5,14|10,0:0|0:0,0:0:0:0:
131,30,77415,1,2,3:2:0:0:
131,30,77631,2,0,P|91:32|53:28,1,75,10|10,3:2|3:2,0:0:0:0:
3,14,78063,1,10,3:2:0:0:
15,133,78495,6,0,P|21:182|25:259,1,112.5,14|10,0:0|0:0,0:0:0:0:
61,333,79144,1,2,3:2:0:0:
61,333,79360,2,0,P|101:331|139:335,1,75,10|10,3:2|3:2,0:0:0:0:
195,340,79792,1,10,3:2:0:0:
309,375,80224,6,0,B|325:302|325:302|309:227,1,150,6|2,0:0|3:2,0:0:0:0:
265,186,80873,1,10,0:0:0:0:
265,186,81089,2,0,B|249:113|249:113|265:38,1,150,2|2,3:2|3:2,0:0:0:0:
305,5,81737,1,10,0:0:0:0:
305,5,81954,2,0,L|311:98,1,75,10|10,0:0|0:0,0:0:0:0:
358,105,82386,2,0,L|364:198,1,75,10|10,0:0|0:0,0:0:0:0:
411,215,82818,2,0,L|421:364,1,150,10|10,0:0|3:2,0:0:0:0:
306,327,83683,6,0,B|274:311|234:327|234:327|194:343|146:327,1,150,14|2,3:0|0:0,0:0:0:0:
40,314,84547,2,0,P|41:268|40:184,1,112.5,10|10,3:0|0:0,0:0:0:0:
41,141,85088,1,10,0:0:0:0:
41,141,85304,2,0,P|93:159|146:133,1,112.5,10|10,0:0|0:3,0:0:0:0:
195,106,85844,2,0,L|197:182,1,75,10|8,0:3|0:3,0:0:0:0:
201,240,86276,2,0,B|242:233|242:233|316:238,1,112.5,10|2,0:0|0:0,0:0:0:0:
372,244,86817,1,2,0:0:0:0:
442,299,87141,6,0,P|459:233|411:164,1,150,6|10,0:0|0:0,0:0:0:0:
360,148,87789,1,8,0:0:0:0:
360,148,88005,2,0,P|356:54|356:-12,1,150,2|8,0:0|0:0,0:0:0:0:
243,41,88870,2,0,P|247:135|247:201,1,150,6|0,0:0|0:0,0:0:0:0:
