osu file format v14

[General]
AudioFilename: audio.mp3
AudioLeadIn: 0
PreviewTime: 55909
Countdown: 0
SampleSet: Soft
StackLeniency: 0.4
Mode: 0
LetterboxInBreaks: 0
WidescreenStoryboard: 0

[Editor]
DistanceSpacing: 1.2
BeatDivisor: 3
GridSize: 4
TimelineZoom: 1.2

[Metadata]
Title:10% roll, 10% romance (TV Size)
TitleUnicode:10% roll, 10% romance (TV Size)
Artist:UNISON SQUARE GARDEN
ArtistUnicode:UNISON SQUARE GARDEN
Creator:Hazu-
Version:Hard
Source:ボールルームへようこそ
Tags:wolf3211 -NanoRIPE- toybot ballroom e youkoso welcome to the opening op anime japanese
BeatmapID:1368816
BeatmapSetID:639236

[Difficulty]
HPDrainRate:5
CircleSize:3.5
OverallDifficulty:6
ApproachRate:7
SliderMultiplier:1.7
SliderTickRate:1

[Events]
//Background and Video events
0,0,"10 10.jpg",0,0
Video,280,"Ballroom.avi"
//Break Periods
//Storyboard Layer 0 (Background)
//Storyboard Layer 1 (Fail)
//Storyboard Layer 2 (Pass)
//Storyboard Layer 3 (Foreground)
//Storyboard Sound Samples

[TimingPoints]
686,432.276657060519,4,2,1,70,1,0
2415,-111.111111111111,4,2,1,60,0,0
5873,-125,4,2,1,65,0,0
7494,-125,4,2,1,5,0,0
7602,-100,4,2,1,70,0,0
11060,-111.111111111111,4,2,1,70,0,0
11492,-111.111111111111,4,2,1,60,0,0
14518,-111.111111111111,4,2,1,70,0,0
14951,-111.111111111111,4,2,1,60,0,0
17977,-111.111111111111,4,2,1,70,0,0
18409,-111.111111111111,4,2,1,60,0,0
19706,-111.111111111111,4,2,1,70,0,0
20138,-111.111111111111,4,2,1,60,0,0
20570,-111.111111111111,4,2,1,70,0,0
21003,-111.111111111111,4,2,1,60,0,0
21435,-111.111111111111,4,2,1,70,0,0
21867,-111.111111111111,4,2,1,60,0,0
23164,-111.111111111111,4,2,1,70,0,0
23596,-111.111111111111,4,2,1,60,0,0
24893,-105.263157894737,4,2,1,65,0,0
38077,-125,4,2,1,62,0,0
38618,-125,4,2,1,5,0,0
38726,-125,4,2,1,60,0,0
45642,-105.263157894737,4,2,1,65,0,0
49100,-117.647058823529,4,2,1,60,0,0
52559,-105.263157894737,4,2,1,65,0,0
54288,-111.111111111111,4,2,1,60,0,0
55152,468.75,4,2,1,60,1,0
55585,432.276657060519,4,2,1,65,1,0
55585,-105.263157894737,4,2,1,65,0,0
55909,-80,4,2,1,5,0,0
56017,432.276657060519,4,2,1,70,1,1
56017,-95.2380952380952,4,2,1,70,0,1
62230,-95.2380952380952,4,2,1,5,0,1
62285,-95.2380952380952,4,2,1,70,0,1
62933,-95.2380952380952,4,2,1,60,0,0
66391,-95.2380952380952,4,2,1,70,0,1
69417,-95.2380952380952,4,2,1,70,0,1
69741,-95.2380952380952,4,2,1,5,0,1
69849,-95.2380952380952,4,2,1,70,0,1
75901,-95.2380952380952,4,2,1,70,0,1
76766,-95.2380952380952,4,2,1,60,0,0
80224,-95.2380952380952,4,2,1,70,0,1
83682,-111.111111111111,4,2,1,60,0,0
87140,-125,4,2,1,65,0,0
88761,-111.111111111111,4,2,1,5,0,0
88870,-111.111111111111,4,2,1,70,0,0
89302,-111.111111111111,4,2,1,5,0,0

[Colours]
Combo1 : 121,200,190
Combo2 : 227,101,79
Combo3 : 58,148,139
Combo4 : 231,176,150

[HitObjects]
49,121,686,6,0,B|89:109|89:109|144:123,1,85,12|0,0:0|3:2,0:0:0:0:
160,161,1010,2,0,B|201:171|201:171|241:159,1,85,8|0,0:0|3:2,0:0:0:0:
273,119,1334,2,0,B|338:101|338:101|423:135,1,127.5,6|8,0:0|0:3,0:0:0:0:
422,165,1766,1,8,0:3:0:0:
470,254,1982,2,0,P|492:250|514:246,2,42.5,8|8|8,0:3|0:3|0:3,0:0:0:0:
399,324,2415,6,0,P|313:309|229:297,1,152.999995330811,14|2,3:0|0:0,0:0:0:0:
170,361,3063,1,8,0:0:0:0:
92,299,3279,2,0,P|82:246|70:205,1,76.4999976654053,10|8,3:0|0:0,0:0:0:0:
100,181,3603,2,0,P|90:128|78:87,2,76.4999976654053,10|10|10,0:0|0:0|0:0,0:0:0:0:
192,217,4252,5,0,3:0:0:0:
192,217,4360,2,0,P|195:235|199:254,4,38.2499988327027,10|8|10|8|8,0:3|0:3|0:3|0:3|0:3,0:0:0:0:
183,118,5008,2,0,P|218:105|256:110,1,76.4999976654053,10|0,0:0|0:0,0:0:0:0:
297,138,5332,1,2,0:0:0:0:
356,218,5549,2,0,P|408:220|450:190,1,76.4999976654053,2|2,0:0|0:0,0:0:0:0:
466,180,5873,6,0,P|457:133|440:33,1,136,6|10,0:0|0:0,0:0:0:0:
346,43,6521,1,8,0:0:0:0:
287,117,6737,2,0,P|253:113|219:107,1,68,2|0,0:0|0:0,0:0:0:0:
188,70,7062,1,2,0:0:0:0:
118,134,7278,2,0,P|84:128|50:124,1,68,2|0,0:0|0:0,0:0:0:0:
5,156,7602,5,6,0:0:0:0:
36,253,7818,2,0,P|69:258|124:266,1,85,10|2,0:0|3:2,0:0:0:0:
209,215,8250,1,10,0:0:0:0:
209,215,8358,2,0,P|251:220|293:227,1,85,2|2,0:0|0:0,0:0:0:0:
392,204,8791,1,2,0:0:0:0:
392,204,8899,2,0,P|384:240|375:292,1,85,0|10,3:2|0:0,0:0:0:0:
474,310,9331,6,0,P|481:268|490:226,1,85,2|8,3:2|0:0,0:0:0:0:
458,129,9763,1,0,3:2:0:0:
458,129,9871,1,2,0:0:0:0:
406,40,10088,2,0,P|363:31|312:51,1,85,6|2,0:0|0:0,0:0:0:0:
300,87,10412,1,10,0:0:0:0:
300,87,10520,2,0,P|249:77|174:64,1,127.5,6|10,0:0|0:0,0:0:0:0:
78,90,11060,5,6,3:2:0:0:
150,160,11276,1,6,3:2:0:0:
64,210,11492,1,2,3:2:0:0:
64,210,11600,2,0,P|68:250|72:282,1,38.2499988327027,2|8,0:0|0:0,0:0:0:0:
93,291,11817,2,0,B|167:268|167:268|217:283,1,114.749996498108,2|10,0:0|0:0,0:0:0:0:
293,319,12357,2,0,P|337:307|386:295,1,76.4999976654053,2|10,3:2|0:0,0:0:0:0:
444,237,12789,6,0,P|450:184|429:142,1,76.4999976654053,2|10,3:2|0:0,0:0:0:0:
381,84,13222,1,2,3:2:0:0:
302,145,13438,2,0,P|258:137|213:124,1,76.4999976654053,10|2,0:0|3:2,0:0:0:0:
156,198,13870,2,0,P|112:206|67:219,2,76.4999976654053,10|2|10,0:0|3:2|0:0,0:0:0:0:
246,239,14518,5,6,3:2:0:0:
184,317,14734,1,6,3:2:0:0:
184,317,14843,1,0,0:0:0:0:
184,317,14951,2,0,P|147:326|109:333,1,76.4999976654053,2|8,0:0|0:0,0:0:0:0:
61,319,15275,2,0,P|37:260|53:195,1,114.749996498108,2|10,0:0|0:0,0:0:0:0:
121,147,15815,2,0,P|150:140|210:162,1,76.4999976654053,2|10,3:2|0:0,0:0:0:0:
267,218,16247,6,0,P|296:225|356:203,1,76.4999976654053,2|10,3:2|0:0,0:0:0:0:
409,141,16680,1,2,3:2:0:0:
483,206,16896,2,0,P|473:248|465:295,1,76.4999976654053,10|2,0:0|3:2,0:0:0:0:
371,307,17328,2,0,P|381:349|389:396,2,76.4999976654053,10|2|10,0:0|3:2|0:0,0:0:0:0:
297,238,17977,5,6,3:2:0:0:
216,295,18193,1,6,3:2:0:0:
134,351,18409,2,0,P|97:346|41:338,1,76.4999976654053,2|10,0:0|0:0,0:0:0:0:
47,241,18841,2,0,P|84:246|140:254,1,76.4999976654053,2|8,3:2|0:0,0:0:0:0:
164,224,19165,1,2,0:0:0:0:
226,300,19381,2,0,P|263:305|319:313,1,76.4999976654053,2|2,0:0|0:0,0:0:0:0:
337,345,19705,5,6,3:2:0:0:
413,280,19922,1,6,3:2:0:0:
352,201,20138,2,0,P|348:153|344:109,1,76.4999976654053,2|10,3:2|0:0,0:0:0:0:
283,47,20570,1,6,3:2:0:0:
219,123,20786,1,6,3:2:0:0:
155,46,21003,2,0,P|111:38|64:54,1,76.4999976654053,2|10,3:2|0:0,0:0:0:0:
12,117,21435,5,6,3:2:0:0:
86,190,21651,1,6,3:2:0:0:
86,190,21759,1,0,0:0:0:0:
86,190,21867,2,0,P|90:234|94:282,1,76.4999976654053,0|8,3:2|0:0,0:0:0:0:
123,305,22191,2,0,B|202:287|202:287|257:311,1,114.749996498108,2|10,0:0|0:0,0:0:0:0:
324,341,22732,2,0,P|377:325|424:312,1,76.4999976654053,2|10,3:2|0:0,0:0:0:0:
463,245,23164,5,6,3:2:0:0:
391,176,23380,1,6,3:2:0:0:
478,128,23596,2,0,P|485:86|462:46,1,76.4999976654053,2|10,3:2|0:0,0:0:0:0:
377,25,24028,2,0,P|348:30|323:33,3,38.2499988327027,10|8|10|8,0:0|3:2|0:0|0:0,0:0:0:0:
305,68,24461,2,0,P|276:73|251:76,3,38.2499988327027,10|8|10|8,3:2|3:2|3:2|3:2,0:0:0:0:
219,52,24893,6,0,P|157:60|104:68,1,80.7499978437424,6|10,0:0|0:0,0:0:0:0:
87,153,25325,1,2,3:2:0:0:
87,153,25433,2,0,P|59:157|19:161,1,40.3749989218712,2|8,0:0|0:0,0:0:0:0:
3,187,25649,2,0,P|-13:238|21:322,1,121.124996765614,2|10,0:0|0:0,0:0:0:0:
87,366,26190,1,2,3:2:0:0:
176,311,26406,1,10,0:0:0:0:
268,360,26622,6,0,P|318:350|369:344,1,80.7499978437424,2|10,3:2|0:0,0:0:0:0:
424,274,27054,1,2,3:2:0:0:
341,208,27271,1,10,0:0:0:0:
423,142,27487,2,0,P|413:84|406:35,1,80.7499978437424,2|10,3:2|0:0,0:0:0:0:
309,32,27919,2,0,P|319:90|326:139,1,80.7499978437424,2|10,3:2|0:0,0:0:0:0:
268,201,28351,5,6,0:0:0:0:
268,201,28460,1,0,0:0:0:0:
268,201,28567,2,0,L|212:205,3,40.3749989218712,10|0|2|2,0:0|0:0|3:2|0:0,0:0:0:0:
133,155,29108,1,2,0:0:0:0:
133,155,29216,2,0,P|72:161|32:163,2,80.7499978437424,0|10|2,3:2|0:0|3:2,0:0:0:0:
213,87,29864,1,10,0:0:0:0:
302,140,30080,6,0,P|315:180|308:220,1,80.7499978437424,2|10,3:2|0:0,0:0:0:0:
245,301,30513,1,2,3:2:0:0:
174,223,30729,1,10,0:0:0:0:
89,284,30945,2,0,P|53:280|-3:276,1,80.7499978437424,2|10,3:2|0:0,0:0:0:0:
1,171,31377,2,0,P|37:175|93:179,1,80.7499978437424,2|10,3:2|0:0,0:0:0:0:
167,118,31809,6,0,P|207:121|247:125,1,80.7499978437424,6|8,0:0|0:0,0:0:0:0:
330,190,32242,2,0,P|319:245|306:293,1,80.7499978437424,2|10,3:2|0:0,0:0:0:0:
407,314,32674,2,0,P|418:259|431:211,1,80.7499978437424,2|8,3:2|0:0,0:0:0:0:
462,199,32998,1,2,0:0:0:0:
400,113,33214,1,2,3:2:0:0:
400,113,33322,2,0,P|396:89|393:71,1,40.3749989218712,10|0,0:0|0:0,0:0:0:0:
356,35,33539,6,0,P|300:27|264:48,1,80.7499978437424,6|10,0:0|0:0,0:0:0:0:
221,123,33971,2,0,P|182:134|144:123,1,80.7499978437424,2|10,3:2|0:0,0:0:0:0:
50,76,34403,2,0,P|57:110|65:162,1,80.7499978437424,2|8,3:2|0:0,0:0:0:0:
145,222,34835,1,2,3:2:0:0:
47,261,35051,2,0,P|40:295|32:347,1,80.7499978437424,10|8,0:3|0:3,0:0:0:0:
136,359,35484,5,10,3:2:0:0:
211,285,35700,2,0,B|255:275|255:275|319:297,1,80.7499978437424,14|0,0:0|3:2,0:0:0:0:
328,320,36024,1,0,3:2:0:0:
328,320,36132,1,10,3:2:0:0:
414,261,36348,1,14,0:0:0:0:
336,190,36564,2,0,P|330:162|324:132,2,40.3749989218712,8|8|8,0:0|0:3|0:3,0:0:0:0:
423,131,36997,5,2,3:2:0:0:
356,49,37213,1,2,3:2:0:0:
252,63,37429,1,2,3:2:0:0:
224,164,37645,1,2,3:2:0:0:
224,164,38077,6,0,B|126:140|161:221|49:189,1,170,6|0,0:0|0:0,0:0:0:0:
33,160,38726,5,6,3:2:0:0:
202,245,39158,1,2,3:2:0:0:
60,371,39590,2,0,P|73:320|97:231,1,136,2|2,3:2|3:2,0:0:0:0:
275,179,40455,6,0,P|262:230|238:319,1,136,2|2,3:2|3:2,0:0:0:0:
167,134,41320,1,2,3:2:0:0:
336,47,41752,1,2,3:2:0:0:
426,214,42184,6,0,P|330:202|302:158,1,136,2|2,3:2|3:2,0:0:0:0:
128,238,43049,2,0,P|194:233|244:276,1,136,2|2,3:2|3:2,0:0:0:0:
410,369,43913,6,0,P|415:324|421:275,1,68,10|4,0:0|0:0,0:0:0:0:
334,256,44345,2,0,P|330:289|325:323,1,68,2|0,0:0|0:0,0:0:0:0:
244,373,44778,1,10,0:0:0:0:
177,305,44994,2,0,P|139:304|103:322,1,68,4|2,0:0|0:0,0:0:0:0:
29,363,45426,5,8,0:0:0:0:
29,363,45534,1,8,0:0:0:0:
29,363,45642,2,0,P|17:297|4:254,1,80.7499978437424,6|10,0:0|0:0,0:0:0:0:
78,200,46075,1,2,3:2:0:0:
10,119,46291,1,10,0:0:0:0:
89,50,46507,2,0,P|123:57|176:65,1,80.7499978437424,2|8,3:2|0:0,0:0:0:0:
217,45,46831,1,2,0:0:0:0:
272,133,47047,2,0,P|306:140|359:148,1,80.7499978437424,2|2,0:0|0:0,0:0:0:0:
400,128,47371,5,2,3:2:0:0:
463,211,47588,1,10,0:0:0:0:
376,269,47804,2,0,P|368:312|358:359,1,80.7499978437424,2|10,3:2|0:0,0:0:0:0:
257,327,48236,2,0,P|264:287|272:247,2,80.7499978437424,2|8|10,3:2|0:0|3:0,0:0:0:0:
165,378,48884,1,10,0:3:0:0:
124,285,49100,6,0,P|83:274|38:287,2,72.2500013780594,6|2|10,0:0|0:0|0:0,0:0:0:0:
213,237,49749,2,0,P|289:258|361:203,1,144.500002756119,6|2,0:0|0:0,0:0:0:0:
391,139,50397,1,8,0:0:0:0:
330,58,50613,6,0,P|254:37|182:92,1,144.500002756119,6|2,0:0|0:0,0:0:0:0:
143,151,51262,1,8,0:0:0:0:
233,197,51478,2,0,P|247:267|265:357,1,144.500002756119,6|2,0:0|0:0,0:0:0:0:
163,364,52126,2,0,P|158:335|151:306,1,36.1250006890297,10|8,0:0|0:0,0:0:0:0:
118,294,52343,2,0,P|113:265|106:236,1,36.1250006890297,10|8,0:0|0:0,0:0:0:0:
68,222,52559,6,0,P|59:166|48:118,1,80.7499978437424,6|8,3:2|0:0,0:0:0:0:
83,94,52883,1,2,0:0:0:0:
169,166,53099,1,2,0:0:0:0:
169,166,53207,2,0,P|216:176|274:149,1,80.7499978437424,10|2,0:0|3:2,0:0:0:0:
323,84,53639,1,8,0:0:0:0:
390,175,53856,1,2,3:2:0:0:
463,89,54072,2,0,P|460:61|456:34,1,40.3749989218712,10|0,0:0|0:0,0:0:0:0:
412,20,54288,5,2,3:2:0:0:
412,20,55152,2,0,P|415:52|420:110,2,56.6666666666667,8|0|0,3:2|3:2|3:2,0:0:0:0:
381,65,55585,2,0,P|385:109|393:197,1,121.124996765614,14|0,0:0|0:0,0:0:0:0:
358,227,56017,6,0,P|362:271|369:336,1,89.2499972763062,6|10,0:0|0:0,0:0:0:0:
264,346,56449,2,0,P|260:302|253:237,1,89.2499972763062,2|8,3:2|0:0,0:0:0:0:
221,215,56773,1,2,0:0:0:0:
129,272,56990,1,0,0:0:0:0:
129,272,57098,2,0,P|103:268|74:264,1,44.6249986381531,10|0,0:0|0:0,0:0:0:0:
37,239,57314,2,0,P|28:184|49:134,1,89.2499972763062,2|10,3:2|0:0,0:0:0:0:
116,80,57746,6,0,P|160:69|208:93,1,89.2499972763062,2|8,3:2|0:0,0:0:0:0:
222,133,58070,2,0,P|266:144|314:120,1,89.2499972763062,2|0,0:0|0:0,0:0:0:0:
338,86,58394,1,10,0:0:0:0:
439,50,58611,2,0,P|431:93|426:138,1,89.2499972763062,2|8,3:2|0:0,0:0:0:0:
358,221,59043,1,2,3:2:0:0:
434,295,59259,1,10,0:0:0:0:
350,361,59475,6,0,P|290:351|248:345,1,89.2499972763062,2|10,3:2|0:0,0:0:0:0:
202,257,59907,2,0,P|142:247|100:241,1,89.2499972763062,2|8,3:2|0:0,0:0:0:0:
68,271,60232,1,2,0:0:0:0:
28,171,60448,1,0,0:0:0:0:
28,171,60556,2,0,P|34:138|39:104,1,44.6249986381531,10|0,0:0|0:0,0:0:0:0:
71,87,60772,2,0,B|115:79|115:79|167:96,1,89.2499972763062,2|10,3:2|0:0,0:0:0:0:
223,176,61204,6,0,P|266:169|317:163,1,89.2499972763062,2|8,3:2|0:0,0:0:0:0:
355,194,61528,2,0,P|398:187|449:181,1,89.2499972763062,2|0,0:0|0:0,0:0:0:0:
487,150,61853,2,0,P|491:182|495:218,2,44.6249986381531,10|0|8,0:0|0:0|0:0,0:0:0:0:
442,52,62285,2,0,P|400:38|344:68,1,89.2499972763062,4|0,0:0|0:0,0:0:0:0:
322,91,62609,2,0,P|280:105|238:91,1,89.2499972763062,4|0,0:0|0:0,0:0:0:0:
192,64,62933,6,0,P|236:131|182:226,1,178.499994552612,6|10,0:0|3:2,0:0:0:0:
97,244,63582,1,0,0:0:0:0:
13,176,63798,2,0,P|3:112|-4:65,1,89.2499972763062,10|0,3:2|0:0,0:0:0:0:
15,36,64122,1,2,0:0:0:0:
122,37,64338,2,0,P|132:101|139:148,1,89.2499972763062,2|0,0:0|0:0,0:0:0:0:
168,167,64662,6,0,P|212:175|256:155,1,89.2499972763062,10|0,3:2|0:0,0:0:0:0:
322,77,65095,2,0,P|366:69|410:88,1,89.2499972763062,10|0,3:2|0:0,0:0:0:0:
460,177,65527,2,0,P|454:211|448:255,2,59.4999981842042,10|0|0,3:2|3:2|3:2,0:0:0:0:
415,204,65959,1,10,0:0:0:0:
309,185,66175,1,10,0:0:0:0:
282,289,66392,6,0,P|234:280|170:269,1,89.2499972763062,6|8,0:0|0:0,0:0:0:0:
151,305,66716,1,2,0:0:0:0:
151,305,66824,1,0,3:2:0:0:
62,244,67040,2,0,P|51:207|70:148,2,89.2499972763062,10|2|10,0:0|3:2|0:0,0:0:0:0:
156,196,67688,2,0,P|167:153|156:110,1,89.2499972763062,2|10,3:2|0:0,0:0:0:0:
97,20,68121,6,0,P|148:29|219:38,1,89.2499972763062,2|8,3:2|0:0,0:0:0:0:
237,24,68445,1,2,0:0:0:0:
237,24,68553,1,2,3:2:0:0:
299,110,68769,1,10,0:0:0:0:
379,39,68985,2,0,P|423:45|467:53,1,89.2499972763062,2|10,3:2|0:0,0:0:0:0:
505,153,69417,2,0,P|527:201|492:287,1,133.874995914459,6|0,0:0|0:0,0:0:0:0:
455,298,69850,6,0,P|410:291|366:283,1,89.2499972763062,6|10,0:0|0:0,0:0:0:0:
290,358,70282,2,0,P|246:350|201:343,1,89.2499972763062,2|8,3:2|0:0,0:0:0:0:
156,371,70606,1,2,0:0:0:0:
156,371,70714,2,0,P|112:363|67:356,1,89.2499972763062,0|10,3:2|0:0,0:0:0:0:
4,269,71147,1,2,3:2:0:0:
87,202,71363,1,10,0:0:0:0:
11,126,71579,6,0,P|5:71|-3:26,1,89.2499972763062,2|8,3:2|0:0,0:0:0:0:
48,17,71903,2,0,P|91:8|143:25,1,89.2499972763062,2|0,0:0|0:0,0:0:0:0:
177,51,72227,1,10,0:0:0:0:
253,125,72443,2,0,P|305:115|352:106,1,89.2499972763062,2|8,3:2|0:0,0:0:0:0:
445,83,72876,1,2,3:2:0:0:
468,187,73092,1,10,0:0:0:0:
363,212,73309,6,0,P|319:220|275:228,1,89.2499972763062,2|10,3:2|0:0,0:0:0:0:
171,205,73740,2,0,P|166:246|193:299,1,89.2499972763062,2|10,3:2|0:0,0:0:0:0:
221,328,74065,1,2,3:2:0:0:
325,351,74281,1,0,0:0:0:0:
325,351,74389,2,0,P|361:343|384:338,1,44.6249986381531,10|0,0:0|0:0,0:0:0:0:
410,307,74605,2,0,P|415:266|388:213,1,89.2499972763062,2|10,3:2|0:0,0:0:0:0:
311,157,75037,6,0,P|306:116|333:63,2,89.2499972763062,2|8|2,3:2|0:0|3:2,0:0:0:0:
270,256,75686,1,10,0:0:0:0:
186,188,75902,2,0,P|132:180|71:166,1,89.2499972763062,2|8,3:2|0:3,0:0:0:0:
38,261,76334,2,0,P|92:269|153:283,1,89.2499972763062,2|8,3:2|0:3,0:0:0:0:
193,359,76766,6,0,P|247:351|308:337,1,89.2499972763062,14|8,0:0|0:0,0:0:0:0:
312,300,77090,2,0,P|372:288|471:271,1,133.874995914459,10|2,0:0|3:2,0:0:0:0:
507,188,77631,1,10,3:2:0:0:
413,136,77847,1,10,3:2:0:0:
478,51,78063,1,10,3:2:0:0:
478,51,78495,6,0,P|434:42|390:35,1,89.2499972763062,14|8,0:0|0:0,0:0:0:0:
342,59,78819,2,0,P|276:45|210:34,1,133.874995914459,10|2,0:0|3:2,0:0:0:0:
112,78,79360,1,10,3:2:0:0:
183,157,79576,1,10,3:2:0:0:
87,204,79792,2,0,P|94:234|100:267,2,59.4999981842042,10|0|0,3:2|3:2|3:2,0:0:0:0:
122,231,80224,6,0,P|132:278|143:334,1,89.2499972763062,6|8,0:0|0:0,0:0:0:0:
245,340,80657,2,0,P|235:293|224:237,1,89.2499972763062,2|10,3:2|0:0,0:0:0:0:
316,193,81089,2,0,P|326:240|337:296,1,89.2499972763062,2|8,3:2|0:0,0:0:0:0:
429,231,81521,1,2,3:2:0:0:
409,125,81737,1,10,0:0:0:0:
307,88,81954,6,0,P|263:92|219:97,1,89.2499972763062,10|10,0:0|0:0,0:0:0:0:
111,90,82386,2,0,P|136:126|162:161,1,89.2499972763062,10|10,0:0|0:0,0:0:0:0:
211,257,82818,2,0,P|229:216|247:176,1,89.2499972763062,10|10,0:0|0:0,0:0:0:0:
354,175,83250,2,0,P|341:204|323:241,2,59.4999981842042,10|2|2,3:2|3:2|3:2,0:0:0:0:
357,227,83683,6,0,P|338:267|289:376,1,152.999995330811,14|2,3:0|0:0,0:0:0:0:
232,287,84331,1,8,0:0:0:0:
163,359,84547,2,0,P|122:353|86:367,1,76.4999976654053,10|8,3:0|0:0,0:0:0:0:
73,317,84871,2,0,P|32:323|-4:309,2,76.4999976654053,10|10|10,0:0|0:0|0:0,0:0:0:0:
139,242,85520,5,0,3:0:0:0:
139,242,85628,2,0,L|143:190,4,38.2499988327027,10|8|10|8|8,0:3|0:3|0:3|0:3|0:3,0:0:0:0:
215,305,86276,2,0,P|261:298|312:289,1,76.4999976654053,10|0,0:0|0:0,0:0:0:0:
332,267,86600,1,2,0:0:0:0:
359,171,86817,2,0,P|313:178|262:187,1,76.4999976654053,2|0,0:0|0:0,0:0:0:0:
242,206,87141,6,0,P|252:159|268:70,1,136,6|10,0:0|0:0,0:0:0:0:
198,7,87789,1,8,0:0:0:0:
130,73,88005,2,0,P|99:76|45:81,1,68,2|0,0:0|0:0,0:0:0:0:
25,110,88330,1,2,0:0:0:0:
65,195,88546,2,0,P|96:192|150:187,1,68,2|0,0:0|0:0,0:0:0:0:
175,156,88870,6,0,B|243:149|290:143|290:143|257:166,1,152.999995330811,6|0,0:0|0:0,0:0:0:0:
