osu file format v14

[General]
AudioFilename: audio.mp3
AudioLeadIn: 0
PreviewTime: 18313
Countdown: 0
SampleSet: Normal
StackLeniency: 0.7
Mode: 1
LetterboxInBreaks: 0
WidescreenStoryboard: 0

[Editor]
DistanceSpacing: 1.1
BeatDivisor: 12
GridSize: 32
TimelineZoom: 3.399998

[Metadata]
Title:UNDERVEIL IS REAL!!! ...AND WE ARE UNDERVEIL!!!
TitleUnicode:UNDERVEIL IS REAL!!! ...AND WE ARE UNDERVEIL!!!
Artist:UNDERVEIL ALLSTARS
ArtistUnicode:UNDERVEIL ALLSTARS
Creator:Nifty
Version:TRUE PACIFIST
Source:UNDERTALE
Tags:electronic instrumental collaboration yamajet 梅干茶漬け umeboshi chazuke orangentle ぷりりー tanchiky saiph kiryu morimori atsushi モリモリあつし lime s-don hara kana コルソン itoki hana 糸奇 はな tc-taka taqumi daph seaside-métro seaside-metro izna se-u-ra ryhki こふ kofu mytk mossari frums yu_asahina silentroom aaaa ああああ toby fox credits last goodbye remix corson prily
BeatmapID:1945124
BeatmapSetID:931573

[Difficulty]
HPDrainRate:5.9
CircleSize:2
OverallDifficulty:6.4
ApproachRate:10
SliderMultiplier:1.4
SliderTickRate:1

[Events]
//Background and Video events
0,0,"understale.jpg",0,0
//Break Periods
2,146995,167731
2,337500,340647
2,341297,344444
//Storyboard Layer 0 (Background)
//Storyboard Layer 1 (Fail)
//Storyboard Layer 2 (Pass)
//Storyboard Layer 3 (Foreground)
//Storyboard Layer 4 (Overlay)
//Storyboard Sound Samples

[TimingPoints]
952,333.333333333333,4,1,0,50,1,0
952,-125,4,1,0,50,0,0
6285,333.333333333333,4,1,0,50,1,8
6310,333.333333333333,4,1,0,50,1,0
6310,-125,4,1,0,50,0,0
11303,-142.857142857143,4,1,0,50,0,0
11637,-125,4,1,0,65,0,0
11803,-123.076923076923,4,1,0,65,0,0
11970,-121.212121212121,4,1,0,65,0,0
12137,-119.402985074627,4,1,0,65,0,0
12303,-117.647058823529,4,1,0,65,0,0
12470,-115.942028985507,4,1,0,65,0,0
12637,-114.285714285714,4,1,0,65,0,0
12803,-112.676056338028,4,1,0,65,0,0
12970,-111.111111111111,4,1,0,65,0,0
13137,-109.58904109589,4,1,0,65,0,0
13303,-108.108108108108,4,1,0,65,0,0
13470,-106.666666666667,4,1,0,65,0,0
13637,-105.263157894737,4,1,0,65,0,0
13803,-103.896103896104,4,1,0,65,0,0
13970,-102.564102564103,4,1,0,65,0,0
14137,-101.26582278481,4,1,0,65,0,0
14303,-83.3333333333333,4,1,0,65,0,0
14387,-85.0969679950303,4,1,0,65,0,0
14470,-86.936942027839,4,1,0,65,0,0
14553,-88.8581637105037,4,1,0,65,0,0
14637,-90.8663011418259,4,1,0,65,0,0
14720,-92.9672160409353,4,1,0,65,0,0
14803,-95.1676711614358,4,1,0,65,0,0
14887,-97.474722367622,4,1,0,65,0,0
14970,-99.8965072185216,4,1,0,65,0,0
15053,-102.441592925793,4,1,0,65,0,0
15137,-105.119862923699,4,1,0,65,0,0
15220,-107.941819359365,4,1,0,65,0,0
15303,-110.91958995246,4,1,0,65,0,0
15387,-114.066185763627,4,1,0,65,0,0
15470,-117.396658656301,4,1,0,65,0,0
15553,-120.927319053429,4,1,0,65,0,0
15637,-124.676930902798,4,1,0,50,0,0
16970,-83.1896232591531,4,1,0,65,0,0
17970,-66.5746604858752,4,1,0,75,0,0
18309,-90.7380908524209,4,1,0,75,0,1
28976,-90.7380908524209,4,1,0,75,0,0
29297,-125,4,1,0,75,0,0
29464,-119.58489690586,4,1,0,75,0,0
29631,-114.619354853499,4,1,0,75,0,0
29797,-110.049863593194,4,1,0,75,0,0
29964,-105.830632888351,4,1,0,75,0,0
30131,-101.923084763314,4,1,0,75,0,0
30297,-98.2938159428638,4,1,0,75,0,0
30381,-96.5743158675464,4,1,0,75,0,0
30464,-94.9140316158639,4,1,0,75,0,0
30547,-93.3098690116059,4,1,0,75,0,0
30631,-91.7590297767227,4,1,0,75,0,0
30714,-90.2588171582011,4,1,0,75,0,0
30797,-88.8069496766539,4,1,0,75,0,0
30881,-87.4010510850404,4,1,0,75,0,0
30964,-86.0389722128535,4,1,0,75,0,0
31131,-83.4382569414372,4,1,0,75,0,0
31297,-66.7338008703422,4,1,0,75,0,0
31643,-90.9090909090909,4,1,0,75,0,1
39643,-125,4,1,0,50,0,0
41797,-106.382978723404,4,1,0,60,0,0
41881,-103.092783505155,4,1,0,60,0,0
41964,-100,4,1,0,60,0,0
42309,333.333333333333,4,1,0,50,1,8
42312,333.333333333333,4,1,0,50,1,0
42312,-83.3333333333333,4,1,0,65,0,0
42547,-100,4,1,0,65,0,0
42797,-83.3333333333333,4,1,0,65,0,0
43047,-100,4,1,0,65,0,0
43464,-83.3333333333333,4,1,0,65,0,0
43631,-100,4,1,0,65,0,0
44131,-83.3333333333333,4,1,0,65,0,0
44464,-100,4,1,0,65,0,0
44797,-90.9090909090909,4,1,0,65,0,0
44964,-76.9230769230769,4,1,0,65,0,0
45131,-90.9090909090909,4,1,0,65,0,0
45464,-76.9230769230769,4,1,0,65,0,0
45631,-90.9090909090909,4,1,0,65,0,0
46131,-76.9230769230769,4,1,0,65,0,0
46297,-100,4,1,0,65,0,0
46631,-97.2382395211211,4,1,0,65,0,0
46797,-94.6248361807524,4,1,0,65,0,0
46881,-93.3701585238552,4,1,0,65,0,0
46964,-92.1483182471178,4,1,0,65,0,0
47131,-89.7981248355572,4,1,0,65,0,0
47214,-88.6673387650945,4,1,0,65,0,0
47297,-87.5647541356833,4,1,0,65,0,0
47464,-85.4398529067492,4,1,0,65,0,0
47547,-84.4156118232506,4,1,0,65,0,0
47631,-83.4155671799783,4,1,0,65,0,0
47797,-100,4,1,0,65,0,0
48131,-83.4155671799783,4,1,0,65,0,0
48297,-100,4,1,0,65,0,0
48797,-83.4155671799783,4,1,0,65,0,0
48964,-100,4,1,0,65,0,0
49464,-83.4155671799783,4,1,0,65,0,0
49797,-76.9931406810967,4,1,0,65,0,0
50131,-83.4155671799783,4,1,0,65,0,0
50297,-100,4,1,0,65,0,0
50797,-83.4155671799783,4,1,0,65,0,0
50964,-100,4,1,0,65,0,0
51464,-83.4155671799783,4,1,0,65,0,0
51797,-90.9090909090909,4,1,0,65,0,0
51881,-92.0980770842486,4,1,0,65,0,0
51964,-93.3185765557606,4,1,0,65,0,0
52131,-95.8593551541179,4,1,0,65,0,0
52214,-97.182296495412,4,1,0,65,0,0
52297,-98.5422642844403,4,1,0,65,0,0
52464,-101.379676010831,4,1,0,65,0,0
52547,-102.860657752762,4,1,0,65,0,0
52631,-104.385441153751,4,1,0,65,0,0
52797,-107.57476984378,4,1,0,65,0,0
52881,-109.243651578298,4,1,0,65,0,0
52964,-110.965253450187,4,1,0,70,0,0
58964,-90.8114273467715,4,1,0,70,0,0
59297,-110.965253450187,4,1,0,70,0,0
60797,-90.8114273467715,4,1,0,70,0,0
60964,-110.965253450187,4,1,0,70,0,0
62131,-90.8114273467715,4,1,0,70,0,0
62297,-111.111111111111,4,1,0,70,0,0
62631,-109.385135216435,4,1,0,70,0,0
62797,-107.711960982419,4,1,0,70,0,0
62964,-106.089089373692,4,1,0,70,0,0
63047,-105.295965900954,4,1,0,70,0,0
63131,-104.514504000293,4,1,0,70,0,0
63297,-102.985975369874,4,1,0,70,0,0
63381,-102.23830317133,4,1,0,70,0,0
63464,-101.501511865019,4,1,0,70,0,0
63631,-100.05923506716,4,1,0,70,0,0
73631,-100,4,1,0,70,0,0
73742,-103.411546933331,4,1,0,70,0,0
73853,-107.063973936346,4,1,0,70,0,0
73964,-110.983972804487,4,1,0,70,0,0
74075,-115.201931705991,4,1,0,70,0,0
74186,-119.753021368729,4,1,0,70,0,0
74291,333.333333333333,4,1,0,65,1,8
74319,333.333333333333,3,1,0,50,1,0
74319,-125,4,1,0,50,0,8
78975,-125,4,1,0,50,0,8
79059,-123.086770018525,4,1,0,50,0,8
79142,-121.231224314134,4,1,0,50,0,8
79225,-119.430650204346,4,1,0,50,0,8
79309,-117.682917500744,4,1,0,50,0,8
79531,-113.262853634945,4,1,0,50,0,8
79642,-111.175098556725,4,1,0,50,0,8
79864,-107.222278216079,4,1,0,50,0,8
79975,-105.349322551181,4,1,0,50,0,8
80197,-101.793292432788,4,1,0,50,0,8
80253,-100.941379303383,4,1,0,50,0,8
80309,-100,4,1,0,50,0,8
80392,-101.26582278481,4,1,0,50,0,8
80475,-102.564102564103,4,1,0,50,0,8
80559,-103.896103896104,4,1,0,50,0,8
80642,-105.263157894737,4,1,0,50,0,8
80725,-106.666666666667,4,1,0,50,0,8
80809,-108.108108108108,4,1,0,50,0,8
80892,-109.58904109589,4,1,0,50,0,8
80975,-111.111111111111,4,1,0,50,0,8
81059,-112.676056338028,4,1,0,50,0,8
81142,-114.285714285714,4,1,0,50,0,8
81225,-115.942028985507,4,1,0,50,0,8
81309,-117.647058823529,4,1,0,50,0,8
81642,-125,4,1,0,50,0,8
81864,-130.434725897945,4,1,0,50,0,8
82224,-130.434725897945,4,1,0,35,0,8
82318,333.333333333333,4,1,0,35,1,0
82318,-142.857142857143,4,1,0,35,0,8
87224,-66.6666666666667,4,1,0,75,0,8
87641,-90.9090909090909,4,1,0,75,0,8
88141,-90.9090909090909,4,1,0,75,0,8
88224,-88.9092787501489,4,1,0,75,0,8
88308,-86.9954805847836,4,1,0,75,0,8
88391,-85.1624089720301,4,1,0,75,0,8
88474,-83.4049921223985,4,1,0,75,0,8
88558,-81.7186410843737,4,1,0,75,0,8
88641,-80.0990665254787,4,1,0,75,0,8
88724,-78.5425024897973,4,1,0,75,0,8
88808,-77.045282594392,4,1,0,75,0,8
88974,-91.0798241795074,4,1,0,75,0,8
89002,-77.045282594392,4,1,0,75,0,8
89474,-90.9090909090909,4,1,0,75,0,8
89557,-88.9092787501489,4,1,0,75,0,8
89641,-86.9954805847836,4,1,0,75,0,8
89807,-83.4049921223985,4,1,0,75,0,8
89891,-81.7186410843737,4,1,0,75,0,8
89974,-80.0990665254787,4,1,0,75,0,8
90057,-78.5425024897973,4,1,0,75,0,8
90141,-77.045282594392,4,1,0,75,0,8
90307,-91.0798241795074,4,1,0,75,0,8
90335,-77.045282594392,4,1,0,75,0,8
90807,-91.0798241795074,4,1,0,75,0,8
91141,-77.045282594392,4,1,0,75,0,8
91307,-91.0798241795074,4,1,0,75,0,8
91474,-77.045282594392,4,1,0,75,0,8
91641,-71.4285714285714,4,1,0,75,0,8
91974,-76.9230769230769,4,1,0,75,0,8
92307,-83.3333333333333,4,1,0,75,0,8
92641,-90.9090909090909,4,1,0,75,0,8
92974,-100,4,1,0,65,0,8
102474,-100,4,1,0,65,0,8
102641,-102.923225449208,4,1,0,65,0,8
102807,-106.022614623699,4,1,0,65,0,8
102891,-107.643321700678,4,1,0,65,0,8
102974,-109.314347617439,4,1,0,65,0,8
103141,-112.817029956306,4,1,0,65,0,8
103224,-114.654048606437,4,1,0,65,0,8
103307,-116.551746644475,4,1,0,65,0,8
103474,-120.542053506207,4,1,0,50,0,8
103641,-124.815429184094,4,1,0,50,0,8
108474,-125,4,1,0,50,0,8
108557,-122.483274908811,4,1,0,50,0,8
108641,-120.065748003607,4,1,0,50,0,8
108724,-117.741944979189,4,1,0,50,0,8
108807,-115.506385770537,4,1,0,50,0,8
108974,-111.28050476837,4,1,0,50,0,8
111974,-111.111111111111,4,1,0,50,0,8
112141,-109.374965820323,4,1,0,50,0,8
112307,-107.692357396473,4,1,0,50,0,8
112474,-106.060622130397,4,1,0,50,0,8
112641,-104.477596346627,4,1,0,50,0,8
112807,-102.941131055383,4,1,0,50,0,8
112974,-101.449304767914,4,1,0,50,0,8
113141,-100,4,1,0,50,0,8
113224,-99.2907660580474,4,1,0,50,0,8
113307,-98.5915215235151,4,1,0,50,0,8
113474,-97.2222627314984,4,1,0,50,0,8
113807,-94.594581811543,4,1,0,50,0,8
113891,-93.9597063195419,4,1,0,50,0,8
113974,-93.3332960000149,4,1,0,50,0,8
114057,-92.7152686285836,4,1,0,50,0,8
114141,-92.1052873961283,4,1,0,50,0,8
114307,-90.9090909090909,4,1,0,35,0,8
114805,333.333333333333,4,1,0,35,1,8
114805,-125,4,1,0,35,0,8
115638,333.333333333333,4,1,0,35,1,0
115638,-125,4,1,0,35,0,0
116962,-125,4,1,0,50,0,0
117295,-117.647058823529,4,1,0,50,0,0
117462,-114.285714285714,4,1,0,50,0,0
117629,-111.111111111111,4,1,0,50,0,0
117962,-105.263157894737,4,1,0,50,0,0
118129,-102.564102564103,4,1,0,50,0,0
118295,-100,4,1,0,65,0,0
118462,-97.5609756097561,4,1,0,65,0,0
118545,-96.3855421686747,4,1,0,65,0,0
118629,-95.2380952380952,4,1,0,65,0,0
118795,-93.0232558139535,4,1,0,65,0,0
118879,-91.9540229885058,4,1,0,65,0,0
118962,-90.9090909090909,4,1,0,65,0,0
119045,-89.8876404494382,4,1,0,65,0,0
119129,-88.8888888888889,4,1,0,65,0,0
119212,-87.9120879120879,4,1,0,65,0,0
119295,-86.9565217391304,4,1,0,65,0,0
119379,-86.0215053763441,4,1,0,65,0,0
119462,-85.1063829787234,4,1,0,65,0,0
119545,-84.2105263157895,4,1,0,65,0,0
119628,-83.3333333333333,4,1,0,65,0,0
119961,-66.6666666666667,4,1,0,65,0,0
120294,-83.3333333333333,4,1,0,65,0,0
122294,-100,4,1,0,65,0,0
122461,-97.5671627956895,4,1,0,65,0,0
122544,-96.3945544788284,4,1,0,65,0,0
122628,-95.2498880813815,4,1,0,65,0,0
122683,-94.5017019756526,4,1,0,65,0,0
122739,-93.7651782382273,4,1,0,65,0,0
122794,-93.0401328613097,4,1,0,65,0,0
122877,-91.9732210769512,4,1,0,65,0,0
122961,-90.9305835924855,4,1,0,65,0,0
123127,-88.9145753217596,4,1,0,65,0,0
123211,-87.9396874447629,4,1,0,65,0,0
123377,-86.0527434475138,4,1,0,65,0,0
123461,-85.1393518341145,4,1,0,65,0,0
123544,-84.2450756647147,4,1,0,65,0,0
123627,-83.3693905947656,4,1,0,65,0,0
123711,-82.5117909349246,4,1,0,65,0,0
123794,-81.6715887410815,4,1,0,65,0,0
123877,-80.8483906723595,4,1,0,65,0,0
123961,-80.0415575766938,4,1,0,65,0,0
124044,-79.2507318805089,4,1,0,65,0,0
124127,-78.475318727507,4,1,0,65,0,0
124211,-77.7149926986764,4,1,0,65,0,0
124294,-76.9691992355419,4,1,0,65,0,0
124377,-76.2376418782515,4,1,0,65,0,0
124461,-75.5198028026909,4,1,0,65,0,0
124544,-74.8154116755435,4,1,0,65,0,0
124627,-74.1239842234512,4,1,0,65,0,0
124711,-73.4452737231906,4,1,0,65,0,0
124794,-72.7788266015345,4,1,0,65,0,0
124877,-72.1243654858946,4,1,0,65,0,0
124971,-71.4816210030158,4,1,0,75,0,1
125294,-90.9950398603772,4,1,0,75,0,1
132961,-100,4,1,0,75,0,1
133127,-97.2222627314984,4,1,0,75,0,1
133211,-95.8904240945786,4,1,0,75,0,1
133294,-94.594581811543,4,1,0,75,0,1
133377,-93.3332960000149,4,1,0,75,0,1
133461,-92.1052873961283,4,1,0,75,0,1
133544,-90.9090909090909,4,1,0,75,0,1
133627,-89.7435667324188,4,1,0,75,0,1
133683,-88.983013142791,4,1,0,75,0,1
133739,-88.2353200692118,4,1,0,75,0,1
133794,-87.5000109375014,4,1,0,75,0,1
133877,-86.4197424173157,4,1,0,75,0,1
133961,-85.3658224271381,4,1,0,75,0,1
134044,-84.3373697198481,4,1,0,75,0,1
134127,-83.3333333333333,4,1,0,75,0,1
134211,-82.3529217993125,4,1,0,75,0,1
134294,-81.3953772309455,4,1,0,75,0,1
134627,-77.7777950617322,4,1,0,75,0,1
134961,-74.4680930285205,4,1,0,75,0,1
135044,-73.6842027700839,4,1,0,75,0,1
135127,-72.9166438802155,4,1,0,75,0,1
135183,-72.4138130796726,4,1,0,75,0,1
135239,-71.917818070934,4,1,0,75,0,1
135294,-71.4285714285714,4,1,0,75,0,1
135637,333.333333333333,4,1,0,35,1,9
135651,333.333333333333,4,1,0,35,1,0
135651,-111.111111111111,4,1,0,35,0,0
135964,-108.695652173913,4,1,0,35,0,0
136131,-106.382978723404,4,1,0,35,0,0
136464,-111.111111111111,4,1,0,35,0,0
136631,-108.695652173913,4,1,0,35,0,0
136797,-106.382978723404,4,1,0,35,0,0
136984,-119.047619047619,4,1,0,35,0,0
137109,-114.942528735632,4,1,0,35,0,0
137296,-111.111111111111,4,1,0,35,0,0
137442,-107.16930499634,4,1,0,35,0,0
137630,-103.497490703338,4,1,0,35,0,0
137776,-100.069047642874,4,1,0,35,0,0
137963,-96.8603680306544,4,1,0,40,0,0
138130,-93.8511539468633,4,1,0,45,0,0
138317,-91.0232009036783,4,1,0,50,0,0
140641,-83.4292073975009,4,1,0,60,0,0
140974,-77.0047612043853,4,1,0,60,0,0
141307,-91.0232009036783,4,1,0,60,0,0
141807,-77.0047612043853,4,1,0,60,0,0
141974,-91.0232009036783,4,1,0,60,0,0
142307,-77.0047612043853,4,1,0,60,0,0
142641,-91.0232009036783,4,1,0,60,0,0
143141,-77.0047612043853,4,1,0,60,0,0
143307,-91.0232009036783,4,1,0,60,0,0
143637,363.636363636364,4,1,0,55,1,0
143637,-76.9230769230769,4,1,0,55,0,0
144000,400,4,1,0,52,1,8
144000,-74.7197802760254,4,1,0,55,0,0
144400,375,4,1,0,48,1,8
144400,-85.561522491357,4,1,0,55,0,0
144577,-88.8271762082183,4,1,0,55,0,0
144775,333.333333333333,4,1,0,44,1,8
144775,-103.896103896104,4,1,0,55,0,0
144931,-108.189367094907,4,1,0,55,0,0
145015,-110.471806674338,4,1,0,55,0,0
145108,375,4,1,0,40,1,0
145108,-100.313445032981,4,1,0,55,0,0
145754,-118.13571940906,4,1,0,55,0,0
145848,-121.212121212121,4,1,0,55,0,0
146608,375,4,1,0,40,1,8
146608,-121.212121212121,4,1,0,40,0,8
146795,685.714285714286,4,1,0,20,1,0
146795,-79.5454545454544,4,1,0,20,0,0
149426,621.761658031088,6,1,0,20,1,0
149426,-93.8715953307397,6,1,0,20,0,0
152103,631.578947368421,5,1,0,20,1,0
152103,-91.3461538461541,5,1,0,20,0,0
154757,691.244239631336,4,1,0,20,1,0
154757,-78.5094066570188,4,1,0,20,0,0
157426,694.1431670282,4,1,0,20,1,0
157426,-77.97699594046,4,1,0,20,0,0
160097,674.157303370787,4,1,0,20,1,0
160097,-81.8014705882353,4,1,0,20,0,0
162744,681.818181818182,4,1,0,20,1,0
162744,-80.29197080292,4,1,0,20,0,0
165409,681.818181818182,5,1,0,20,1,0
165409,-80.29197080292,5,1,0,20,0,0
168181,600,4,1,0,20,1,0
168181,-100,4,1,0,20,0,0
175371,-100,4,1,0,30,0,0
175671,-97.5733507664387,4,1,0,30,0,0
175971,-95.261593097726,4,1,0,30,0,0
176271,-93.0569294377221,4,1,0,30,0,0
176571,-90.9519209955233,4,1,0,30,0,0
176871,-88.9401183970856,4,1,0,30,0,0
177021,-87.9671495476729,4,1,0,30,0,0
177171,-87.0153138250801,4,1,0,30,0,0
177471,-85.1721286133211,4,1,0,30,0,0
177771,-83.4053399434845,4,1,0,30,0,0
177921,-111.239159743883,4,1,0,30,0,0
187326,545.454545454546,4,1,0,50,1,0
187326,-80.8823529411762,4,1,0,50,0,0
204225,-83.3333333333333,4,1,0,50,0,0
204497,-86.2068965517241,4,1,0,50,0,0
204780,571.428571428571,4,1,0,50,1,0
204780,-83.390942576163,4,1,0,50,0,0
222494,545.454545454546,4,1,0,50,1,8
222494,-86.2068965517241,4,1,0,50,0,8
223039,428.571428571429,4,1,0,40,1,0
223039,-90.9090909090909,4,1,0,40,0,0
236314,-86.9565217391304,4,1,0,60,0,0
236421,-85.4700854700855,4,1,0,60,0,0
236529,-83.3333333333333,4,1,0,60,0,0
236636,-81.3008130081301,4,1,0,75,0,0
236753,333.333333333333,4,1,0,75,1,0
236753,-99.7963157196163,4,1,0,75,0,0
247419,-90.7407256172865,4,1,0,75,0,1
252752,-90.7407256172865,4,1,0,75,0,0
253076,-110.859705933544,4,1,0,60,0,0
256742,-111.111111111111,4,1,0,60,0,0
256909,-106.688744124117,4,1,0,60,0,0
257076,-102.605039343902,4,1,0,60,0,0
257242,-98.8223342428282,4,1,0,60,0,0
257409,-95.3086236195737,4,1,0,60,0,0
257576,-92.0362843847558,4,1,0,60,0,0
257742,-88.9811128689824,4,1,0,60,0,0
257909,-86.1222591591023,4,1,0,60,0,0
258076,-83.441389933297,4,1,0,60,0,0
262159,-33.3333333333333,4,1,0,5,0,0
263076,-100,4,1,0,40,0,0
263326,-71.4285714285714,4,1,0,80,0,0
263419,-71.4285714285714,4,1,0,80,0,1
266086,-71.4285714285714,4,1,0,80,0,0
266965,-76.9230769230769,4,1,0,80,0,0
267187,-83.3333333333333,4,1,0,80,0,0
267409,-71.4285714285714,4,1,0,80,0,0
267631,-76.9230769230769,4,1,0,80,0,0
267854,-83.3333333333333,4,1,0,80,0,0
268076,-90.9090909090909,4,1,0,80,0,0
268742,-125,4,1,0,80,0,0
273409,-125,4,1,0,80,0,0
273576,-111.238541039791,4,1,0,80,0,0
273742,-100.206626062942,4,1,0,80,0,0
273798,-96.9999844800025,4,1,0,80,0,0
273854,-93.9922061662647,4,1,0,80,0,0
273909,-91.1654315270119,4,1,0,80,0,0
274076,-83.6207098394817,4,1,0,80,0,0
274326,-91.2511999532794,4,1,0,80,0,0
278742,-90.9090909090909,4,1,0,80,0,0
278826,-92.2882123957835,4,1,0,80,0,0
278909,-93.709909729244,4,1,0,80,0,0
278992,-95.1760042258146,4,1,0,80,0,0
279076,-96.6887020218575,4,1,0,80,0,0
279159,-98.2503576313018,4,1,0,80,0,0
279242,-99.8631874332165,4,1,0,80,0,0
279419,-83.2383029374797,4,1,0,80,0,1
279576,-99.8631874332165,4,1,0,80,0,1
280076,-90.7960086074616,4,1,0,80,0,1
280242,-99.8631874332165,4,1,0,80,0,1
280742,-83.2383029374797,4,1,0,80,0,1
280909,-90.7960086074616,4,1,0,80,0,1
281409,-83.2383029374797,4,1,0,80,0,1
281576,-90.7960086074616,4,1,0,80,0,1
282076,-76.8420971745161,4,1,0,80,0,1
282242,-83.2383029374797,4,1,0,80,0,1
282409,-76.8420971745161,4,1,0,80,0,1
282576,-83.2383029374797,4,1,0,80,0,1
282742,-76.8420971745161,4,1,0,80,0,1
282909,-83.2383029374797,4,1,0,80,0,1
283076,-76.8420971745161,4,1,0,80,0,1
283242,-83.2383029374797,4,1,0,80,0,1
283409,-71.3587418026645,4,1,0,80,0,1
283576,-83.3333333333333,4,1,0,80,0,1
283742,-79.0043555101193,4,1,0,80,0,1
283909,-75.10287215914,4,1,0,80,0,1
284076,-71.5686414840473,4,1,0,80,0,1
284242,-74.0740740740741,4,1,0,80,0,1
284409,-76.9230769230769,4,1,0,80,0,1
284576,-80,4,1,0,80,0,1
284742,-71.4285714285714,4,1,0,80,0,1
284909,-76.9230769230769,4,1,0,80,0,1
285048,-71.4285714285714,4,1,0,80,0,1
285215,-76.9230769230769,4,1,0,80,0,1
285381,-71.4285714285714,4,1,0,80,0,1
285548,-76.9230769230769,4,1,0,80,0,1
285715,-71.4285714285714,4,1,0,80,0,1
285882,-76.9230769230769,4,1,0,80,0,1
286242,-83.3333333333333,4,1,0,80,0,1
286742,-76.9230769230769,4,1,0,80,0,1
286909,-83.3333333333333,4,1,0,80,0,1
287076,-76.9230769230769,4,1,0,80,0,1
287242,-83.3333333333333,4,1,0,80,0,1
287576,-90.9090909090909,4,1,0,80,0,1
288076,-90.9090909090909,4,1,0,80,0,1
288242,-86.9565217391304,4,1,0,80,0,1
288409,-83.3333333333333,4,1,0,80,0,1
288576,-80,4,1,0,80,0,1
288742,-76.9230769230769,4,1,0,80,0,1
288909,-80.612916123873,4,1,0,80,0,1
288965,-81.9228270584544,4,1,0,80,0,1
289020,-83.2760116786279,4,1,0,80,0,1
289076,-84.6745786592966,4,1,0,80,0,1
289242,-89.1672492260283,4,1,0,80,0,1
289326,-91.5972359618076,4,1,0,80,0,1
289409,-94.1634658935218,4,1,0,80,0,1
289492,-96.8775400080021,4,1,0,80,0,1
289576,-99.7527130244125,4,1,0,80,0,1
289752,350,4,1,0,75,1,9
289752,-98.0392156862745,4,1,0,75,0,9
289927,-102.040816326531,4,1,0,75,0,8
290102,400,4,1,0,20,1,0
290102,-100,4,1,0,20,0,0
290892,-142.857142857143,4,1,0,20,0,0
291682,-133.348801794341,4,1,0,25,0,0
292482,-125.027037096772,4,1,0,30,0,0
293282,-117.683055993598,4,1,0,35,0,0
294082,-111.153967140664,4,1,0,40,0,0
294882,-105.311157611838,4,1,0,45,0,0
295482,-101.316917290948,4,1,0,50,0,0
295582,-100.680499496094,4,1,0,50,0,0
295682,-100.052027054068,4,1,0,50,0,0
296482,-71.4551118987052,4,1,0,75,0,0
298892,-100.052027054068,4,1,0,75,0,0
299692,-71.4551118987052,4,1,0,75,0,0
302092,-100,4,1,0,50,0,0
302292,-105.206125100603,4,1,0,50,0,0
302392,-108.017840226492,4,1,0,50,0,0
302492,-110.983972804487,4,1,0,50,0,0
302592,-114.117602754342,4,1,0,50,0,0
302692,-117.433468068666,4,1,0,50,0,0
302758,-119.753021368729,4,1,0,50,0,0
302825,-122.166202231488,4,1,0,50,0,0
302892,-124.678640803329,4,1,0,50,0,0
302992,-124.678640803329,4,1,0,20,0,0
305192,-124.678640803329,4,1,0,35,0,0
305992,-124.678640803329,4,1,0,40,0,0
306902,444.444444444444,4,1,0,45,1,8
306902,-107.142857142858,4,1,0,45,0,8
307790,444.444444444444,4,1,0,45,1,0
307790,-107.142857142858,4,1,0,45,0,0
308679,400,4,1,0,50,1,8
308869,-100,4,1,0,50,0,8
308969,-93.8303715776545,4,1,0,50,0,8
309069,-88.3777122015153,4,1,0,50,0,8
309169,-83.5240465730084,4,1,0,50,0,8
309269,-79.1756860969079,4,1,0,50,0,8
309369,-75.2577389414397,4,1,0,50,0,8
309479,366.97247706422,4,1,0,60,1,1
309479,-71.7092105461302,4,1,0,60,0,9
315334,659.340659340659,4,1,0,30,1,0
315334,-50,4,1,0,30,0,0
315406,-50.5263072797798,4,1,0,30,0,0
315488,-51.0638384789512,4,1,0,30,0,0
315993,674.157303370787,4,1,0,20,1,8
315993,-53.3466630460466,4,1,0,30,0,0
316667,697.674418604651,4,1,0,20,1,8
316667,-56.7032853626396,4,1,0,30,0,0
317364,821.917808219178,4,1,0,20,1,8
317364,-53.4798534798535,4,1,0,30,0,0
318185,545.454545454546,4,1,0,20,1,8
318185,-90.6593633241814,4,1,0,30,0,0
318730,638.297872340426,4,1,0,20,1,8
318730,-88.5400061000296,4,1,0,30,0,0
319368,1304.34782608696,4,1,0,20,1,0
319368,-50.5494505494505,4,1,0,30,0,0
320672,1271.18644067797,4,1,0,20,1,8
320672,-52.6315789473684,4,1,0,20,0,8
321943,821.917808219178,4,1,0,20,1,8
321943,-100,4,1,0,20,0,8
323586,3428.57142857143,4,1,0,10,1,0
323586,-33.3333333333333,4,1,0,10,0,0
325290,-35.7142857142857,4,1,0,10,0,0
327004,-38.4615384615385,4,1,0,10,0,0
330433,-45.4545454545455,4,1,0,10,0,0
332147,-50,4,1,0,10,0,0
333861,-55.5555555555556,4,1,0,10,0,0
337300,3797.46835443038,4,1,0,10,1,0
337300,-71.4285714285714,4,1,0,10,0,0
341087,-83.3333333333333,4,1,0,10,0,0
344894,3678.75,4,1,0,10,1,0
344894,-100,4,1,0,10,0,0
345573,-125,4,1,0,10,0,0
359369,-200,4,1,0,10,0,0

[HitObjects]
266,142,5951,5,0,0:0:0:0:
275,126,6007,1,8,0:0:0:0:
275,126,6063,1,0,0:0:0:0:
275,126,6118,1,8,0:0:0:0:
263,143,6310,1,0,0:0:0:0:
267,120,6643,1,8,0:0:0:0:
267,120,6809,1,0,0:0:0:0:
267,120,6976,1,8,0:0:0:0:
266,120,7309,1,0,0:0:0:0:
266,120,7476,1,8,0:0:0:0:
266,120,7643,1,0,0:0:0:0:
272,124,7976,1,8,0:0:0:0:
272,124,8143,1,0,0:0:0:0:
272,124,8476,1,8,0:0:0:0:
272,124,8643,1,0,0:0:0:0:
272,125,8976,1,0,0:0:0:0:
271,116,9309,1,8,0:0:0:0:
283,122,9476,1,0,0:0:0:0:
283,122,9643,1,8,0:0:0:0:
283,122,9976,1,0,0:0:0:0:
283,122,10143,1,8,0:0:0:0:
283,122,10309,1,0,0:0:0:0:
285,121,10643,1,8,0:0:0:0:
285,121,10809,1,0,0:0:0:0:
286,117,11309,1,8,0:0:0:0:
286,117,11351,1,8,0:0:0:0:
282,117,11643,1,0,0:0:0:0:
282,117,11809,1,0,0:0:0:0:
281,117,11976,1,8,0:0:0:0:
285,123,12143,1,0,0:0:0:0:
285,123,12309,1,8,0:0:0:0:
285,123,12476,1,8,0:0:0:0:
285,123,12643,1,0,0:0:0:0:
285,123,12809,1,0,0:0:0:0:
285,123,12976,1,8,0:0:0:0:
285,123,13143,1,0,0:0:0:0:
285,123,13309,1,0,0:0:0:0:
285,123,13476,1,0,0:0:0:0:
285,123,13643,1,8,0:0:0:0:
285,123,13809,1,0,0:0:0:0:
285,123,13976,1,8,0:0:0:0:
285,123,14143,1,8,0:0:0:0:
285,123,14309,1,0,0:0:0:0:
285,123,14393,1,0,0:0:0:0:
279,118,14476,1,0,0:0:0:0:
279,118,14559,1,0,0:0:0:0:
279,118,14643,1,0,0:0:0:0:
279,118,14726,1,0,0:0:0:0:
279,118,14809,1,0,0:0:0:0:
279,118,14893,1,0,0:0:0:0:
279,118,14976,1,0,0:0:0:0:
279,118,15059,1,0,0:0:0:0:
279,118,15143,1,0,0:0:0:0:
279,118,15226,1,0,0:0:0:0:
279,118,15309,1,0,0:0:0:0:
279,118,15393,1,0,0:0:0:0:
279,118,15476,1,0,0:0:0:0:
279,118,15559,1,0,0:0:0:0:
279,118,15643,1,8,0:0:0:0:
289,116,15976,1,0,0:0:0:0:
289,116,16309,1,8,0:0:0:0:
289,116,16643,1,0,0:0:0:0:
289,116,16976,1,8,0:0:0:0:
289,116,17309,1,8,0:0:0:0:
289,116,17643,1,8,0:0:0:0:
289,116,17809,1,0,0:0:0:0:
289,116,17893,1,0,0:0:0:0:
289,116,17976,1,12,0:0:0:0:
277,126,18309,1,4,0:0:0:0:
277,126,18642,1,8,0:0:0:0:
277,126,18809,1,0,0:0:0:0:
277,126,18893,1,0,0:0:0:0:
277,126,18976,1,8,0:0:0:0:
277,126,19143,1,0,0:0:0:0:
277,126,19309,1,8,0:0:0:0:
277,126,19393,1,0,0:0:0:0:
277,126,19476,1,8,0:0:0:0:
277,126,19643,1,0,0:0:0:0:
277,126,19976,1,8,0:0:0:0:
277,126,20143,1,0,0:0:0:0:
277,126,20226,1,0,0:0:0:0:
277,126,20309,1,0,0:0:0:0:
277,126,20476,1,0,0:0:0:0:
277,126,20643,1,8,0:0:0:0:
277,126,20726,1,8,0:0:0:0:
277,126,20809,1,0,0:0:0:0:
277,126,20976,1,8,0:0:0:0:
276,119,21309,1,8,0:0:0:0:
276,119,21476,1,0,0:0:0:0:
276,119,21559,1,0,0:0:0:0:
276,119,21643,1,8,0:0:0:0:
276,119,21809,1,0,0:0:0:0:
276,119,21976,1,8,0:0:0:0:
276,119,22059,1,8,0:0:0:0:
276,119,22143,1,0,0:0:0:0:
276,119,22309,1,8,0:0:0:0:
276,119,22476,1,0,0:0:0:0:
276,119,22643,1,8,0:0:0:0:
283,104,22698,1,8,0:0:0:0:
281,104,22754,1,0,0:0:0:0:
277,108,22809,1,0,0:0:0:0:
281,112,22976,1,8,0:0:0:0:
281,112,23143,1,0,0:0:0:0:
278,104,23226,1,0,0:0:0:0:
270,111,23309,1,8,0:0:0:0:
278,104,23476,1,8,0:0:0:0:
278,104,23643,1,0,0:0:0:0:
277,103,23976,1,0,0:0:0:0:
277,103,24143,1,0,0:0:0:0:
277,103,24309,1,8,0:0:0:0:
277,103,24476,1,0,0:0:0:0:
277,103,24559,1,0,0:0:0:0:
277,103,24643,1,8,0:0:0:0:
277,103,24809,1,8,0:0:0:0:
277,103,24976,1,0,0:0:0:0:
274,102,25309,1,8,0:0:0:0:
274,102,25476,1,0,0:0:0:0:
274,102,25559,1,8,0:0:0:0:
267,98,25643,1,0,0:0:0:0:
274,102,25809,1,0,0:0:0:0:
274,102,25976,1,8,0:0:0:0:
274,102,26059,1,8,0:0:0:0:
274,102,26143,1,0,0:0:0:0:
274,102,26309,1,8,0:0:0:0:
274,102,26476,1,0,0:0:0:0:
274,102,26643,1,0,0:0:0:0:
274,102,26809,1,8,0:0:0:0:
275,97,27143,1,0,0:0:0:0:
275,97,27309,1,0,0:0:0:0:
275,97,27476,1,8,0:0:0:0:
276,92,27809,1,0,0:0:0:0:
276,92,27976,1,8,0:0:0:0:
276,92,28143,1,8,0:0:0:0:
269,82,28476,1,8,0:0:0:0:
269,82,28559,1,8,0:0:0:0:
269,82,28643,1,0,0:0:0:0:
268,96,28698,1,0,0:0:0:0:
265,91,28754,1,8,0:0:0:0:
264,90,28809,1,8,0:0:0:0:
261,88,28893,1,0,0:0:0:0:
258,86,28976,1,0,0:0:0:0:
264,78,29309,1,0,0:0:0:0:
264,78,29476,1,0,0:0:0:0:
264,78,29643,1,8,0:0:0:0:
273,68,29809,1,0,0:0:0:0:
273,68,29976,1,8,0:0:0:0:
273,68,30143,1,0,0:0:0:0:
265,73,30309,1,8,0:0:0:0:
265,73,30393,1,0,0:0:0:0:
270,76,30476,1,0,0:0:0:0:
265,73,30559,1,0,0:0:0:0:
270,76,30643,1,8,0:0:0:0:
277,69,30726,1,0,0:0:0:0:
270,76,30809,1,0,0:0:0:0:
277,69,30893,1,0,0:0:0:0:
277,70,30976,1,8,0:0:0:0:
268,72,31143,1,0,0:0:0:0:
268,72,31309,1,12,0:0:0:0:
268,71,31643,1,12,0:0:0:0:
269,76,31976,1,0,0:0:0:0:
269,76,32143,1,8,0:0:0:0:
269,76,32226,1,0,0:0:0:0:
269,76,32309,1,8,0:0:0:0:
269,76,32476,1,0,0:0:0:0:
269,76,32643,1,8,0:0:0:0:
269,76,32726,1,8,0:0:0:0:
269,76,32809,1,0,0:0:0:0:
269,76,32976,1,8,0:0:0:0:
269,76,33143,1,0,0:0:0:0:
269,76,33309,1,8,0:0:0:0:
276,109,33365,1,8,0:0:0:0:
273,105,33421,1,0,0:0:0:0:
273,105,33476,1,0,0:0:0:0:
255,99,33643,1,8,0:0:0:0:
270,86,33809,1,0,0:0:0:0:
270,86,33893,1,0,0:0:0:0:
261,92,33976,1,8,0:0:0:0:
270,86,34143,1,0,0:0:0:0:
274,91,34309,1,8,0:0:0:0:
270,87,34643,1,8,0:0:0:0:
276,93,34809,1,0,0:0:0:0:
276,93,34893,1,0,0:0:0:0:
276,93,34976,1,8,0:0:0:0:
276,93,35143,1,0,0:0:0:0:
276,93,35309,1,8,0:0:0:0:
276,93,35393,1,8,0:0:0:0:
276,93,35476,1,0,0:0:0:0:
276,93,35643,1,8,0:0:0:0:
275,91,35976,1,0,0:0:0:0:
275,91,36143,1,8,0:0:0:0:
268,92,36226,1,8,0:0:0:0:
268,92,36309,1,0,0:0:0:0:
268,92,36476,1,0,0:0:0:0:
268,92,36643,1,8,0:0:0:0:
268,92,36809,1,0,0:0:0:0:
268,92,36893,1,0,0:0:0:0:
268,92,36976,1,8,0:0:0:0:
268,92,37143,1,0,0:0:0:0:
268,92,37309,1,0,0:0:0:0:
268,92,37476,1,8,0:0:0:0:
262,86,37809,1,0,0:0:0:0:
262,86,37976,1,0,0:0:0:0:
262,86,38143,1,8,0:0:0:0:
272,99,38476,1,0,0:0:0:0:
267,86,38643,1,8,0:0:0:0:
267,86,38809,1,8,0:0:0:0:
260,98,39143,1,8,0:0:0:0:
260,98,39309,1,8,0:0:0:0:
259,98,39643,1,0,0:0:0:0:
288,101,39726,1,8,0:0:0:0:
260,118,40976,1,8,0:0:0:0:
260,118,41309,1,8,0:0:0:0:
260,118,41643,1,8,0:0:0:0:
260,118,41809,1,0,0:0:0:0:
260,118,41893,1,0,0:0:0:0:
260,118,41976,1,8,0:0:0:0:
265,108,42032,1,0,0:0:0:0:
265,108,42087,1,8,0:0:0:0:
264,108,42143,1,0,0:0:0:0:
265,95,42312,1,12,0:0:0:0:
258,99,42561,1,0,0:0:0:0:
266,98,42645,1,0,0:0:0:0:
266,98,42811,1,12,0:0:0:0:
263,87,43061,1,8,0:0:0:0:
263,87,43145,1,0,0:0:0:0:
257,79,43311,1,8,0:0:0:0:
257,79,43478,1,4,0:0:0:0:
260,87,43728,1,0,0:0:0:0:
260,87,43811,1,8,0:0:0:0:
260,87,43978,1,0,0:0:0:0:
260,87,44145,1,12,0:0:0:0:
260,87,44478,1,8,0:0:0:0:
260,87,44561,1,0,0:0:0:0:
260,87,44645,1,8,0:0:0:0:
260,87,44811,1,0,0:0:0:0:
260,87,44978,1,12,0:0:0:0:
260,87,45145,1,0,0:0:0:0:
260,87,45311,1,0,0:0:0:0:
260,87,45478,1,12,0:0:0:0:
260,87,45728,1,0,0:0:0:0:
260,87,45811,1,8,0:0:0:0:
260,87,45895,1,0,0:0:0:0:
260,87,45978,1,0,0:0:0:0:
260,87,46145,1,12,0:0:0:0:
263,86,46478,1,0,0:0:0:0:
263,86,46645,1,8,0:0:0:0:
263,86,46811,1,0,0:0:0:0:
263,86,46895,1,0,0:0:0:0:
263,86,46978,1,8,0:0:0:0:
263,86,47145,1,0,0:0:0:0:
263,86,47228,1,8,0:0:0:0:
263,86,47311,1,8,0:0:0:0:
263,86,47478,1,0,0:0:0:0:
258,78,47561,1,0,0:0:0:0:
263,86,47645,1,12,0:0:0:0:
259,81,47895,1,0,0:0:0:0:
259,81,47978,1,0,0:0:0:0:
259,81,48145,1,12,0:0:0:0:
257,81,48395,1,8,0:0:0:0:
257,81,48478,1,0,0:0:0:0:
257,81,48645,1,8,0:0:0:0:
257,81,48811,1,4,0:0:0:0:
261,87,49061,1,0,0:0:0:0:
261,87,49145,1,0,0:0:0:0:
261,87,49311,1,8,0:0:0:0:
261,87,49478,1,4,0:0:0:0:
264,86,49811,1,12,0:0:0:0:
264,86,50145,1,4,0:0:0:0:
264,86,50478,1,0,0:0:0:0:
264,86,50561,1,0,0:0:0:0:
264,86,50645,1,8,0:0:0:0:
264,86,50811,1,4,0:0:0:0:
273,79,51061,1,0,0:0:0:0:
273,79,51145,1,8,0:0:0:0:
273,79,51228,1,0,0:0:0:0:
273,79,51311,1,0,0:0:0:0:
264,86,51478,1,12,0:0:0:0:
272,82,51811,1,0,0:0:0:0:
272,82,51895,1,0,0:0:0:0:
272,82,51978,1,8,0:0:0:0:
272,82,52145,1,0,0:0:0:0:
272,82,52228,1,8,0:0:0:0:
272,82,52311,1,0,0:0:0:0:
272,82,52478,1,8,0:0:0:0:
272,82,52561,1,0,0:0:0:0:
272,82,52645,1,8,0:0:0:0:
272,82,52811,1,0,0:0:0:0:
272,82,52895,1,8,0:0:0:0:
272,82,52978,1,0,0:0:0:0:
272,82,53145,1,0,0:0:0:0:
272,82,53311,1,8,0:0:0:0:
272,82,53478,1,0,0:0:0:0:
272,82,53645,1,8,0:0:0:0:
258,78,53811,1,8,0:0:0:0:
272,82,53978,1,0,0:0:0:0:
272,82,54145,1,0,0:0:0:0:
267,76,54311,1,8,0:0:0:0:
267,76,54478,1,0,0:0:0:0:
267,76,54645,1,8,0:0:0:0:
267,76,54811,1,8,0:0:0:0:
272,80,54978,1,0,0:0:0:0:
272,80,55061,1,8,0:0:0:0:
272,80,55145,1,0,0:0:0:0:
272,80,55311,1,0,0:0:0:0:
272,80,55478,1,8,0:0:0:0:
272,80,55645,1,8,0:0:0:0:
272,80,55811,1,0,0:0:0:0:
263,77,55978,1,0,0:0:0:0:
263,77,56145,1,0,0:0:0:0:
263,77,56311,1,8,0:0:0:0:
263,77,56478,1,0,0:0:0:0:
263,77,56645,1,0,0:0:0:0:
263,77,56811,1,8,0:0:0:0:
263,77,56895,1,8,0:0:0:0:
263,77,56978,1,0,0:0:0:0:
263,77,57145,1,0,0:0:0:0:
263,77,57311,1,8,0:0:0:0:
263,77,57478,1,0,0:0:0:0:
263,77,57645,1,0,0:0:0:0:
263,77,57728,1,0,0:0:0:0:
263,77,57811,1,0,0:0:0:0:
263,77,57978,1,8,0:0:0:0:
261,69,58145,1,0,0:0:0:0:
261,69,58311,1,0,0:0:0:0:
261,69,58478,1,0,0:0:0:0:
261,69,58561,1,0,0:0:0:0:
261,69,58645,1,8,0:0:0:0:
262,67,58978,1,12,0:0:0:0:
262,67,59311,1,0,0:0:0:0:
262,67,59478,1,8,0:0:0:0:
262,67,59645,1,0,0:0:0:0:
268,72,59978,1,8,0:0:0:0:
261,73,60228,1,8,0:0:0:0:
261,73,60311,1,0,0:0:0:0:
261,73,60478,1,8,0:0:0:0:
258,74,60811,1,12,0:0:0:0:
258,83,61145,1,0,0:0:0:0:
258,83,61311,1,8,0:0:0:0:
258,83,61478,1,0,0:0:0:0:
258,83,61561,1,8,0:0:0:0:
258,83,61645,1,0,0:0:0:0:
258,83,61811,1,0,0:0:0:0:
257,84,62145,1,12,0:0:0:0:
258,81,62478,1,0,0:0:0:0:
258,81,62645,1,8,0:0:0:0:
258,81,62811,1,0,0:0:0:0:
258,81,62978,1,8,0:0:0:0:
258,81,63061,1,8,0:0:0:0:
258,81,63145,1,0,0:0:0:0:
258,81,63311,1,8,0:0:0:0:
258,81,63395,1,0,0:0:0:0:
258,81,63478,1,0,0:0:0:0:
260,71,63645,1,12,0:0:0:0:
288,94,63978,1,8,0:0:0:0:
291,87,64311,1,0,0:0:0:0:
291,87,64534,1,0,0:0:0:0:
294,87,64645,1,8,0:0:0:0:
288,91,64867,1,0,0:0:0:0:
289,91,65200,1,0,0:0:0:0:
289,91,65311,1,8,0:0:0:0:
289,91,65645,1,0,0:0:0:0:
289,91,65756,1,0,0:0:0:0:
289,91,65867,1,0,0:0:0:0:
289,91,65978,1,8,0:0:0:0:
288,86,66311,1,0,0:0:0:0:
288,86,66645,1,8,0:0:0:0:
285,95,66867,1,0,0:0:0:0:
285,95,66978,1,0,0:0:0:0:
286,90,67311,1,8,0:0:0:0:
286,90,67534,1,0,0:0:0:0:
290,100,67867,1,0,0:0:0:0:
290,100,67978,1,8,0:0:0:0:
290,100,68200,1,0,0:0:0:0:
290,100,68311,1,0,0:0:0:0:
290,100,68534,1,8,0:0:0:0:
286,110,68589,1,8,0:0:0:0:
286,109,68645,1,0,0:0:0:0:
286,109,68867,1,0,0:0:0:0:
286,109,68978,1,8,0:0:0:0:
291,102,69311,1,8,0:0:0:0:
291,102,69478,1,0,0:0:0:0:
291,102,69645,1,8,0:0:0:0:
290,102,69978,1,0,0:0:0:0:
290,102,70200,1,0,0:0:0:0:
290,102,70311,1,8,0:0:0:0:
294,102,70645,1,8,0:0:0:0:
294,102,70867,1,0,0:0:0:0:
294,102,70978,1,8,0:0:0:0:
294,102,71200,1,8,0:0:0:0:
294,102,71256,1,8,0:0:0:0:
294,102,71311,1,0,0:0:0:0:
288,102,71645,1,8,0:0:0:0:
288,102,71867,1,0,0:0:0:0:
288,102,71978,1,0,0:0:0:0:
288,102,72311,1,8,0:0:0:0:
284,110,72534,1,0,0:0:0:0:
288,102,72645,1,8,0:0:0:0:
290,135,72867,1,8,0:0:0:0:
288,102,72978,1,0,0:0:0:0:
283,111,73200,1,0,0:0:0:0:
283,111,73311,1,8,0:0:0:0:
289,103,73645,1,8,0:0:0:0:
289,103,73756,1,0,0:0:0:0:
289,103,73867,1,0,0:0:0:0:
289,103,73978,1,0,0:0:0:0:
289,103,74089,1,8,0:0:0:0:
289,103,74200,1,8,0:0:0:0:
289,103,74319,1,0,0:0:0:0:
289,103,74541,1,0,0:0:0:0:
289,103,74652,1,0,0:0:0:0:
289,103,74874,1,8,0:0:0:0:
289,103,74985,1,0,0:0:0:0:
289,103,75096,1,0,0:0:0:0:
313,160,75207,1,0,0:0:0:0:
301,109,75319,1,8,0:0:0:0:
300,116,75541,1,0,0:0:0:0:
300,116,75652,1,0,0:0:0:0:
300,116,75874,1,8,0:0:0:0:
299,105,75985,1,0,0:0:0:0:
292,100,76207,1,0,0:0:0:0:
304,108,76319,1,8,0:0:0:0:
296,91,76569,1,8,0:0:0:0:
296,91,76652,1,0,0:0:0:0:
296,91,76819,1,0,0:0:0:0:
293,96,77069,1,0,0:0:0:0:
258,114,77207,1,0,0:0:0:0:
300,97,77319,1,8,0:0:0:0:
300,97,77541,1,8,0:0:0:0:
300,97,77652,1,0,0:0:0:0:
300,97,77763,1,8,0:0:0:0:
300,97,77874,1,0,0:0:0:0:
300,97,77985,1,8,0:0:0:0:
300,97,78096,1,8,0:0:0:0:
304,90,78207,1,0,0:0:0:0:
309,97,78263,1,0,0:0:0:0:
307,93,78319,1,8,0:0:0:0:
296,88,78541,1,0,0:0:0:0:
296,88,78652,1,0,0:0:0:0:
291,95,78874,1,8,0:0:0:0:
298,95,78985,1,0,0:0:0:0:
304,90,79069,1,0,0:0:0:0:
298,95,79152,1,0,0:0:0:0:
304,90,79235,1,0,0:0:0:0:
298,84,79319,1,8,0:0:0:0:
272,80,79541,1,0,0:0:0:0:
281,80,79652,1,0,0:0:0:0:
281,80,79874,1,8,0:0:0:0:
281,80,79985,1,0,0:0:0:0:
282,97,80207,1,0,0:0:0:0:
282,97,80263,1,0,0:0:0:0:
261,113,80319,1,8,0:0:0:0:
309,93,80402,1,0,0:0:0:0:
323,86,80485,1,0,0:0:0:0:
323,86,80569,1,8,0:0:0:0:
323,86,80652,1,0,0:0:0:0:
323,86,80735,1,0,0:0:0:0:
323,78,80819,1,8,0:0:0:0:
323,86,80902,1,0,0:0:0:0:
323,86,80985,1,0,0:0:0:0:
313,73,81069,1,8,0:0:0:0:
313,73,81152,1,8,0:0:0:0:
322,125,81235,1,0,0:0:0:0:
295,105,81318,1,8,0:0:0:0:
270,82,81652,1,0,0:0:0:0:
280,88,81874,1,8,0:0:0:0:
282,83,82318,1,0,0:0:0:0:
275,78,82651,1,0,0:0:0:0:
275,78,82873,1,8,0:0:0:0:
275,92,83206,1,0,0:0:0:0:
275,92,83318,1,8,0:0:0:0:
295,82,83540,1,8,0:0:0:0:
278,90,83651,1,0,0:0:0:0:
289,92,83873,1,0,0:0:0:0:
289,92,83984,1,8,0:0:0:0:
289,92,84206,1,0,0:0:0:0:
289,84,84318,1,0,0:0:0:0:
291,71,84540,1,8,0:0:0:0:
290,78,84651,1,0,0:0:0:0:
293,86,84873,1,8,0:0:0:0:
313,92,85151,1,0,0:0:0:0:
289,108,85234,1,8,0:0:0:0:
291,99,85318,1,0,0:0:0:0:
279,94,85484,1,0,0:0:0:0:
291,99,85540,1,0,0:0:0:0:
290,93,85595,1,8,0:0:0:0:
291,94,85651,1,8,0:0:0:0:
291,94,85873,1,0,0:0:0:0:
295,90,86151,1,8,0:0:0:0:
295,90,86234,1,8,0:0:0:0:
295,90,86318,1,0,0:0:0:0:
295,90,86540,1,0,0:0:0:0:
277,77,86651,1,8,0:0:0:0:
297,94,86873,1,0,0:0:0:0:
297,94,86984,1,8,0:0:0:0:
293,93,87318,1,4,0:0:0:0:
293,93,87651,1,12,0:0:0:0:
293,93,87818,1,0,0:0:0:0:
293,93,87984,1,8,0:0:0:0:
293,93,88151,1,0,0:0:0:0:
293,93,88234,1,0,0:0:0:0:
293,93,88318,1,8,0:0:0:0:
293,93,88401,1,8,0:0:0:0:
293,93,88484,1,0,0:0:0:0:
293,93,88568,1,0,0:0:0:0:
293,93,88651,1,8,0:0:0:0:
293,93,88734,1,0,0:0:0:0:
293,93,88818,1,12,0:0:0:0:
289,89,89151,1,12,0:0:0:0:
289,89,89317,1,12,0:0:0:0:
289,89,89484,1,0,0:0:0:0:
289,89,89567,1,0,0:0:0:0:
289,89,89651,1,0,0:0:0:0:
289,89,89817,1,8,0:0:0:0:
289,89,89901,1,8,0:0:0:0:
289,89,89984,1,0,0:0:0:0:
289,89,90067,1,0,0:0:0:0:
289,89,90151,1,12,0:0:0:0:
293,98,90484,1,0,0:0:0:0:
293,98,90567,1,0,0:0:0:0:
297,90,90651,1,12,0:0:0:0:
297,90,90817,1,0,0:0:0:0:
297,90,90901,1,0,0:0:0:0:
297,90,90984,1,8,0:0:0:0:
297,90,91151,1,12,0:0:0:0:
297,90,91317,1,0,0:0:0:0:
297,90,91484,1,12,0:0:0:0:
297,90,91651,1,12,0:0:0:0:
292,86,91984,1,4,0:0:0:0:
292,86,92317,1,4,0:0:0:0:
292,86,92651,1,12,0:0:0:0:
292,86,92984,1,4,0:0:0:0:
290,87,93317,1,8,0:0:0:0:
290,87,93484,1,0,0:0:0:0:
290,87,93651,1,8,0:0:0:0:
290,87,93817,1,8,0:0:0:0:
290,83,93984,1,0,0:0:0:0:
290,83,94067,1,8,0:0:0:0:
293,86,94317,1,0,0:0:0:0:
293,86,94484,1,0,0:0:0:0:
293,86,94651,1,8,0:0:0:0:
293,86,94817,1,8,0:0:0:0:
285,86,94984,1,0,0:0:0:0:
285,86,95151,1,8,0:0:0:0:
287,97,95484,1,8,0:0:0:0:
295,88,95651,1,0,0:0:0:0:
293,85,95984,1,8,0:0:0:0:
295,99,96151,1,0,0:0:0:0:
295,99,96317,1,8,0:0:0:0:
295,99,96401,1,8,0:0:0:0:
305,91,96651,1,8,0:0:0:0:
294,93,96859,1,8,0:0:0:0:
302,102,96901,1,8,0:0:0:0:
296,100,96942,1,0,0:0:0:0:
296,100,96984,1,0,0:0:0:0:
270,96,97317,1,8,0:0:0:0:
270,96,97484,1,0,0:0:0:0:
266,95,97817,1,0,0:0:0:0:
266,95,97901,1,0,0:0:0:0:
266,95,97984,1,8,0:0:0:0:
266,95,98151,1,0,0:0:0:0:
266,95,98317,1,4,0:0:0:0:
266,93,98651,1,8,0:0:0:0:
266,93,98817,1,0,0:0:0:0:
266,93,98984,1,8,0:0:0:0:
266,93,99151,1,8,0:0:0:0:
266,93,99317,1,0,0:0:0:0:
266,93,99484,1,0,0:0:0:0:
266,93,99651,1,12,0:0:0:0:
276,89,99984,1,8,0:0:0:0:
264,88,100151,1,0,0:0:0:0:
276,90,100317,1,0,0:0:0:0:
276,90,100484,1,8,0:0:0:0:
286,93,100817,1,12,0:0:0:0:
278,92,101317,1,8,0:0:0:0:
277,92,101651,1,4,0:0:0:0:
277,92,101817,1,8,0:0:0:0:
277,91,102151,1,4,0:0:0:0:
275,94,102484,1,0,0:0:0:0:
275,94,102651,1,8,0:0:0:0:
275,94,102817,1,0,0:0:0:0:
275,94,102901,1,0,0:0:0:0:
275,94,102984,1,8,0:0:0:0:
275,94,103151,1,0,0:0:0:0:
275,94,103234,1,0,0:0:0:0:
275,94,103317,1,0,0:0:0:0:
280,86,103484,1,0,0:0:0:0:
269,96,103651,1,8,0:0:0:0:
270,92,103984,1,0,0:0:0:0:
270,92,104151,1,0,0:0:0:0:
270,92,104317,1,8,0:0:0:0:
270,92,104651,1,8,0:0:0:0:
270,92,104817,1,0,0:0:0:0:
271,88,105151,1,0,0:0:0:0:
271,88,105317,1,8,0:0:0:0:
271,88,105484,1,0,0:0:0:0:
270,87,105817,1,0,0:0:0:0:
270,87,105984,1,8,0:0:0:0:
270,87,106317,1,0,0:0:0:0:
270,87,106651,1,0,0:0:0:0:
270,87,106817,1,0,0:0:0:0:
270,87,106984,1,8,0:0:0:0:
270,87,107317,1,8,0:0:0:0:
270,87,107484,1,0,0:0:0:0:
270,86,107817,1,8,0:0:0:0:
269,86,108151,1,0,0:0:0:0:
263,86,108484,1,8,0:0:0:0:
263,86,108567,1,8,0:0:0:0:
263,86,108651,1,0,0:0:0:0:
263,86,108734,1,0,0:0:0:0:
263,86,108817,1,8,0:0:0:0:
253,84,108984,1,4,0:0:0:0:
253,84,109317,1,0,0:0:0:0:
253,84,109484,1,8,0:0:0:0:
253,84,109651,1,8,0:0:0:0:
253,84,109817,1,0,0:0:0:0:
253,84,109984,1,8,0:0:0:0:
253,84,110151,1,0,0:0:0:0:
253,84,110317,1,0,0:0:0:0:
257,92,110651,1,8,0:0:0:0:
257,92,110817,1,0,0:0:0:0:
257,92,110984,1,8,0:0:0:0:
257,92,111151,1,0,0:0:0:0:
257,92,111234,1,8,0:0:0:0:
257,92,111317,1,0,0:0:0:0:
257,92,111484,1,0,0:0:0:0:
257,92,111567,1,0,0:0:0:0:
257,92,111651,1,12,0:0:0:0:
256,91,111984,1,8,0:0:0:0:
256,91,112151,1,8,0:0:0:0:
256,91,112317,1,0,0:0:0:0:
256,91,112484,1,0,0:0:0:0:
256,91,112651,1,8,0:0:0:0:
256,91,112817,1,0,0:0:0:0:
261,101,112984,1,8,0:0:0:0:
265,92,113151,1,0,0:0:0:0:
265,92,113234,1,0,0:0:0:0:
265,92,113317,1,0,0:0:0:0:
265,92,113484,1,8,0:0:0:0:
258,90,113817,1,0,0:0:0:0:
258,90,113901,1,0,0:0:0:0:
258,90,113984,1,8,0:0:0:0:
265,98,114067,1,8,0:0:0:0:
270,87,114151,1,8,0:0:0:0:
270,87,114317,1,4,0:0:0:0:
255,87,114805,1,0,0:0:0:0:
269,85,114971,1,8,0:0:0:0:
255,87,115638,1,0,0:0:0:0:
256,86,116138,1,0,0:0:0:0:
265,87,116304,1,8,0:0:0:0:
271,106,116971,1,0,0:0:0:0:
271,106,117304,1,0,0:0:0:0:
271,106,117471,1,0,0:0:0:0:
271,106,117638,1,8,0:0:0:0:
270,105,117971,1,0,0:0:0:0:
270,105,118138,1,8,0:0:0:0:
270,105,118304,1,0,0:0:0:0:
270,105,118471,1,8,0:0:0:0:
270,105,118554,1,0,0:0:0:0:
270,105,118638,1,0,0:0:0:0:
270,105,118804,1,0,0:0:0:0:
270,105,118888,1,0,0:0:0:0:
270,105,118971,1,8,0:0:0:0:
270,105,119054,1,8,0:0:0:0:
270,105,119138,1,0,0:0:0:0:
270,105,119221,1,0,0:0:0:0:
270,105,119304,1,8,0:0:0:0:
270,105,119388,1,0,0:0:0:0:
270,105,119471,1,8,0:0:0:0:
270,105,119554,1,0,0:0:0:0:
289,98,119638,1,8,0:0:0:0:
279,105,119971,1,12,0:0:0:0:
245,97,120304,1,8,0:0:0:0:
274,100,120471,1,0,0:0:0:0:
274,100,120554,1,8,0:0:0:0:
274,100,120721,1,0,0:0:0:0:
274,100,120804,1,8,0:0:0:0:
274,100,120971,1,8,0:0:0:0:
274,100,121054,1,0,0:0:0:0:
271,113,121138,1,8,0:0:0:0:
271,114,121193,1,8,0:0:0:0:
272,113,121249,1,0,0:0:0:0:
271,113,121304,1,0,0:0:0:0:
300,97,121388,1,8,0:0:0:0:
284,102,121471,1,0,0:0:0:0:
284,103,121526,1,0,0:0:0:0:
285,101,121582,1,8,0:0:0:0:
284,102,121638,1,8,0:0:0:0:
276,105,121721,1,0,0:0:0:0:
303,99,121804,1,8,0:0:0:0:
307,89,121860,1,8,0:0:0:0:
302,92,121915,1,0,0:0:0:0:
301,92,121971,1,0,0:0:0:0:
296,111,122304,1,8,0:0:0:0:
293,103,122471,1,0,0:0:0:0:
293,103,122554,1,0,0:0:0:0:
293,103,122638,1,8,0:0:0:0:
293,103,122693,1,0,0:0:0:0:
293,103,122749,1,0,0:0:0:0:
293,103,122804,1,8,0:0:0:0:
293,103,122887,1,0,0:0:0:0:
293,103,122971,1,8,0:0:0:0:
293,103,123137,1,0,0:0:0:0:
293,103,123221,1,8,0:0:0:0:
293,103,123387,1,8,0:0:0:0:
293,103,123471,1,0,0:0:0:0:
293,103,123554,1,0,0:0:0:0:
293,103,123637,1,8,0:0:0:0:
293,103,123721,1,0,0:0:0:0:
293,103,123804,1,0,0:0:0:0:
293,103,123887,1,0,0:0:0:0:
293,103,123971,1,8,0:0:0:0:
286,98,124054,1,8,0:0:0:0:
293,103,124137,1,0,0:0:0:0:
293,103,124221,1,0,0:0:0:0:
286,98,124304,1,8,0:0:0:0:
286,98,124387,1,8,0:0:0:0:
286,98,124471,1,0,0:0:0:0:
286,98,124554,1,0,0:0:0:0:
286,98,124637,1,8,0:0:0:0:
286,98,124721,1,0,0:0:0:0:
286,98,124804,1,8,0:0:0:0:
267,98,124887,1,0,0:0:0:0:
286,98,124971,1,12,0:0:0:0:
301,108,125304,1,8,0:0:0:0:
284,107,125471,1,0,0:0:0:0:
284,107,125554,1,0,0:0:0:0:
284,107,125637,1,8,0:0:0:0:
284,107,125721,1,0,0:0:0:0:
284,107,125887,1,0,0:0:0:0:
284,107,125971,1,8,0:0:0:0:
284,107,126137,1,0,0:0:0:0:
284,107,126304,1,8,0:0:0:0:
284,107,126471,1,0,0:0:0:0:
284,107,126554,1,8,0:0:0:0:
284,107,126637,1,0,0:0:0:0:
279,101,126804,1,8,0:0:0:0:
279,101,126971,1,0,0:0:0:0:
279,101,127054,1,8,0:0:0:0:
279,101,127221,1,8,0:0:0:0:
279,101,127304,1,0,0:0:0:0:
279,101,127471,1,8,0:0:0:0:
288,94,127637,1,0,0:0:0:0:
288,94,127804,1,8,0:0:0:0:
288,94,127887,1,0,0:0:0:0:
288,94,127971,1,8,0:0:0:0:
288,94,128137,1,0,0:0:0:0:
288,94,128221,1,0,0:0:0:0:
288,94,128304,1,8,0:0:0:0:
288,94,128387,1,0,0:0:0:0:
288,94,128554,1,0,0:0:0:0:
288,94,128637,1,8,0:0:0:0:
288,94,128804,1,0,0:0:0:0:
288,94,128971,1,8,0:0:0:0:
297,84,129026,1,0,0:0:0:0:
302,92,129082,1,0,0:0:0:0:
296,84,129137,1,8,0:0:0:0:
292,88,129304,1,0,0:0:0:0:
298,93,129471,1,12,0:0:0:0:
296,94,129804,1,8,0:0:0:0:
296,94,129887,1,8,0:0:0:0:
296,94,129971,1,0,0:0:0:0:
294,93,130304,1,4,0:0:0:0:
294,93,130471,1,0,0:0:0:0:
294,93,130637,1,8,0:0:0:0:
313,99,130679,1,8,0:0:0:0:
299,97,130804,1,0,0:0:0:0:
299,97,130971,1,8,0:0:0:0:
299,97,131054,1,8,0:0:0:0:
299,97,131137,1,0,0:0:0:0:
299,97,131221,1,0,0:0:0:0:
299,97,131304,1,8,0:0:0:0:
299,97,131471,1,8,0:0:0:0:
299,97,131637,1,4,0:0:0:0:
299,97,131804,1,0,0:0:0:0:
292,91,131887,1,0,0:0:0:0:
308,96,131971,1,8,0:0:0:0:
308,96,132137,1,0,0:0:0:0:
308,96,132304,1,8,0:0:0:0:
308,96,132387,1,0,0:0:0:0:
308,96,132471,1,8,0:0:0:0:
308,96,132554,1,8,0:0:0:0:
300,95,132637,1,0,0:0:0:0:
305,89,132971,1,12,0:0:0:0:
305,89,133137,1,0,0:0:0:0:
305,89,133221,1,0,0:0:0:0:
305,89,133304,1,8,0:0:0:0:
305,89,133387,1,8,0:0:0:0:
305,89,133471,1,0,0:0:0:0:
305,89,133554,1,0,0:0:0:0:
305,89,133637,1,8,0:0:0:0:
299,102,133693,1,0,0:0:0:0:
299,99,133749,1,8,0:0:0:0:
321,97,133804,1,0,0:0:0:0:
321,98,133887,1,0,0:0:0:0:
322,98,133971,1,8,0:0:0:0:
321,97,134054,1,8,0:0:0:0:
322,98,134137,1,0,0:0:0:0:
321,97,134221,1,0,0:0:0:0:
322,98,134304,1,12,0:0:0:0:
321,97,134637,1,0,0:0:0:0:
321,97,134971,1,8,0:0:0:0:
316,109,135054,1,8,0:0:0:0:
316,109,135137,1,0,0:0:0:0:
307,89,135193,1,8,0:0:0:0:
311,90,135249,1,0,0:0:0:0:
311,90,135304,1,8,0:0:0:0:
297,97,135817,1,0,0:0:0:0:
299,84,135984,1,0,0:0:0:0:
296,91,136151,1,8,0:0:0:0:
296,83,136484,1,0,0:0:0:0:
296,83,136651,1,0,0:0:0:0:
295,83,136817,1,8,0:0:0:0:
290,84,137151,1,0,0:0:0:0:
290,84,137317,1,8,0:0:0:0:
290,84,137484,1,8,0:0:0:0:
290,84,137651,1,8,0:0:0:0:
290,84,137817,1,0,0:0:0:0:
290,84,137984,1,0,0:0:0:0:
290,84,138151,1,8,0:0:0:0:
290,84,138317,1,12,0:0:0:0:
286,104,138651,1,0,0:0:0:0:
297,106,138817,1,0,0:0:0:0:
297,106,138984,1,8,0:0:0:0:
297,106,139151,1,0,0:0:0:0:
294,102,139484,1,8,0:0:0:0:
294,102,139651,1,0,0:0:0:0:
294,102,139817,1,8,0:0:0:0:
294,102,139901,1,0,0:0:0:0:
294,102,139984,1,8,0:0:0:0:
294,102,140151,1,0,0:0:0:0:
294,102,140317,1,0,0:0:0:0:
294,102,140651,1,0,0:0:0:0:
293,102,140984,1,12,0:0:0:0:
293,102,141317,1,0,0:0:0:0:
293,102,141484,1,0,0:0:0:0:
293,102,141651,1,8,0:0:0:0:
293,102,141817,1,4,0:0:0:0:
293,102,141984,1,8,0:0:0:0:
292,101,142317,1,4,0:0:0:0:
291,102,142651,1,8,0:0:0:0:
291,102,142817,1,8,0:0:0:0:
291,102,142984,1,0,0:0:0:0:
291,102,143151,1,12,0:0:0:0:
291,102,143317,1,0,0:0:0:0:
287,100,143637,1,12,0:0:0:0:
279,103,144000,1,8,0:0:0:0:
289,103,144400,1,0,0:0:0:0:
289,103,144587,1,12,0:0:0:0:
289,103,144775,1,0,0:0:0:0:
281,104,144941,1,0,0:0:0:0:
281,104,145025,1,0,0:0:0:0:
289,103,145108,1,12,0:0:0:0:
288,114,145764,1,0,0:0:0:0:
288,114,145858,1,8,0:0:0:0:
308,84,146795,1,0,0:0:0:0:
262,109,168181,5,0,0:0:0:0:
268,108,168481,1,0,0:0:0:0:
268,108,168781,1,8,0:0:0:0:
268,108,169081,1,8,0:0:0:0:
268,108,169381,1,8,0:0:0:0:
267,108,169981,1,0,0:0:0:0:
267,108,170581,1,0,0:0:0:0:
267,108,170881,1,0,0:0:0:0:
267,108,171181,1,8,0:0:0:0:
269,102,171781,1,0,0:0:0:0:
269,102,172081,1,0,0:0:0:0:
269,102,172381,1,8,0:0:0:0:
326,73,172881,1,0,0:0:0:0:
311,94,172981,1,0,0:0:0:0:
313,93,173281,1,8,0:0:0:0:
311,94,173581,1,8,0:0:0:0:
320,107,174131,1,0,0:0:0:0:
320,107,174181,1,0,0:0:0:0:
292,95,174481,1,8,0:0:0:0:
292,95,174781,1,8,0:0:0:0:
293,95,175381,1,0,0:0:0:0:
293,90,175681,1,8,0:0:0:0:
293,90,175981,1,0,0:0:0:0:
288,92,176281,1,0,0:0:0:0:
288,92,176581,1,8,0:0:0:0:
287,92,176881,1,0,0:0:0:0:
287,92,177031,1,8,0:0:0:0:
282,83,177181,1,0,0:0:0:0:
282,83,177481,1,8,0:0:0:0:
282,83,177781,1,4,0:0:0:0:
274,88,179581,1,0,0:0:0:0:
273,87,180181,1,0,0:0:0:0:
273,87,181381,1,0,0:0:0:0:
272,88,182581,1,0,0:0:0:0:
273,91,184381,1,0,0:0:0:0:
272,90,184981,1,0,0:0:0:0:
275,73,187326,1,12,0:0:0:0:
274,73,187871,1,0,0:0:0:0:
274,80,188144,1,0,0:0:0:0:
274,80,188280,1,0,0:0:0:0:
274,80,188416,1,8,0:0:0:0:
274,80,188689,1,8,0:0:0:0:
273,78,188962,1,0,0:0:0:0:
272,78,189507,1,0,0:0:0:0:
271,79,189780,1,8,0:0:0:0:
271,79,190053,1,0,0:0:0:0:
271,79,190326,1,8,0:0:0:0:
271,79,190462,1,0,0:0:0:0:
271,79,190598,1,8,0:0:0:0:
272,77,190871,1,0,0:0:0:0:
272,77,191007,1,8,0:0:0:0:
272,77,191144,1,0,0:0:0:0:
272,77,191689,1,0,0:0:0:0:
274,79,192235,1,0,0:0:0:0:
273,72,192507,1,0,0:0:0:0:
273,72,192780,1,8,0:0:0:0:
273,73,193053,1,8,0:0:0:0:
273,73,193598,1,8,0:0:0:0:
273,73,193871,1,0,0:0:0:0:
273,73,194144,1,8,0:0:0:0:
273,73,194280,1,8,0:0:0:0:
273,73,194416,1,0,0:0:0:0:
273,73,194689,1,0,0:0:0:0:
273,73,194962,1,8,0:0:0:0:
273,73,195507,1,0,0:0:0:0:
273,73,196053,1,8,0:0:0:0:
274,73,196598,1,0,0:0:0:0:
274,73,196871,1,0,0:0:0:0:
274,73,197007,1,0,0:0:0:0:
274,73,197144,1,8,0:0:0:0:
274,73,197416,1,8,0:0:0:0:
275,68,197689,1,0,0:0:0:0:
275,68,198235,1,0,0:0:0:0:
275,68,198507,1,8,0:0:0:0:
274,70,198780,1,0,0:0:0:0:
277,71,199053,1,8,0:0:0:0:
277,71,199189,1,0,0:0:0:0:
277,71,199326,1,8,0:0:0:0:
277,71,199598,1,0,0:0:0:0:
277,71,199735,1,8,0:0:0:0:
277,71,199871,1,0,0:0:0:0:
274,70,200416,1,8,0:0:0:0:
274,70,200962,1,0,0:0:0:0:
274,70,201235,1,0,0:0:0:0:
274,70,201371,1,0,0:0:0:0:
274,70,201507,1,8,0:0:0:0:
274,70,201780,1,8,0:0:0:0:
274,70,202326,1,0,0:0:0:0:
274,70,202598,1,0,0:0:0:0:
274,70,202871,1,8,0:0:0:0:
274,70,203007,1,0,0:0:0:0:
274,70,203144,1,8,0:0:0:0:
274,69,203416,1,0,0:0:0:0:
274,69,203553,1,0,0:0:0:0:
274,69,203689,1,8,0:0:0:0:
274,69,203962,1,8,0:0:0:0:
274,69,204235,1,0,0:0:0:0:
274,69,204507,1,0,0:0:0:0:
274,69,204780,1,8,0:0:0:0:
281,69,205351,1,0,0:0:0:0:
288,75,205637,1,0,0:0:0:0:
288,75,205922,1,8,0:0:0:0:
286,73,206208,1,0,0:0:0:0:
286,73,206494,1,0,0:0:0:0:
286,74,207065,1,0,0:0:0:0:
286,74,207351,1,8,0:0:0:0:
286,74,207637,1,0,0:0:0:0:
286,74,207922,1,8,0:0:0:0:
286,74,208494,1,8,0:0:0:0:
286,74,208637,1,8,0:0:0:0:
286,74,208780,1,0,0:0:0:0:
286,74,209065,1,0,0:0:0:0:
280,66,209351,1,8,0:0:0:0:
280,66,209922,1,0,0:0:0:0:
286,74,210208,1,0,0:0:0:0:
286,74,210494,1,8,0:0:0:0:
280,66,210780,1,8,0:0:0:0:
280,66,211065,1,0,0:0:0:0:
280,77,211351,1,0,0:0:0:0:
280,77,211922,1,8,0:0:0:0:
280,77,212065,1,8,0:0:0:0:
280,77,212208,1,0,0:0:0:0:
280,66,212494,1,0,0:0:0:0:
280,66,212780,1,8,0:0:0:0:
280,66,213065,1,8,0:0:0:0:
280,66,213351,1,0,0:0:0:0:
278,66,213637,1,0,0:0:0:0:
278,66,213922,1,8,0:0:0:0:
278,66,214494,1,0,0:0:0:0:
284,68,214780,1,0,0:0:0:0:
284,68,215065,1,8,0:0:0:0:
284,68,215351,1,0,0:0:0:0:
284,68,215637,1,0,0:0:0:0:
284,68,216208,1,0,0:0:0:0:
284,68,216494,1,8,0:0:0:0:
285,61,216780,1,0,0:0:0:0:
285,61,217065,1,8,0:0:0:0:
284,61,217637,1,8,0:0:0:0:
284,61,217780,1,8,0:0:0:0:
284,61,217922,1,0,0:0:0:0:
274,63,218208,1,0,0:0:0:0:
282,59,218494,1,8,0:0:0:0:
282,73,219065,1,0,0:0:0:0:
282,73,219351,1,0,0:0:0:0:
282,73,219637,1,8,0:0:0:0:
282,73,219780,1,8,0:0:0:0:
281,68,219922,1,0,0:0:0:0:
281,68,220208,1,8,0:0:0:0:
277,68,220494,1,0,0:0:0:0:
277,68,220780,1,12,0:0:0:0:
276,65,221065,1,0,0:0:0:0:
276,65,221351,1,0,0:0:0:0:
276,65,221637,1,0,0:0:0:0:
276,65,221922,1,8,0:0:0:0:
276,65,222065,1,0,0:0:0:0:
276,65,222351,1,0,0:0:0:0:
276,65,222494,1,8,0:0:0:0:
276,65,222766,1,0,0:0:0:0:
276,65,223039,1,12,0:0:0:0:
276,65,223181,1,0,0:0:0:0:
276,65,223253,1,0,0:0:0:0:
276,65,223467,1,8,0:0:0:0:
276,65,223681,1,0,0:0:0:0:
272,59,223824,1,8,0:0:0:0:
283,66,223896,1,0,0:0:0:0:
274,64,224110,1,0,0:0:0:0:
274,64,224324,1,8,0:0:0:0:
274,64,224539,1,0,0:0:0:0:
274,64,224681,1,8,0:0:0:0:
274,64,224753,1,0,0:0:0:0:
250,58,224967,1,8,0:0:0:0:
261,60,225110,1,0,0:0:0:0:
261,60,225181,1,8,0:0:0:0:
261,60,225324,1,0,0:0:0:0:
261,60,225396,1,0,0:0:0:0:
261,60,225539,1,0,0:0:0:0:
280,75,225753,1,0,0:0:0:0:
268,66,225824,1,8,0:0:0:0:
291,74,225931,1,0,0:0:0:0:
261,60,226039,1,8,0:0:0:0:
267,52,226253,1,8,0:0:0:0:
267,52,226467,1,0,0:0:0:0:
267,52,226610,1,8,0:0:0:0:
267,52,226681,1,0,0:0:0:0:
276,52,226896,1,8,0:0:0:0:
275,52,227039,1,0,0:0:0:0:
276,52,227110,1,0,0:0:0:0:
275,52,227253,1,8,0:0:0:0:
285,58,227324,1,0,0:0:0:0:
284,53,227467,1,0,0:0:0:0:
274,52,227539,1,8,0:0:0:0:
275,68,227753,1,8,0:0:0:0:
280,54,227967,1,0,0:0:0:0:
280,54,228110,1,8,0:0:0:0:
280,54,228181,1,0,0:0:0:0:
279,61,228324,1,0,0:0:0:0:
280,54,228396,1,8,0:0:0:0:
287,72,228503,1,0,0:0:0:0:
285,68,228610,1,8,0:0:0:0:
285,68,228824,1,0,0:0:0:0:
285,68,228967,1,8,0:0:0:0:
285,68,229039,1,0,0:0:0:0:
276,63,229253,1,8,0:0:0:0:
276,63,229396,1,0,0:0:0:0:
276,63,229467,1,8,0:0:0:0:
286,69,229574,1,0,0:0:0:0:
286,69,229681,1,8,0:0:0:0:
286,69,229789,1,0,0:0:0:0:
286,69,229896,1,12,0:0:0:0:
289,98,230039,1,0,0:0:0:0:
292,87,230110,1,0,0:0:0:0:
292,87,230324,1,8,0:0:0:0:
292,87,230467,1,0,0:0:0:0:
292,87,230539,1,8,0:0:0:0:
292,87,230681,1,0,0:0:0:0:
292,87,230753,1,0,0:0:0:0:
292,87,230896,1,8,0:0:0:0:
292,87,230967,1,0,0:0:0:0:
292,87,231181,1,8,0:0:0:0:
292,87,231396,1,0,0:0:0:0:
292,87,231539,1,8,0:0:0:0:
292,87,231610,1,0,0:0:0:0:
292,87,231753,1,0,0:0:0:0:
292,87,231824,1,8,0:0:0:0:
292,87,232039,1,8,0:0:0:0:
292,87,232181,1,0,0:0:0:0:
292,87,232253,1,0,0:0:0:0:
292,87,232396,1,8,0:0:0:0:
292,87,232610,1,0,0:0:0:0:
292,87,232681,1,8,0:0:0:0:
292,87,232789,1,0,0:0:0:0:
292,87,232896,1,8,0:0:0:0:
292,87,233110,1,8,0:0:0:0:
292,87,233324,1,0,0:0:0:0:
275,72,233467,1,8,0:0:0:0:
275,72,233539,1,0,0:0:0:0:
281,75,233753,1,8,0:0:0:0:
281,75,233896,1,0,0:0:0:0:
281,75,233967,1,0,0:0:0:0:
281,75,234110,1,0,0:0:0:0:
281,75,234181,1,8,0:0:0:0:
285,69,234324,1,8,0:0:0:0:
285,69,234396,1,0,0:0:0:0:
285,69,234610,1,8,0:0:0:0:
285,69,234824,1,0,0:0:0:0:
285,69,234967,1,8,0:0:0:0:
285,69,235039,1,0,0:0:0:0:
262,88,235253,1,0,0:0:0:0:
273,82,235396,1,0,0:0:0:0:
273,82,235467,1,8,0:0:0:0:
273,82,235681,1,0,0:0:0:0:
273,82,235824,1,8,0:0:0:0:
273,82,235896,1,0,0:0:0:0:
273,82,236039,1,0,0:0:0:0:
273,82,236110,1,8,0:0:0:0:
273,82,236324,1,0,0:0:0:0:
267,77,236431,1,0,0:0:0:0:
273,82,236539,1,0,0:0:0:0:
274,77,236646,1,0,0:0:0:0:
273,82,236753,1,12,0:0:0:0:
284,90,236919,1,0,0:0:0:0:
275,69,237086,1,8,0:0:0:0:
275,69,237169,1,8,0:0:0:0:
275,69,237253,1,0,0:0:0:0:
275,69,237419,1,8,0:0:0:0:
275,69,237586,1,0,0:0:0:0:
265,70,237753,1,8,0:0:0:0:
265,70,237836,1,0,0:0:0:0:
265,70,237919,1,8,0:0:0:0:
265,70,238086,1,0,0:0:0:0:
265,70,238253,1,8,0:0:0:0:
265,70,238419,1,0,0:0:0:0:
271,65,238503,1,0,0:0:0:0:
271,65,238586,1,8,0:0:0:0:
270,65,238753,1,0,0:0:0:0:
270,65,238919,1,8,0:0:0:0:
270,65,239003,1,8,0:0:0:0:
270,65,239086,1,0,0:0:0:0:
270,65,239253,1,8,0:0:0:0:
270,65,239419,1,0,0:0:0:0:
270,65,239586,1,8,0:0:0:0:
270,65,239753,1,0,0:0:0:0:
270,65,239836,1,0,0:0:0:0:
270,65,239919,1,8,0:0:0:0:
270,65,240086,1,0,0:0:0:0:
270,65,240253,1,8,0:0:0:0:
270,65,240419,1,0,0:0:0:0:
270,65,240503,1,8,0:0:0:0:
270,65,240586,1,8,0:0:0:0:
270,65,240753,1,0,0:0:0:0:
280,53,240919,1,8,0:0:0:0:
280,53,241003,1,8,0:0:0:0:
273,58,241086,1,0,0:0:0:0:
273,58,241253,1,8,0:0:0:0:
273,58,241419,1,0,0:0:0:0:
282,58,241586,1,8,0:0:0:0:
282,58,241669,1,0,0:0:0:0:
282,58,241753,1,8,0:0:0:0:
282,58,241919,1,0,0:0:0:0:
282,58,242086,1,8,0:0:0:0:
282,58,242253,1,0,0:0:0:0:
282,58,242419,1,8,0:0:0:0:
282,58,242503,1,8,0:0:0:0:
276,62,242586,1,0,0:0:0:0:
276,62,242753,1,8,0:0:0:0:
276,62,242919,1,0,0:0:0:0:
276,62,243086,1,8,0:0:0:0:
273,45,243169,1,0,0:0:0:0:
273,47,243253,1,8,0:0:0:0:
273,45,243419,1,0,0:0:0:0:
273,45,243586,1,8,0:0:0:0:
273,45,243753,1,0,0:0:0:0:
273,45,243836,1,0,0:0:0:0:
273,45,243919,1,8,0:0:0:0:
273,45,244086,1,0,0:0:0:0:
273,45,244253,1,8,0:0:0:0:
273,45,244336,1,8,0:0:0:0:
273,45,244419,1,0,0:0:0:0:
268,50,244586,1,0,0:0:0:0:
261,46,244669,1,0,0:0:0:0:
268,50,244753,1,8,0:0:0:0:
268,50,244919,1,8,0:0:0:0:
268,50,245086,1,0,0:0:0:0:
268,50,245253,1,8,0:0:0:0:
268,45,245336,1,0,0:0:0:0:
268,50,245419,1,8,0:0:0:0:
268,50,245586,1,0,0:0:0:0:
268,50,245753,1,8,0:0:0:0:
268,50,245919,1,0,0:0:0:0:
268,50,246003,1,8,0:0:0:0:
268,50,246086,1,0,0:0:0:0:
275,52,246253,1,8,0:0:0:0:
275,52,246419,1,0,0:0:0:0:
275,52,246586,1,8,0:0:0:0:
275,52,246669,1,8,0:0:0:0:
275,52,246753,1,0,0:0:0:0:
275,52,246919,1,8,0:0:0:0:
275,52,247086,1,0,0:0:0:0:
275,52,247169,1,8,0:0:0:0:
275,52,247253,1,0,0:0:0:0:
275,52,247419,1,12,0:0:0:0:
279,52,247753,1,8,0:0:0:0:
279,52,247919,1,0,0:0:0:0:
279,52,248003,1,8,0:0:0:0:
268,50,248086,1,0,0:0:0:0:
267,53,248169,1,0,0:0:0:0:
268,50,248253,1,8,0:0:0:0:
261,53,248419,1,0,0:0:0:0:
267,48,248586,1,8,0:0:0:0:
263,55,248669,1,8,0:0:0:0:
279,52,248753,1,0,0:0:0:0:
279,52,248919,1,8,0:0:0:0:
269,52,249086,1,0,0:0:0:0:
279,51,249253,1,8,0:0:0:0:
279,51,249336,1,0,0:0:0:0:
279,51,249419,1,8,0:0:0:0:
279,51,249503,1,8,0:0:0:0:
279,51,249586,1,0,0:0:0:0:
269,54,249669,1,8,0:0:0:0:
269,54,249753,1,0,0:0:0:0:
278,64,249919,1,8,0:0:0:0:
278,64,250003,1,8,0:0:0:0:
278,64,250086,1,0,0:0:0:0:
278,64,250253,1,0,0:0:0:0:
278,64,250419,1,8,0:0:0:0:
296,61,250586,1,0,0:0:0:0:
279,60,250669,1,8,0:0:0:0:
279,60,250752,1,0,0:0:0:0:
279,60,250836,1,0,0:0:0:0:
279,60,250919,1,8,0:0:0:0:
279,60,251086,1,0,0:0:0:0:
279,60,251252,1,8,0:0:0:0:
285,57,251336,1,8,0:0:0:0:
279,60,251419,1,0,0:0:0:0:
285,57,251586,1,8,0:0:0:0:
285,57,251669,1,0,0:0:0:0:
285,57,251752,1,8,0:0:0:0:
285,57,251919,1,0,0:0:0:0:
285,57,252002,1,8,0:0:0:0:
285,57,252086,1,0,0:0:0:0:
285,57,252169,1,0,0:0:0:0:
285,57,252252,1,8,0:0:0:0:
277,61,252336,1,0,0:0:0:0:
277,60,252419,1,8,0:0:0:0:
285,63,252586,1,0,0:0:0:0:
285,63,252752,1,8,0:0:0:0:
295,58,253086,1,0,0:0:0:0:
295,58,253252,1,0,0:0:0:0:
283,72,253336,1,0,0:0:0:0:
283,72,253419,1,8,0:0:0:0:
286,68,253752,1,0,0:0:0:0:
286,68,253919,1,0,0:0:0:0:
286,68,254086,1,0,0:0:0:0:
286,68,254252,1,8,0:0:0:0:
284,73,254586,1,0,0:0:0:0:
284,73,254752,1,8,0:0:0:0:
284,73,254919,1,0,0:0:0:0:
284,73,255002,1,8,0:0:0:0:
284,73,255086,1,0,0:0:0:0:
276,79,255419,1,8,0:0:0:0:
276,79,255752,1,0,0:0:0:0:
276,79,255919,1,0,0:0:0:0:
276,79,256002,1,0,0:0:0:0:
276,79,256086,1,8,0:0:0:0:
276,79,256252,1,0,0:0:0:0:
275,79,256586,1,8,0:0:0:0:
275,79,256752,1,0,0:0:0:0:
275,79,256919,1,0,0:0:0:0:
275,79,257086,1,8,0:0:0:0:
275,79,257252,1,0,0:0:0:0:
275,79,257419,1,8,0:0:0:0:
275,79,257586,1,8,0:0:0:0:
275,79,257752,1,0,0:0:0:0:
275,79,257919,1,0,0:0:0:0:
275,79,258086,1,12,0:0:0:0:
267,130,258308,1,0,0:0:0:0:
295,96,258419,1,0,0:0:0:0:
281,122,258530,1,8,0:0:0:0:
286,90,258752,1,8,0:0:0:0:
292,89,258975,1,0,0:0:0:0:
295,95,259086,1,8,0:0:0:0:
295,95,259197,1,0,0:0:0:0:
295,95,259419,1,8,0:0:0:0:
298,85,259641,1,0,0:0:0:0:
293,96,259752,1,0,0:0:0:0:
293,90,259864,1,8,0:0:0:0:
293,90,260086,1,8,0:0:0:0:
296,87,260308,1,0,0:0:0:0:
293,96,260419,1,8,0:0:0:0:
293,96,260530,1,0,0:0:0:0:
295,87,260641,1,0,0:0:0:0:
295,86,260752,1,8,0:0:0:0:
295,86,260975,1,0,0:0:0:0:
295,86,261086,1,8,0:0:0:0:
295,86,261197,1,0,0:0:0:0:
295,86,261419,1,8,0:0:0:0:
295,86,261586,1,0,0:0:0:0:
276,88,261669,1,8,0:0:0:0:
257,106,261752,1,8,0:0:0:0:
342,111,261864,1,0,0:0:0:0:
288,90,262086,1,12,0:0:0:0:
256,192,262253,12,0,262919,0:0:0:0:
257,132,263197,5,8,0:0:0:0:
257,132,263308,1,8,0:0:0:0:
257,132,263419,1,4,0:0:0:0:
257,132,263641,1,12,0:0:0:0:
257,132,263864,1,12,0:0:0:0:
257,132,264086,1,4,0:0:0:0:
257,132,264308,1,12,0:0:0:0:
257,132,264530,1,4,0:0:0:0:
257,132,264752,1,4,0:0:0:0:
257,132,264975,1,12,0:0:0:0:
257,132,265197,1,12,0:0:0:0:
263,115,265419,1,12,0:0:0:0:
257,103,265641,1,4,0:0:0:0:
276,110,265864,1,4,0:0:0:0:
276,110,266086,1,12,0:0:0:0:
276,110,266308,1,4,0:0:0:0:
275,111,266530,1,12,0:0:0:0:
275,111,266752,1,12,0:0:0:0:
282,102,266975,1,0,0:0:0:0:
282,102,267197,1,0,0:0:0:0:
282,102,267419,1,12,0:0:0:0:
282,102,267641,1,8,0:0:0:0:
279,99,267864,1,0,0:0:0:0:
279,99,268086,1,0,0:0:0:0:
279,99,268752,1,12,0:0:0:0:
280,109,269419,1,8,0:0:0:0:
280,109,269752,1,0,0:0:0:0:
280,109,269919,1,0,0:0:0:0:
280,109,270086,1,0,0:0:0:0:
268,110,270419,1,0,0:0:0:0:
268,110,270752,1,8,0:0:0:0:
267,109,271419,1,0,0:0:0:0:
270,108,272086,1,8,0:0:0:0:
270,108,272419,1,0,0:0:0:0:
270,108,272586,1,0,0:0:0:0:
270,108,272752,1,0,0:0:0:0:
270,108,273086,1,0,0:0:0:0:
270,108,273419,1,8,0:0:0:0:
270,108,273586,1,8,0:0:0:0:
297,112,273752,1,0,0:0:0:0:
295,111,273808,1,0,0:0:0:0:
297,112,273864,1,0,0:0:0:0:
297,112,273919,1,8,0:0:0:0:
280,108,274086,1,4,0:0:0:0:
275,96,274336,1,0,0:0:0:0:
286,104,274419,1,8,0:0:0:0:
274,107,274586,1,0,0:0:0:0:
274,107,274669,1,8,0:0:0:0:
274,107,274752,1,0,0:0:0:0:
274,107,274919,1,0,0:0:0:0:
274,107,275086,1,8,0:0:0:0:
280,97,275169,1,8,0:0:0:0:
282,97,275252,1,0,0:0:0:0:
284,101,275308,1,0,0:0:0:0:
288,107,275364,1,8,0:0:0:0:
287,105,275419,1,8,0:0:0:0:
287,105,275669,1,0,0:0:0:0:
287,105,275752,1,8,0:0:0:0:
287,105,275919,1,0,0:0:0:0:
287,105,276002,1,8,0:0:0:0:
287,105,276086,1,0,0:0:0:0:
287,105,276169,1,0,0:0:0:0:
287,105,276252,1,8,0:0:0:0:
287,105,276419,1,0,0:0:0:0:
287,105,276502,1,0,0:0:0:0:
300,106,276586,1,8,0:0:0:0:
287,105,276641,1,8,0:0:0:0:
287,105,276697,1,0,0:0:0:0:
289,101,276752,1,0,0:0:0:0:
289,101,277002,1,0,0:0:0:0:
289,101,277086,1,8,0:0:0:0:
289,101,277252,1,0,0:0:0:0:
289,101,277336,1,0,0:0:0:0:
289,101,277419,1,8,0:0:0:0:
289,101,277586,1,0,0:0:0:0:
289,101,277669,1,8,0:0:0:0:
289,101,277752,1,8,0:0:0:0:
289,101,277919,1,0,0:0:0:0:
289,101,278086,1,8,0:0:0:0:
293,125,278127,1,0,0:0:0:0:
292,125,278252,1,8,0:0:0:0:
292,124,278294,1,0,0:0:0:0:
292,125,278419,1,8,0:0:0:0:
292,125,278461,1,0,0:0:0:0:
294,118,278752,1,0,0:0:0:0:
294,118,278836,1,8,0:0:0:0:
294,118,278919,1,0,0:0:0:0:
294,118,279002,1,0,0:0:0:0:
294,118,279086,1,8,0:0:0:0:
294,118,279169,1,8,0:0:0:0:
294,118,279252,1,0,0:0:0:0:
294,118,279419,1,12,0:0:0:0:
294,118,279586,1,0,0:0:0:0:
294,118,279752,1,0,0:0:0:0:
294,118,279919,1,0,0:0:0:0:
285,113,280086,1,8,0:0:0:0:
300,114,280252,1,0,0:0:0:0:
300,114,280419,1,0,0:0:0:0:
300,114,280586,1,0,0:0:0:0:
286,112,280752,1,8,0:0:0:0:
292,111,280919,1,0,0:0:0:0:
292,111,281086,1,0,0:0:0:0:
292,111,281252,1,0,0:0:0:0:
292,111,281419,1,8,0:0:0:0:
292,111,281586,1,0,0:0:0:0:
292,111,281752,1,0,0:0:0:0:
292,111,281919,1,0,0:0:0:0:
292,111,282086,1,8,0:0:0:0:
292,111,282252,1,0,0:0:0:0:
292,111,282419,1,8,0:0:0:0:
292,111,282586,1,0,0:0:0:0:
292,111,282752,1,8,0:0:0:0:
292,111,282919,1,0,0:0:0:0:
291,108,283086,1,8,0:0:0:0:
291,108,283252,1,0,0:0:0:0:
291,108,283419,1,8,0:0:0:0:
282,109,283586,1,0,0:0:0:0:
282,109,283752,1,8,0:0:0:0:
282,109,283919,1,8,0:0:0:0:
287,102,284086,1,0,0:0:0:0:
287,102,284252,1,8,0:0:0:0:
287,102,284419,1,0,0:0:0:0:
287,102,284586,1,0,0:0:0:0:
287,102,284752,1,8,0:0:0:0:
287,102,284919,1,0,0:0:0:0:
281,88,285086,1,8,0:0:0:0:
281,88,285252,1,0,0:0:0:0:
281,88,285419,1,8,0:0:0:0:
281,88,285586,1,0,0:0:0:0:
281,88,285752,1,8,0:0:0:0:
281,88,285919,1,0,0:0:0:0:
281,88,286086,1,8,0:0:0:0:
281,88,286252,1,0,0:0:0:0:
281,88,286419,1,0,0:0:0:0:
281,88,286586,1,0,0:0:0:0:
281,88,286752,1,8,0:0:0:0:
287,93,286919,1,0,0:0:0:0:
287,93,287086,1,8,0:0:0:0:
278,89,287252,1,0,0:0:0:0:
278,89,287419,1,8,0:0:0:0:
278,89,287586,1,0,0:0:0:0:
278,89,287752,1,0,0:0:0:0:
278,89,287919,1,0,0:0:0:0:
278,89,288086,1,8,0:0:0:0:
278,89,288252,1,8,0:0:0:0:
278,89,288419,1,0,0:0:0:0:
278,89,288586,1,0,0:0:0:0:
270,81,288752,1,8,0:0:0:0:
270,81,288919,1,0,0:0:0:0:
281,75,288975,1,0,0:0:0:0:
277,82,289030,1,8,0:0:0:0:
277,82,289086,1,8,0:0:0:0:
326,99,289252,1,0,0:0:0:0:
278,95,289336,1,0,0:0:0:0:
278,95,289419,1,8,0:0:0:0:
280,80,289502,1,8,0:0:0:0:
278,78,289586,1,8,0:0:0:0:
280,80,289752,1,0,0:0:0:0:
280,80,289927,1,0,0:0:0:0:
287,80,290902,1,8,0:0:0:0:
275,88,291702,1,8,0:0:0:0:
275,88,292502,1,0,0:0:0:0:
275,88,293302,1,0,0:0:0:0:
276,88,294102,1,8,0:0:0:0:
277,88,294902,1,0,0:0:0:0:
288,74,295502,1,8,0:0:0:0:
288,74,295602,1,8,0:0:0:0:
277,88,295702,1,0,0:0:0:0:
280,94,296502,1,4,0:0:0:0:
280,94,296702,1,4,0:0:0:0:
280,99,297102,1,4,0:0:0:0:
280,99,297302,1,12,0:0:0:0:
280,99,297702,1,4,0:0:0:0:
280,99,297902,1,4,0:0:0:0:
280,99,298302,1,4,0:0:0:0:
273,98,298902,1,8,0:0:0:0:
273,98,299102,1,0,0:0:0:0:
273,98,299202,1,8,0:0:0:0:
273,98,299402,1,0,0:0:0:0:
273,98,299502,1,0,0:0:0:0:
279,94,299702,1,4,0:0:0:0:
279,94,299902,1,4,0:0:0:0:
279,94,300302,1,4,0:0:0:0:
279,94,300502,1,12,0:0:0:0:
279,94,300702,1,0,0:0:0:0:
284,98,300902,1,4,0:0:0:0:
284,98,301102,1,4,0:0:0:0:
284,98,301502,1,4,0:0:0:0:
279,85,302102,1,8,0:0:0:0:
279,85,302302,1,0,0:0:0:0:
279,85,302402,1,0,0:0:0:0:
279,85,302502,1,8,0:0:0:0:
279,85,302602,1,8,0:0:0:0:
279,85,302702,1,0,0:0:0:0:
290,93,302768,1,0,0:0:0:0:
286,89,302835,1,8,0:0:0:0:
286,89,302902,1,8,0:0:0:0:
274,91,303702,1,8,0:0:0:0:
271,92,304102,1,0,0:0:0:0:
271,92,304502,1,8,0:0:0:0:
271,92,305302,1,8,0:0:0:0:
276,89,305702,1,0,0:0:0:0:
276,89,306102,1,8,0:0:0:0:
276,89,306202,1,8,0:0:0:0:
257,76,306502,1,0,0:0:0:0:
262,75,306902,1,8,0:0:0:0:
274,81,307790,1,8,0:0:0:0:
274,81,308234,1,8,0:0:0:0:
274,81,308679,1,0,0:0:0:0:
270,73,308879,1,0,0:0:0:0:
270,73,308979,1,0,0:0:0:0:
270,73,309079,1,8,0:0:0:0:
270,73,309179,1,8,0:0:0:0:
270,73,309279,1,0,0:0:0:0:
270,73,309379,1,0,0:0:0:0:
270,73,309479,1,12,0:0:0:0:
270,73,309662,1,12,0:0:0:0:
270,73,309845,1,0,0:0:0:0:
269,73,310029,1,12,0:0:0:0:
269,73,310212,1,12,0:0:0:0:
269,73,310396,1,0,0:0:0:0:
278,87,310579,1,12,0:0:0:0:
278,87,310763,1,12,0:0:0:0:
268,67,310946,1,0,0:0:0:0:
278,87,311130,1,12,0:0:0:0:
278,87,311313,1,12,0:0:0:0:
269,89,311497,1,0,0:0:0:0:
269,89,311680,1,12,0:0:0:0:
267,66,311864,1,0,0:0:0:0:
286,92,312047,1,12,0:0:0:0:
267,66,312231,1,0,0:0:0:0:
286,92,312414,1,12,0:0:0:0:
286,92,312598,1,12,0:0:0:0:
286,92,312781,1,0,0:0:0:0:
285,92,312965,1,12,0:0:0:0:
285,92,313148,1,12,0:0:0:0:
285,92,313332,1,0,0:0:0:0:
285,92,313515,1,12,0:0:0:0:
285,92,313699,1,12,0:0:0:0:
285,92,313882,1,0,0:0:0:0:
285,92,314066,1,12,0:0:0:0:
285,92,314249,1,12,0:0:0:0:
285,92,314433,1,0,0:0:0:0:
285,92,314616,1,12,0:0:0:0:
285,92,314800,1,0,0:0:0:0:
285,92,314891,1,0,0:0:0:0:
286,96,314983,1,12,0:0:0:0:
273,111,315334,1,8,0:0:0:0:
273,111,315416,1,8,0:0:0:0:
273,111,315498,1,0,0:0:0:0:
265,97,315993,1,8,0:0:0:0:
265,97,316667,1,0,0:0:0:0:
265,97,317364,1,8,0:0:0:0:
265,97,318185,1,8,0:0:0:0:
266,97,318730,1,0,0:0:0:0:
287,93,319368,1,8,0:0:0:0:
287,93,319449,1,8,0:0:0:0:
259,98,320672,1,8,0:0:0:0:
260,99,321943,1,0,0:0:0:0:
275,103,322011,1,8,0:0:0:0:
260,99,323586,1,0,0:0:0:0:
258,92,325300,1,8,0:0:0:0:
258,92,327014,1,0,0:0:0:0:
257,92,330443,1,0,0:0:0:0:
255,91,332157,1,8,0:0:0:0:
255,91,333871,1,0,0:0:0:0:
255,91,337300,1,0,0:0:0:0:
255,91,341097,5,0,0:0:0:0:
244,117,344894,5,4,0:0:0:0:
256,192,345813,12,0,359609,0:0:0:0:
